<?xml version="1.0" standalone="no"?>
<!DOCTYPE svg PUBLIC "-//W3C//DTD SVG 1.1//EN" "http://www.w3.org/Graphics/SVG/1.1/DTD/svg11.dtd" >
<svg xmlns="http://www.w3.org/2000/svg" xmlns:xlink="http://www.w3.org/1999/xlink" version="1.1">
<metadata>
Created by FontForge 20170731 at Thu Jan 14 12:16:39 2016
 By Aleksey,,,
(URW)++,Copyright 2015 by (URW)++ Design &#38; Development
</metadata>
<defs>
<font id="URWGeometric-Bold" horiz-adv-x="792" >
  <font-face 
    font-family="URW Geometric"
    font-weight="700"
    font-stretch="normal"
    units-per-em="2048"
    panose-1="0 0 0 0 0 0 0 0 0 0"
    ascent="1498"
    descent="-550"
    x-height="908"
    cap-height="1365"
    bbox="-273 -577 2511 2222"
    underline-thickness="212"
    underline-position="-519"
    unicode-range="U+0020-FB04"
  />
<missing-glyph horiz-adv-x="471" 
d="M424 0h-377v1365h377v-1365zM94 47h283v1271h-283v-1271z" />
    <glyph glyph-name="afii61352" unicode="Nr&#x2e;" horiz-adv-x="2171" 
d="M2031 553h-528v164h528v-164zM1772 1395q128 0 217 -95q76 -82 76 -196q0 -134 -99 -219q-82 -73 -199 -73q-133 0 -222 95q-76 82 -76 199q0 129 99 216q82 73 204 73zM1767 1245q-60 0 -97 -39.5t-37 -103.5q0 -62 38 -101t99 -39q57 0 94 40t37 101q0 63 -37.5 102.5
t-96.5 39.5zM385 0h-242v1365h209l711 -949v949h242v-1365h-209l-711 949v-949z" />
    <glyph glyph-name="ff" unicode="ff" horiz-adv-x="1059" 
d="M363 1052v-144h155v-210h-155v-698h-233v698h-86v210h86v144q0 151 65.5 230.5t189.5 79.5q55 0 131 -17v-211q-57 17 -82 17q-39 0 -55 -22.5t-16 -76.5zM886 1072v-164h155v-210h-155v-698h-233v698h-87v210h87v164q0 151 65.5 230.5t189.5 79.5q54 0 130 -17v-210
q-54 16 -81 16q-39 0 -55 -22t-16 -77z" />
    <glyph glyph-name="fi" unicode="fi" horiz-adv-x="974" 
d="M363 1072v-164h155v-210h-155v-698h-233v698h-86v210h86v164q0 151 65.5 230.5t189.5 79.5q55 0 131 -17v-210q-54 16 -82 16q-39 0 -55 -22t-16 -77zM632 908h233v-908h-233v908zM750 1359q58 0 102 -42q42 -44 42 -101q0 -60 -42 -102q-44 -42 -104 -42q-61 0 -103 42
q-43 42 -43 103q0 59 43 101q44 41 105 41z" />
    <glyph glyph-name="fl" unicode="fl" horiz-adv-x="977" 
d="M363 1072v-164h155v-210h-155v-698h-233v698h-86v210h86v164q0 151 65.5 230.5t189.5 79.5q55 0 131 -17v-210q-54 16 -82 16q-39 0 -55 -22t-16 -77zM866 1365v-1365h-233v1365h233z" />
    <glyph glyph-name="ffi" unicode="ffi" horiz-adv-x="1494" 
d="M363 1052v-144h155v-210h-155v-698h-233v698h-86v210h86v144q0 151 65.5 230.5t189.5 79.5q55 0 131 -17v-211q-57 17 -82 17q-39 0 -55 -22.5t-16 -76.5zM885 1072v-164h156v-210h-156v-698h-233v698h-86v210h86v164q0 151 65.5 230.5t189.5 79.5q55 0 131 -17v-210
q-54 16 -82 16q-39 0 -55 -22t-16 -77zM1151 908h233v-908h-233v908zM1270 1359q58 0 101 -42q42 -44 42 -101q0 -60 -42 -102q-43 -42 -104 -42t-103 42q-43 42 -43 103q0 59 43 101q44 41 106 41z" />
    <glyph glyph-name="ffl" unicode="ffl" horiz-adv-x="1496" 
d="M363 1052v-144h155v-210h-155v-698h-233v698h-86v210h86v144q0 151 65.5 230.5t189.5 79.5q55 0 131 -17v-211q-57 17 -82 17q-39 0 -55 -22.5t-16 -76.5zM885 1072v-164h156v-210h-156v-698h-233v698h-86v210h86v164q0 151 65.5 230.5t189.5 79.5q55 0 131 -17v-210
q-54 16 -82 16q-39 0 -55 -22t-16 -77zM1385 1365v-1365h-233v1365h233z" />
    <glyph glyph-name=".notdef" horiz-adv-x="471" 
d="M424 0h-377v1365h377v-1365zM94 47h283v1271h-283v-1271z" />
    <glyph glyph-name="glyph1" horiz-adv-x="0" 
 />
    <glyph glyph-name="glyph2" horiz-adv-x="471" 
 />
    <glyph glyph-name="space" unicode=" " horiz-adv-x="471" 
 />
    <glyph glyph-name="exclam" unicode="!" horiz-adv-x="620" 
d="M420 350h-220l-20 1015h260zM312 260q58 0 102 -42q42 -44 42 -101q0 -60 -42 -102q-44 -42 -104 -42q-61 0 -103 42q-43 42 -43 103q0 59 43 101q44 41 105 41z" />
    <glyph glyph-name="quotedbl" unicode="&#x22;" horiz-adv-x="678" 
d="M308 1406l-28 -607h-184l-28 607h240zM609 1406l-27 -607h-185l-28 607h240z" />
    <glyph glyph-name="numbersign" unicode="#" horiz-adv-x="1208" 
d="M154 11l75 366h-147l37 183h147l49 240h-147l38 183h147l84 409l192 -45l-75 -364h224l84 409l193 -41l-76 -368h147l-38 -183h-146l-49 -240h146l-37 -183h-147l-84 -410l-192 44l75 366h-224l-84 -410zM468 560h223l49 240h-223z" />
    <glyph glyph-name="dollar" unicode="$" horiz-adv-x="1191" 
d="M488 -212v190q-308 62 -372 405l236 61q28 -109 43 -137q60 -110 186 -110q94 0 155 64q59 62 59 143q0 69 -57 112q-48 37 -138 71l-123 47q-301 115 -301 366q0 138 85 241q87 105 227 139v190h239v-189q95 -23 161 -78q66 -56 139 -173l-198 -124q-51 79 -75 103
q-62 60 -146 60q-58 0 -99 -22q-40 -20 -65.5 -62t-25.5 -87q0 -96 159 -157l129 -49q167 -65 248 -153q87 -96 87 -234q0 -141 -86 -256q-87 -113 -228 -157v-204h-239z" />
    <glyph glyph-name="percent" unicode="%" horiz-adv-x="1836" 
d="M1420 827q334 0 334 -423q0 -422 -329 -422q-332 0 -332 428q0 175 61 278q82 139 266 139zM1424 672q-158 0 -158 -271q0 -264 158 -264q157 0 157 268q0 267 -157 267zM462 45l781 1350l131 -76l-781 -1350zM410 1383q333 0 333 -422t-329 -422q-332 0 -332 427
q0 175 61 278q82 139 267 139zM413 1228q-158 0 -158 -270q0 -264 158 -264q157 0 157 267t-157 267z" />
    <glyph glyph-name="ampersand" unicode="&#x26;" horiz-adv-x="1356" 
d="M692 755l249 -294q23 47 72 183l218 -60q-12 -36 -16 -47q-53 -163 -113 -265l230 -272h-290l-85 102q-167 -132 -364 -132q-222 0 -356 137q-114 115 -114 271q0 112 62 204q61 90 208 195q-74 95 -105 161q-30 64 -30 132q0 141 99 237q91 88 231 88q148 0 239 -99
q84 -92 84 -212q0 -91 -50 -168q-50 -75 -169 -161zM565 904q82 66 109 103t27 83q0 49 -32.5 81.5t-81.5 32.5q-61 0 -93 -45q-26 -35 -26 -78q0 -36 18 -69q19 -35 79 -108zM811 277l-291 348q-89 -71 -127 -127q-36 -53 -36 -112q0 -84 68 -143q67 -58 166 -58
q120 0 220 92z" />
    <glyph glyph-name="quotesingle" unicode="'" horiz-adv-x="377" 
d="M308 1406l-28 -607h-184l-28 607h240z" />
    <glyph glyph-name="parenleft" unicode="(" horiz-adv-x="655" 
d="M337 1528l208 -98q-57 -147 -82 -243q-76 -289 -76 -622q0 -247 36 -444q36 -196 122 -420l-208 -98q-52 112 -67 151q-14 40 -36 125q-84 330 -84 686q0 395 100 743q22 78 87 220z" />
    <glyph glyph-name="parenright" unicode=")" horiz-adv-x="655" 
d="M109 1430l209 98q72 -157 102 -277q84 -331 84 -686q0 -391 -99 -743q-23 -76 -87 -219l-209 98q55 142 82 242q76 288 76 622q0 247 -36 445q-36 194 -122 420z" />
    <glyph glyph-name="asterisk" unicode="*" horiz-adv-x="1010" 
d="M184 1381l221 -82l-9 236h219l-10 -236l222 82l67 -208l-227 -64l146 -185l-177 -129l-131 197l-131 -197l-177 129l147 185l-228 64z" />
    <glyph glyph-name="plus" unicode="+" horiz-adv-x="1139" 
d="M55 744h407v410h215v-410h407v-209h-407v-409h-215v409h-407v209z" />
    <glyph glyph-name="comma" unicode="," horiz-adv-x="531" 
d="M28 -295l197 547l214 -77l-240 -538z" />
    <glyph glyph-name="hyphen" unicode="-" horiz-adv-x="563" 
d="M55 365v213h454v-213h-454z" />
    <glyph glyph-name="period" unicode="." horiz-adv-x="513" 
d="M259 260q59 0 102 -42q42 -44 42 -101q0 -60 -42 -102q-43 -42 -104 -42t-103 42q-43 42 -43 103q0 59 43 101q44 41 105 41z" />
    <glyph glyph-name="slash" unicode="/" horiz-adv-x="1135" 
d="M92 77l768 1322l183 -110l-767 -1322z" />
    <glyph glyph-name="zero" unicode="0" horiz-adv-x="1184" 
d="M592 1395q530 0 530 -713q0 -712 -529 -712q-532 0 -532 722q0 296 99 472q130 231 432 231zM592 1168q-284 0 -284 -492q0 -479 284 -479q283 0 283 485q0 486 -283 486z" />
    <glyph glyph-name="one" unicode="1" horiz-adv-x="665" 
d="M522 1365v-1365h-242v1075l-172 -98l-115 197l336 191h193z" />
    <glyph glyph-name="two" unicode="2" horiz-adv-x="1010" 
d="M977 0h-892v193l487 540q136 149 136 273q0 73 -51 117t-135 44q-124 0 -174 -80q-23 -37 -53 -137l-224 62q30 132 85 208q124 175 372 175q187 0 305 -113q115 -109 115 -282q0 -197 -145 -357l-377 -418h551v-225z" />
    <glyph glyph-name="three" unicode="3" horiz-adv-x="996" 
d="M358 603v221h106q78 0 125 26q34 19 55 59t21 86q0 79 -52 126.5t-139 47.5q-68 0 -115 -32q-45 -32 -101 -120l-203 110q73 124 144 179q115 89 274 89q173 0 292 -96q139 -115 139 -298q0 -161 -123 -273q72 -61 104 -121q49 -88 49 -199q0 -213 -157 -336
q-131 -102 -310 -102q-214 0 -341 142q-43 47 -67 102q-25 54 -47 152l236 61q26 -103 54 -147q51 -82 169 -82q98 0 159 58t61 151q0 97 -58 146.5t-169 49.5h-106z" />
    <glyph glyph-name="four" unicode="4" horiz-adv-x="1066" 
d="M621 1406l198 -122l-492 -779h288v307h241v-307h158v-221h-158v-284h-241v284h-574v205z" />
    <glyph glyph-name="five" unicode="5" horiz-adv-x="1095" 
d="M496 1142l-45 -219q51 8 85 8q106 0 205 -44t166 -121q113 -131 113 -309q0 -127 -63 -238q-67 -121 -187 -187q-113 -62 -254 -62q-147 0 -252 68q-108 68 -203 220l193 133q58 -93 84 -121q70 -73 185 -73q107 0 181 74t74 178q0 110 -71 184q-72 75 -182 75
q-99 0 -163 -62l-24 -25l-187 39l144 705h660v-223h-459z" />
    <glyph glyph-name="six" unicode="6" horiz-adv-x="1120" 
d="M177 769l458 637l189 -139l-258 -359q171 -7 288 -88q90 -63 139.5 -159t49.5 -207q0 -126 -61 -235q-66 -120 -184 -186q-110 -63 -241 -63q-213 0 -357 153q-131 139 -131 330q0 166 108 316zM555 686q-104 0 -175 -70q-70 -67 -70 -171t69 -176q70 -73 176 -73
q104 0 176 74q71 74 71 180q0 103 -67 167q-72 69 -180 69z" />
    <glyph glyph-name="seven" unicode="7" horiz-adv-x="930" 
d="M59 69l583 1073h-628v223h917v-175l-661 -1231z" />
    <glyph glyph-name="eight" unicode="8" horiz-adv-x="1056" 
d="M233 728q-62 59 -88 106q-42 78 -42 167q0 113 63 209q60 92 158 140q92 45 204 45q185 0 307 -119q117 -116 117 -275q0 -81 -30 -143.5t-100 -129.5q81 -66 115 -121q57 -91 57 -206q0 -206 -157 -329q-131 -102 -309 -102q-210 0 -347 135q-120 119 -120 296
q0 103 40 177q39 74 132 150zM525 611q-105 0 -167 -63q-57 -59 -57 -149q0 -92 64 -150q64 -59 163 -59q106 0 169 65q57 59 57 144q0 96 -63 154q-62 58 -166 58zM526 1184q-90 0 -145 -58q-51 -51 -51 -131q0 -83 66 -136q54 -42 132 -42q91 0 147 56q51 49 51 126
q0 88 -66 142q-53 43 -134 43z" />
    <glyph glyph-name="nine" unicode="9" horiz-adv-x="1125" 
d="M942 596l-458 -637l-189 139l258 359q-171 7 -288 88q-90 63 -139.5 159t-49.5 207q0 215 159 359q137 125 327 125q213 0 357 -153q131 -139 131 -330q0 -166 -108 -316zM564 1169q-104 0 -176 -74q-71 -74 -71 -180q0 -100 67 -167q70 -69 180 -69q105 0 175 70
q70 67 70 171q0 106 -69 176q-72 73 -176 73z" />
    <glyph glyph-name="colon" unicode=":" horiz-adv-x="513" 
d="M259 260q59 0 102 -42q42 -44 42 -101q0 -60 -42 -102q-43 -42 -104 -42t-103 42q-43 42 -43 103q0 59 43 101q44 41 105 41zM259 880q59 0 102 -42q42 -42 42 -101q0 -60 -42 -102q-43 -42 -104 -42t-103 42q-43 42 -43 103q0 59 43 101q44 41 105 41z" />
    <glyph glyph-name="semicolon" unicode=";" horiz-adv-x="521" 
d="M28 -295l197 547l214 -77l-240 -538zM298 880q58 0 102 -42q42 -44 42 -101q0 -60 -42 -102q-44 -42 -104 -42q-61 0 -103 42q-43 42 -43 103q0 59 43 101q44 41 105 41z" />
    <glyph glyph-name="less" unicode="&#x3c;" horiz-adv-x="1180" 
d="M105 783l969 455v-244l-665 -304l665 -305v-243l-969 456v185z" />
    <glyph glyph-name="equal" unicode="=" horiz-adv-x="1139" 
d="M114 908h910v-210h-910v210zM114 581h910v-210h-910v210z" />
    <glyph glyph-name="greater" unicode="&#x3e;" horiz-adv-x="1180" 
d="M1074 597l-969 -456v245l665 304l-665 304v243l969 -455v-185z" />
    <glyph glyph-name="question" unicode="?" horiz-adv-x="892" 
d="M557 350h-239v135q0 100 25 153q27 55 103 118l85 71q107 92 107 187q0 71 -46.5 112.5t-125.5 41.5q-80 0 -127 -34q-47 -33 -113 -137l-178 143q134 255 407 255q152 0 255 -64q65 -41 107 -105q61 -92 61 -216q0 -94 -39 -171q-41 -77 -135 -165l-95 -88
q-42 -39 -46 -50q-6 -12 -6 -67v-119zM440 260q58 0 102 -42q42 -44 42 -101q0 -60 -42 -102q-43 -42 -104 -42t-103 42q-43 42 -43 103q0 59 43 101q44 41 105 41z" />
    <glyph glyph-name="at" unicode="@" horiz-adv-x="1838" 
d="M1034 1087h274l-87 -674h8q138 0 213 87q78 92 78 269q0 198 -103 335q-138 185 -430 185q-191 0 -347 -75q-154 -74 -240 -228q-81 -144 -81 -322q0 -286 198 -450q167 -137 464 -137q119 0 219 17q97 17 245 63l62 -167q-255 -88 -534 -88q-425 0 -645 240
q-191 208 -191 518q0 228 103 413q113 200 313 297q192 94 428 94q392 0 589 -266q132 -178 132 -423q0 -262 -152 -411q-69 -67 -156.5 -96.5t-218.5 -29.5h-273q-114 0 -209 54q-173 99 -173 325q0 203 127 333q134 137 387 137zM919 413h116l65 499h-85q-101 0 -167 -33
q-66 -35 -102 -100q-38 -71 -38 -156q0 -99 56 -154.5t155 -55.5z" />
    <glyph glyph-name="A" unicode="A" horiz-adv-x="1303" 
d="M1053 0l-121 335h-563l-121 -335h-255l510 1365h297l509 -1365h-256zM451 560h399l-200 549z" />
    <glyph glyph-name="B" unicode="B" horiz-adv-x="1081" 
d="M524 0h-381v1365h316q227 0 342 -85q69 -50 109 -131t40 -168q0 -142 -113 -252q28 -17 50 -36q59 -53 93 -130q35 -81 35 -164q0 -184 -150 -302q-69 -52 -146 -75q-75 -22 -195 -22zM382 1147v-345h100q72 0 110 9q36 7 66 33q59 48 59 131q0 91 -58 134
q-52 38 -177 38h-100zM382 593v-371h131q80 0 120 10q44 11 77 37q65 51 65 138q0 48 -22.5 89t-60.5 63q-59 34 -197 34h-113z" />
    <glyph glyph-name="C" unicode="C" horiz-adv-x="1380" 
d="M1327 1141l-171 -164q-74 78 -120 111q-106 78 -250 78q-230 0 -366 -172q-108 -135 -108 -312q0 -214 148 -353q136 -130 326 -130q144 0 263 87q27 21 113 105l171 -164q-90 -92 -156 -137q-171 -120 -389 -120q-204 0 -374 101q-158 95 -252 255q-96 166 -96 356
q0 188 96 355q97 169 263 263q167 95 363 95q156 0 283 -60q126 -59 256 -194z" />
    <glyph glyph-name="D" unicode="D" horiz-adv-x="1268" 
d="M143 0v1365h313q310 0 504 -152q241 -189 241 -529q0 -346 -241 -532q-197 -152 -504 -152h-313zM462 1140h-77v-915h77q209 0 339 103q156 123 156 356q0 230 -156 353q-130 103 -339 103z" />
    <glyph glyph-name="E" unicode="E" horiz-adv-x="990" 
d="M905 1365v-224h-520v-337h462v-225h-462v-354h539v-225h-781v1365h762z" />
    <glyph glyph-name="F" unicode="F" horiz-adv-x="914" 
d="M860 1365v-224h-475v-337h433v-225h-433v-579h-242v1365h717z" />
    <glyph glyph-name="G" unicode="G" horiz-adv-x="1488" 
d="M786 525v225h633v-117q0 -187 -70 -331q-68 -140 -194 -226q-154 -106 -363 -106q-289 0 -494 187q-110 102 -171 239t-61 284q0 190 96 357q96 168 263 263t362 95q222 0 397 -126q52 -37 142 -125l-170 -164q-87 87 -120 110q-109 76 -250 76q-230 0 -366 -172
q-108 -135 -108 -314q0 -126 58 -232q62 -114 169 -180q112 -69 250 -69q225 0 331 181q32 55 47 145h-381z" />
    <glyph glyph-name="H" unicode="H" horiz-adv-x="1333" 
d="M385 1365v-561h562v561h242v-1365h-242v579h-562v-579h-242v1365h242z" />
    <glyph glyph-name="I" unicode="I" horiz-adv-x="529" 
d="M143 1365h242v-1365h-242v1365z" />
    <glyph glyph-name="J" unicode="J" horiz-adv-x="866" 
d="M480 1365h242v-941q0 -118 -17 -183q-48 -176 -194 -238q-78 -33 -163 -33q-97 0 -181 42q-83 41 -181 138l153 175q119 -126 209 -126q70 0 101 52.5t31 172.5v941z" />
    <glyph glyph-name="K" unicode="K" horiz-adv-x="1213" 
d="M1219 1365l-535 -578l528 -787h-285l-408 609l-134 -145v-464h-242v1365h242v-573l530 573h304z" />
    <glyph glyph-name="L" unicode="L" horiz-adv-x="891" 
d="M143 1365h242v-1140h501v-225h-743v1365z" />
    <glyph glyph-name="M" unicode="M" horiz-adv-x="1642" 
d="M385 0h-242v1365h228l450 -799l449 799h228v-1365h-242v894l-342 -609h-187l-342 609v-894z" />
    <glyph glyph-name="N" unicode="N" horiz-adv-x="1449" 
d="M385 0h-242v1365h209l711 -949v949h242v-1365h-209l-711 949v-949z" />
    <glyph glyph-name="O" unicode="O" horiz-adv-x="1560" 
d="M780 1395q190 0 353 -95q168 -97 265 -262q97 -164 97 -356q0 -190 -98 -357q-94 -160 -253 -254q-172 -101 -369 -101q-186 0 -358 101q-161 95 -254 254q-97 167 -97 368q0 185 97 345q105 171 265 262q166 95 352 95zM777 1166q-214 0 -355 -172q-110 -134 -110 -320
q0 -120 58 -226q62 -113 172 -180q112 -69 238 -69t239 69q110 67 172 180q58 107 58 234q0 206 -144 350q-136 134 -328 134z" />
    <glyph glyph-name="P" unicode="P" horiz-adv-x="971" 
d="M456 516h-71v-516h-242v1365h313q129 0 212.5 -24.5t146.5 -81.5q135 -121 135 -318t-135 -318q-79 -72 -180 -91q-79 -16 -179 -16zM385 1144v-409h88q130 0 183 52q56 56 56 154q0 96 -56 152q-52 51 -183 51h-88z" />
    <glyph glyph-name="Q" unicode="Q" horiz-adv-x="1555" 
d="M1294 189l123 -121l-167 -166l-148 146q-160 -78 -324 -78q-191 0 -361 101q-159 93 -254 254q-97 166 -97 357q0 190 97 356t265 262q166 95 352 95q187 0 353 -95q168 -96 265 -262t97 -355q0 -138 -52.5 -266.5t-148.5 -227.5zM1001 477l124 -122q124 139 124 327
q0 207 -144 350q-137 134 -324 134q-133 0 -245 -70q-111 -71 -170 -188q-54 -105 -54 -226q0 -212 150 -353q137 -130 319 -130q73 0 143 24l-90 89z" />
    <glyph glyph-name="R" unicode="R" horiz-adv-x="1135" 
d="M778 579l325 -579h-273l-289 519q-49 -3 -85 -3h-71v-516h-242v1365h313q136 0 225 -24q90 -26 156 -83q68 -57 106.5 -142t38.5 -180q0 -114 -53.5 -207t-150.5 -150zM385 1144v-408h88q147 0 210 54q61 52 61 149q0 99 -63 152q-62 53 -208 53h-88z" />
    <glyph glyph-name="S" unicode="S" horiz-adv-x="1064" 
d="M972 1130l-198 -123q-50 77 -75 102q-61 60 -146 60q-58 0 -99 -22q-40 -20 -65.5 -62t-25.5 -87q0 -97 159 -157l128 -49q166 -63 249 -153q87 -96 87 -233q0 -198 -154 -327q-128 -109 -310 -109q-178 0 -303 109q-106 92 -140 229q-3 15 -18 75l236 62q7 -30 12 -49
q49 -199 218 -199q94 0 155 64q58 61 58 143q0 68 -57 113q-44 33 -138 70l-123 47q-301 115 -301 366q0 194 154 306q121 89 281 89q190 0 317 -129q36 -36 99 -136z" />
    <glyph glyph-name="T" unicode="T" horiz-adv-x="897" 
d="M903 1141h-334v-1141h-242v1141h-334v224h910v-224z" />
    <glyph glyph-name="U" unicode="U" horiz-adv-x="1309" 
d="M143 1365h242v-839q0 -85 8 -135q7 -44 29 -80q29 -48 96 -80q66 -32 136 -32t137 32q67 33 97 80q22 34 29 79q7 42 7 136v839h242v-877q0 -111 -22 -186.5t-73 -139.5q-72 -93 -190 -145q-109 -47 -226 -47q-174 0 -311 94q-106 72 -153.5 172t-47.5 252v877z" />
    <glyph glyph-name="V" unicode="V" horiz-adv-x="1168" 
d="M1174 1365l-450 -1365h-280l-451 1365h254l337 -1021l337 1021h253z" />
    <glyph glyph-name="W" unicode="W" horiz-adv-x="1795" 
d="M-7 1365h253l264 -942l286 942h203l286 -942l264 942h252l-406 -1365h-222l-276 901l-276 -901h-222z" />
    <glyph glyph-name="X" unicode="X" horiz-adv-x="1162" 
d="M1130 1365l-412 -652l451 -713h-277l-312 499l-313 -499h-274l451 711l-412 654h273l277 -441l278 441h270z" />
    <glyph glyph-name="Y" unicode="Y" horiz-adv-x="1106" 
d="M432 0v565l-452 800h270l304 -553l303 553h269l-452 -800v-565h-242z" />
    <glyph glyph-name="Z" unicode="Z" horiz-adv-x="1047" 
d="M1002 1176l-664 -951h678v-225h-989v189l675 953h-617v223h917v-189z" />
    <glyph glyph-name="bracketleft" unicode="[" horiz-adv-x="637" 
d="M565 1282h-179v-1433h179v-218h-415v1869h415v-218z" />
    <glyph glyph-name="backslash" unicode="\" horiz-adv-x="1135" 
d="M92 1289l183 110l768 -1322l-185 -110z" />
    <glyph glyph-name="bracketright" unicode="]" horiz-adv-x="637" 
d="M252 -151v1433h-180v218h416v-1869h-416v218h180z" />
    <glyph glyph-name="asciicircum" unicode="^" horiz-adv-x="1163" 
d="M581 1145l-266 -452h-285l421 728h262l421 -728h-287z" />
    <glyph glyph-name="underscore" unicode="_" horiz-adv-x="1065" 
d="M-20 -307v212h1106v-212h-1106z" />
    <glyph glyph-name="grave" unicode="`" horiz-adv-x="975" 
d="M481 1005l-315 317l221 118l251 -345z" />
    <glyph glyph-name="a" unicode="a" horiz-adv-x="1113" 
d="M1005 908v-908h-233v58q-115 -88 -244 -88q-212 0 -354 159q-123 137 -123 326q0 219 159 361q137 122 318 122q129 0 244 -88v58h233zM528 726q-115 0 -187 -92q-54 -69 -54 -179q0 -129 73 -202q71 -71 172 -71q120 0 190 93q53 71 53 181q0 125 -72 200
q-67 70 -175 70z" />
    <glyph glyph-name="b" unicode="b" horiz-adv-x="1113" 
d="M342 0h-233v1365h233v-515q115 88 244 88q211 0 354 -158q123 -136 123 -325q0 -221 -159 -363q-137 -122 -318 -122q-129 0 -244 88v-58zM577 726q-114 0 -183 -92q-53 -71 -53 -179q0 -126 71 -202q68 -71 170 -71q119 0 191 93q54 71 54 180q0 128 -73 201
q-69 70 -177 70z" />
    <glyph glyph-name="c" unicode="c" horiz-adv-x="952" 
d="M923 749l-155 -150q-78 81 -120 104q-44 23 -111 23q-125 0 -196 -92q-54 -70 -54 -179q0 -129 73 -202q69 -71 178 -71q68 0 120 30q51 28 115 104l156 -150q-95 -105 -186 -150q-91 -46 -206 -46q-223 0 -364 158q-122 139 -122 326q0 220 159 363q134 121 327 121
q113 0 202 -43q89 -44 184 -146z" />
    <glyph glyph-name="d" unicode="d" horiz-adv-x="1113" 
d="M1005 1365v-1365h-233v58q-115 -88 -244 -88q-212 0 -354 159q-123 137 -123 326q0 219 159 361q137 122 318 122q129 0 244 -88v515h233zM528 726q-115 0 -187 -92q-54 -70 -54 -179q0 -129 73 -202q71 -71 172 -71q119 0 188 92q53 73 53 182q0 124 -71 200
q-67 70 -174 70z" />
    <glyph glyph-name="e" unicode="e" horiz-adv-x="1010" 
d="M959 367h-668q19 -73 58 -115q68 -71 169 -71q120 0 193 75q18 20 46 64l198 -82q-67 -112 -134 -165q-128 -103 -302 -103q-216 0 -351 159q-117 137 -117 326q0 129 59 239q61 117 172 182q106 62 227 62q199 0 325 -141q126 -142 126 -365q0 -35 -1 -65zM291 541h436
q-60 191 -218 191q-82 0 -138.5 -49.5t-79.5 -141.5z" />
    <glyph glyph-name="f" unicode="f" horiz-adv-x="539" 
d="M363 1072v-164h155v-210h-155v-698h-233v698h-86v210h86v164q0 151 65.5 230.5t189.5 79.5q55 0 131 -17v-210q-54 16 -82 16q-39 0 -55 -22t-16 -77z" />
    <glyph glyph-name="g" unicode="g" horiz-adv-x="1113" 
d="M772 -18v76q-70 -50 -123 -69t-124 -19q-209 0 -351 159q-123 137 -123 326q0 219 159 361q137 122 315 122q73 0 124 -19q53 -19 123 -69v58h233v-926q0 -199 -111 -328q-140 -162 -378 -162q-190 0 -330 110q-36 29 -119 124l153 151q8 -10 35 -40q61 -71 100 -92
q68 -41 159 -41q123 0 190.5 73t67.5 205zM528 726q-115 0 -187 -92q-54 -69 -54 -179q0 -129 73 -202q71 -71 172 -71q120 0 189 92q52 70 52 182q0 126 -71 200q-66 70 -174 70z" />
    <glyph glyph-name="h" unicode="h" horiz-adv-x="1043" 
d="M342 1365v-505q98 78 211 78q80 0 155 -32t127 -89q53 -56 76.5 -133.5t23.5 -195.5v-488h-233v473q0 153 -45 204q-43 49 -121 49q-101 0 -152 -63q-42 -53 -42 -209v-454h-233v1365h233z" />
    <glyph glyph-name="i" unicode="i" horiz-adv-x="452" 
d="M109 908h233v-908h-233v908zM228 1359q58 0 102 -42q42 -43 42 -101q0 -60 -42 -102q-44 -42 -104 -42q-61 0 -103 42q-43 42 -43 103q0 59 43 101q44 41 105 41z" />
    <glyph glyph-name="j" unicode="j" horiz-adv-x="471" 
d="M128 908h233v-1096q0 -136 -52 -212q-67 -97 -199 -97q-59 0 -134 23v220q72 -22 107 -22q26 0 35.5 18.5t9.5 69.5v1096zM247 1359q59 0 102 -42q42 -43 42 -101q0 -60 -42 -102q-43 -42 -104 -42t-103 42q-43 42 -43 103q0 59 43 101q44 41 105 41z" />
    <glyph glyph-name="k" unicode="k" horiz-adv-x="986" 
d="M978 908l-390 -382l416 -526h-288l-287 371l-87 -85v-286h-233v1365h233v-781l329 324h307z" />
    <glyph glyph-name="l" unicode="l" horiz-adv-x="455" 
d="M344 1365v-1365h-233v1365h233z" />
    <glyph glyph-name="m" unicode="m" horiz-adv-x="1569" 
d="M789 829q113 109 275 109q195 0 307 -136q61 -73 78 -161q12 -67 12 -153v-488h-233v472q0 155 -42 206q-39 48 -108 48q-89 0 -136 -62q-39 -52 -39 -211v-453h-233v472q0 155 -42 206q-39 48 -110 48q-90 0 -137 -62q-39 -52 -39 -211v-453h-233v908h233v-48
q54 47 95 62q42 16 105 16q138 0 247 -109z" />
    <glyph glyph-name="n" unicode="n" horiz-adv-x="1043" 
d="M342 908v-48q98 78 211 78q80 0 155 -32t127 -89q53 -56 76.5 -133.5t23.5 -195.5v-488h-233v473q0 153 -45 204q-43 49 -121 49q-101 0 -152 -63q-42 -53 -42 -209v-454h-233v908h233z" />
    <glyph glyph-name="o" unicode="o" horiz-adv-x="1066" 
d="M542 938q208 0 351 -158q123 -136 123 -325q0 -221 -159 -363q-136 -122 -323 -122q-218 0 -361 158q-122 137 -122 330q0 216 159 358q136 122 332 122zM529 726q-116 0 -188 -92q-54 -70 -54 -179q0 -129 73 -202q71 -71 174 -71q122 0 192 93q54 71 54 180
q0 128 -73 201q-69 70 -178 70z" />
    <glyph glyph-name="p" unicode="p" horiz-adv-x="1113" 
d="M109 -478v1386h233v-58q115 88 244 88q212 0 354 -159q123 -137 123 -326q0 -219 -159 -361q-137 -122 -318 -122q-129 0 -244 88v-536h-233zM582 726q-119 0 -188 -93q-53 -71 -53 -181q0 -124 71 -200q67 -70 174 -70q116 0 187 92q54 70 54 179q0 129 -73 202
q-69 71 -172 71z" />
    <glyph glyph-name="q" unicode="q" horiz-adv-x="1113" 
d="M772 908h233v-1386h-233v536q-115 -88 -244 -88q-211 0 -354 158q-123 136 -123 325q0 221 159 363q137 122 318 122q129 0 244 -88v58zM532 726q-119 0 -191 -93q-54 -71 -54 -180q0 -128 73 -201q70 -70 177 -70q114 0 183 92q53 71 53 179q0 126 -71 202
q-68 71 -170 71z" />
    <glyph glyph-name="r" unicode="r" horiz-adv-x="629" 
d="M342 908v-59q79 65 178 65q35 0 86 -6v-209q-48 4 -84 4q-102 0 -141 -57q-39 -58 -39 -209v-437h-233v908h233z" />
    <glyph glyph-name="s" unicode="s" horiz-adv-x="786" 
d="M728 723l-181 -90q-40 56 -69 76.5t-69 20.5q-43 0 -68.5 -20t-25.5 -53q0 -31 19 -44q19 -15 96 -44l83 -31q89 -34 141 -78q81 -68 81 -180q0 -136 -108 -228q-94 -82 -232 -82q-182 0 -284 139q-38 52 -71 143l190 76q43 -84 79 -116q35 -32 87 -32q48 0 77 26t29 68
q0 30 -21 46q-18 14 -95 44l-92 35q-203 78 -203 252q0 130 101 213q94 74 219 74q107 0 182.5 -51t134.5 -164z" />
    <glyph glyph-name="t" unicode="t" horiz-adv-x="545" 
d="M492 698h-140v-405q0 -51 9.5 -70t36.5 -19q32 0 107 23v-221q-77 -23 -135 -23q-121 0 -186 80.5t-65 229.5v405h-95v210h95v195l233 91v-286h140v-210z" />
    <glyph glyph-name="u" unicode="u" horiz-adv-x="1043" 
d="M702 0v48q-58 -45 -102 -61q-48 -17 -109 -17q-80 0 -155 32t-127 89q-53 56 -76.5 133.5t-23.5 195.5v488h233v-473q0 -155 45 -204t122 -49q101 0 151 63q42 53 42 209v454h233v-908h-233z" />
    <glyph glyph-name="v" unicode="v" horiz-adv-x="952" 
d="M-19 908h253l242 -572l242 572h254l-393 -908h-205z" />
    <glyph glyph-name="w" unicode="w" horiz-adv-x="1356" 
d="M-19 908h251l169 -522l185 522h185l185 -522l170 522h250l-330 -908h-184l-184 515l-183 -515h-184z" />
    <glyph glyph-name="x" unicode="x" horiz-adv-x="979" 
d="M964 908l-336 -438l361 -470h-276l-223 293l-223 -293h-277l362 469l-337 439h277l199 -262l200 262h273z" />
    <glyph glyph-name="y" unicode="y" horiz-adv-x="969" 
d="M125 -478l230 522l-374 864h253l246 -580l256 580h253l-618 -1386h-246z" />
    <glyph glyph-name="z" unicode="z" horiz-adv-x="844" 
d="M812 735l-463 -525h482v-210h-793v172l464 527h-436v209h746v-173z" />
    <glyph glyph-name="braceleft" unicode="{" horiz-adv-x="644" 
d="M342 565q77 -80 77 -228v-405q0 -65 14 -77q13 -12 92 -12q21 0 48 1v-212q-23 0 -46.5 -0.5t-35.5 -1t-16 -0.5q-151 0 -221.5 76.5t-70.5 241.5v389q0 75 -18 98q-19 24 -93 43v186q64 16 84 33q27 24 27 98v387q0 108 26.5 173t85.5 103q68 43 181 43q23 0 97 -3v-212
q-8 0 -25 0.5t-23 1.5h-17q-62 0 -75 -13q-14 -14 -14 -77v-411q0 -147 -77 -222z" />
    <glyph glyph-name="bar" unicode="|" horiz-adv-x="1068" 
d="M418 -360v1851h232v-1851h-232z" />
    <glyph glyph-name="braceright" unicode="}" horiz-adv-x="644" 
d="M304 565q-77 77 -77 222v411q0 46 -3.5 60t-17.5 21q-18 9 -71 9l-63 -2v212q74 3 99 3q151 0 221.5 -77t70.5 -242v-387q0 -67 19 -89q18 -23 91 -42v-186q-16 -5 -36 -10q-44 -11 -59 -38t-15 -93v-389q0 -108 -26.5 -172.5t-85.5 -102.5q-68 -43 -181 -43
q-4 0 -16 0.5t-35.5 1t-46.5 0.5v212q27 -1 48 -1q78 0 93 12q14 12 14 77v405q0 148 77 228z" />
    <glyph glyph-name="asciitilde" unicode="~" horiz-adv-x="1427" 
d="M324 1136l-154 99q38 77 60 115q103 175 272 175q86 0 245 -73q78 -36 119 -50q33 -11 63 -11q68 0 119 68q16 23 53 85l156 -93q-56 -114 -91 -157q-47 -60 -115 -94t-141 -34q-49 0 -103 19q-59 19 -199 82q-74 33 -117 33q-64 0 -116 -76q-14 -20 -51 -88z" />
    <glyph glyph-name="nbspace" unicode="&#xa0;" horiz-adv-x="471" 
 />
    <glyph glyph-name="exclamdown" unicode="&#xa1;" horiz-adv-x="620" 
d="M180 -377l20 1016h220l20 -1016h-260zM310 1015q60 0 104 -42q42 -42 42 -103q0 -60 -43 -100q-43 -42 -105 -42q-59 0 -101 43q-43 42 -43 100q0 60 43 102q42 42 103 42z" />
    <glyph glyph-name="cent" unicode="&#xa2;" horiz-adv-x="1141" 
d="M479 0v213q-63 16 -117 47q-116 65 -181 181q-62 112 -62 241q0 189 122 326q93 105 238 143v214h239v-212q146 -39 273 -176l-156 -150q-77 80 -119 103q-44 24 -112 24q-124 0 -195 -92q-54 -71 -54 -179q0 -129 73 -202q69 -71 178 -71q68 0 121 30q52 30 114 104
l155 -150q-124 -144 -278 -183v-211h-239z" />
    <glyph glyph-name="sterling" unicode="&#xa3;" horiz-adv-x="1158" 
d="M888 578h-362q17 -96 17 -166q0 -102 -57 -189h590v-223h-943v205q54 43 71 57q55 47 74 84q20 38 20 90t-18 142h-147v218h100q-12 78 -12 144q0 161 65 265q60 96 172 147q93 43 199 43q259 0 397 -264l-194 -121q-51 88 -98 123.5t-111 35.5q-93 0 -141 -58.5
t-48 -171.5q0 -55 18 -143h408v-218z" />
    <glyph glyph-name="currency" unicode="&#xa4;" horiz-adv-x="1481" 
d="M298 1262l174 -177q125 82 268 82q144 0 268 -82l174 177l132 -127l-178 -180q79 -130 79 -272q0 -141 -78 -271l176 -179l-128 -130l-176 178q-130 -82 -268 -82q-140 0 -270 82l-175 -178l-128 130l176 179q-78 130 -78 271t79 272l-178 180zM736 969q-123 0 -200 -98
q-58 -73 -58 -187q0 -134 78 -212q74 -75 184 -75q129 0 206 98q57 73 57 189q0 132 -78 211q-74 74 -189 74z" />
    <glyph glyph-name="yen" unicode="&#xa5;" horiz-adv-x="1311" 
d="M1092 713h-232l-37 -65h269v-198h-316v-450h-242v450h-315v198h268l-37 65h-231v198h119l-256 454h270l304 -553l303 553h270l-257 -454h120v-198z" />
    <glyph glyph-name="brokenbar" unicode="&#xa6;" horiz-adv-x="1068" 
d="M418 795v696h232v-696h-232zM418 -360v696h232v-696h-232z" />
    <glyph glyph-name="section" unicode="&#xa7;" horiz-adv-x="1163" 
d="M942 117q75 -97 75 -222q0 -181 -123 -292q-124 -111 -325 -111q-228 0 -374 167q-43 50 -106 162l201 126q54 -97 88 -138q76 -91 196 -91q57 0 99 19q45 20 71.5 63t26.5 95q0 43 -19 69q-43 61 -183 115l-125 48q-306 119 -306 371q0 152 106 267q-83 104 -83 230
q0 195 156 310q121 90 284 90q191 0 319 -131q37 -39 98 -138l-200 -126q-52 83 -76 107q-59 62 -143 62q-96 0 -148 -58q-48 -53 -48 -119q0 -96 166 -160l130 -49q169 -64 252 -155q89 -98 89 -238q0 -139 -98 -273zM589 575l-147 56q-61 -61 -61 -131q0 -100 162 -162
l130 -50l66 -28q51 63 51 127q0 63 -43 103q-42 39 -158 85z" />
    <glyph glyph-name="dieresis" unicode="&#xa8;" horiz-adv-x="975" 
d="M301 1359q59 0 102 -42q42 -43 42 -101q0 -60 -42 -102q-43 -42 -104 -42t-103 42q-43 42 -43 103q0 59 43 101q44 41 105 41zM679 1359q57 0 101 -42q42 -44 42 -101q0 -60 -42 -102q-44 -42 -104 -42q-61 0 -103 42q-43 42 -43 103q0 59 43 101q44 41 106 41z" />
    <glyph glyph-name="copyright" unicode="&#xa9;" horiz-adv-x="1713" 
d="M1274 982l-136 -131q-44 46 -65 64q-73 66 -177 66q-141 0 -225 -106q-67 -82 -67 -193q0 -131 91 -218q85 -80 202 -80q68 0 113 24q43 21 120 97l12 12l136 -132q-13 -12 -36 -35q-81 -79 -162 -114.5t-182 -35.5q-224 0 -366 162q-123 138 -123 320q0 128 65 241
q66 114 178 178t246 64q148 0 269 -86q28 -20 95 -84zM869 1458q199 0 375 -104q180 -105 284 -284t104 -387q0 -207 -104 -388q-103 -179 -284 -283q-179 -104 -387 -104q-206 0 -387 104q-179 102 -284 283q-104 182 -104 394q0 335 257 569q220 200 530 200zM847 1296
q-158 0 -297 -82q-141 -85 -224 -225q-82 -140 -82 -306q0 -165 82 -307q83 -143 224 -224q142 -82 307 -82q164 0 306 82q144 82 225 224q82 142 82 312q0 265 -203 450q-175 158 -420 158z" />
    <glyph glyph-name="ordfeminine" unicode="&#xaa;" horiz-adv-x="715" 
d="M647 1376v-545h-165v28q-64 -48 -139 -48q-127 0 -217 93q-78 80 -78 194q0 134 100 222q86 76 196 76q74 0 138 -48v28h165zM349 1249q-59 0 -96.5 -42t-37.5 -108q0 -69 41 -105q38 -35 94 -35q60 0 97 40t37 106q0 65 -37 104.5t-98 39.5z" />
    <glyph glyph-name="guillemotleft" unicode="&#xab;" horiz-adv-x="992" 
d="M909 769l-248 -315l248 -306l-157 -125l-350 431l350 439zM562 769l-249 -315l249 -306l-157 -125l-350 431l350 439z" />
    <glyph glyph-name="logicalnot" unicode="&#xac;" horiz-adv-x="1406" 
d="M1290 744v-619h-227v406h-947v213h1174z" />
    <glyph glyph-name="uni00AD" unicode="&#xad;" horiz-adv-x="563" 
d="M55 365v213h454v-213h-454z" />
    <glyph glyph-name="registered" unicode="&#xae;" horiz-adv-x="1713" 
d="M1044 609l218 -387h-213l-188 337q-34 -2 -48 -2h-43v-335h-191v921h234q93 0 153 -17t106 -56q101 -86 101 -223q0 -153 -129 -238zM770 964v-228h55q82 0 120 27t38 86q0 60 -38 87.5t-120 27.5h-55zM869 1458q199 0 375 -104q182 -107 284 -284q104 -179 104 -387
q0 -207 -104 -388q-104 -182 -284 -284q-178 -103 -387 -103t-387 103q-180 104 -284 284q-104 182 -104 394q0 335 257 569q220 200 530 200zM847 1296q-158 0 -297 -82q-144 -86 -224 -224q-82 -142 -82 -307t82 -307q83 -141 224 -223q143 -83 307 -83q163 0 306 83
q144 83 225 223q82 142 82 312q0 265 -203 450q-175 158 -420 158z" />
    <glyph glyph-name="overscore" unicode="&#xaf;" horiz-adv-x="975" 
d="M168 1104v210h639v-210h-639z" />
    <glyph glyph-name="degree" unicode="&#xb0;" horiz-adv-x="679" 
d="M412 1521q117 0 202 -85q86 -84 86 -206q0 -121 -86 -207t-206 -86t-206 86t-86 205q0 125 86 208q88 85 210 85zM407 1348q-48 0 -83 -35t-35 -83q0 -49 35 -84q34 -36 84 -36q49 0 84 35t35 84q0 50 -35 84.5t-85 34.5z" />
    <glyph glyph-name="plusminus" unicode="&#xb1;" horiz-adv-x="1139" 
d="M55 883h407v410h215v-410h407v-209h-407v-409h-215v409h-407v209zM55 209h1029v-209h-1029v209z" />
    <glyph glyph-name="twosuperior" unicode="&#xb2;" 
d="M683 832h-560v128l295 314q79 82 79 148q0 37 -27 58.5t-73 21.5q-57 0 -80 -23q-22 -22 -48 -104l-157 42q16 66 35 103q73 138 253 138q118 0 191 -66q74 -68 74 -173q0 -119 -90 -214l-207 -219h315v-154z" />
    <glyph glyph-name="threesuperior" unicode="&#xb3;" 
d="M306 1177v152h76q108 0 108 86q0 40 -27.5 64t-74.5 24q-39 0 -64 -17q-24 -17 -61 -74l-144 74q48 76 78 103q77 69 191 69q109 0 182 -58q88 -70 88 -181q0 -93 -67 -157q85 -75 85 -185q0 -129 -100 -202q-80 -61 -192 -61q-173 0 -249 133q-20 35 -39 115l165 41
q15 -58 25 -77q28 -57 100 -57q54 0 87 30t33 78q0 100 -124 100h-76z" />
    <glyph glyph-name="acute" unicode="&#xb4;" horiz-adv-x="975" 
d="M588 1440l221 -118l-315 -317l-157 90z" />
    <glyph glyph-name="mu" unicode="&#xb5;" horiz-adv-x="1043" 
d="M109 -478v1386h233v-478q0 -150 45 -199t122 -49q101 0 151 63q42 53 42 209v454h233v-908h-233v48q-92 -78 -186 -78q-92 0 -174 78v-526h-233z" />
    <glyph glyph-name="paragraph" unicode="&#xb6;" horiz-adv-x="1320" 
d="M571 -478v889q-82 8 -125 21q-46 12 -92 39q-112 64 -177 179q-61 109 -61 238q0 216 155 357q134 120 317 120h650v-200h-129v-1643h-209v1643h-120v-1643h-209z" />
    <glyph glyph-name="middot" unicode="&#xb7;" horiz-adv-x="513" 
d="M259 826q59 0 102 -42q42 -44 42 -101q0 -60 -42 -102q-43 -42 -104 -42t-103 42q-43 42 -43 103q0 59 43 101q44 41 105 41z" />
    <glyph glyph-name="cedilla" unicode="&#xb8;" horiz-adv-x="975" 
d="M502 -46l213 -91l-259 -329l-168 85z" />
    <glyph glyph-name="onesuperior" unicode="&#xb9;" 
d="M514 1640v-809h-170v609l-95 -52l-82 134l215 118h132z" />
    <glyph glyph-name="ordmasculine" unicode="&#xba;" horiz-adv-x="702" 
d="M356 1395q131 0 221 -95q77 -83 77 -196q0 -134 -100 -219q-85 -73 -203 -73q-136 0 -226 95q-77 83 -77 199q0 129 101 216q83 73 207 73zM349 1246q-59 0 -96.5 -39.5t-37.5 -102.5q0 -64 37.5 -103.5t98.5 -39.5t98.5 39.5t37.5 103.5t-38 103t-100 39z" />
    <glyph glyph-name="guillemotright" unicode="&#xbb;" horiz-adv-x="992" 
d="M83 148l248 306l-248 315l157 124l350 -439l-350 -431zM430 148l249 306l-248 315l156 124l350 -439l-350 -431z" />
    <glyph glyph-name="onequarter" unicode="&#xbc;" horiz-adv-x="1707" 
d="M1258 838l140 -83l-290 -440h138v177h169v-177h95v-152h-95v-163h-169v163h-345v134zM449 1365v-808h-170v608l-95 -52l-82 134l215 118h132zM316 45l781 1350l132 -76l-782 -1350z" />
    <glyph glyph-name="onehalf" unicode="&#xbd;" horiz-adv-x="1707" 
d="M448 1365v-808h-170v608l-95 -52l-82 134l215 118h132zM1565 0h-560v128l296 314q78 82 78 149q0 37 -27 58.5t-73 21.5q-56 0 -79 -23q-24 -22 -48 -104l-158 41q16 68 35 104q73 138 254 138q117 0 191 -66q73 -67 73 -173q0 -119 -89 -214l-208 -220h315v-154zM315 45
l781 1350l132 -76l-782 -1350z" />
    <glyph glyph-name="threequarters" unicode="&#xbe;" horiz-adv-x="1707" 
d="M297 903v152h76q108 0 108 86q0 40 -27.5 64t-74.5 24q-39 0 -64 -17q-22 -17 -61 -74l-144 74q45 72 78 102q76 69 191 69q109 0 182 -58q88 -69 88 -181q0 -92 -67 -156q85 -75 85 -185q0 -130 -100 -203q-80 -61 -192 -61q-173 0 -249 133q-20 35 -39 116l165 41
q16 -60 25 -77q29 -57 100 -57q54 0 87 30t33 78q0 100 -124 100h-76zM1338 838l140 -83l-290 -440h138v177h169v-177h95v-152h-95v-163h-169v163h-345v134zM441 45l781 1350l131 -76l-781 -1350z" />
    <glyph glyph-name="questiondown" unicode="&#xbf;" horiz-adv-x="892" 
d="M369 639h239v-135q0 -102 -25 -153q-26 -54 -103 -119l-85 -71q-107 -90 -107 -187q0 -70 46.5 -112t125.5 -42t128 34q47 33 112 137l178 -143q-135 -255 -407 -255q-152 0 -255 64q-65 41 -107 105q-61 92 -61 217q0 95 40 171t134 164l95 89q41 38 47 50q5 13 5 67
v119zM488 1015q60 0 104 -42q42 -42 42 -103q0 -60 -43 -100q-43 -42 -105 -42q-59 0 -101 43q-43 42 -43 100q0 60 43 102q42 42 103 42z" />
    <glyph glyph-name="Agrave" unicode="&#xc0;" horiz-adv-x="1303" 
d="M642 1415l-315 316l220 119l251 -346zM1053 0l-121 335h-563l-121 -335h-255l510 1365h297l509 -1365h-256zM451 560h399l-200 549z" />
    <glyph glyph-name="Aacute" unicode="&#xc1;" horiz-adv-x="1303" 
d="M750 1850l220 -119l-315 -316l-157 89zM1053 0l-121 335h-563l-121 -335h-255l510 1365h297l509 -1365h-256zM451 560h399l-200 549z" />
    <glyph glyph-name="Acircumflex" unicode="&#xc2;" horiz-adv-x="1303" 
d="M832 1417l-181 181l-181 -181l-177 88l283 310h151l282 -310zM1053 0l-121 335h-563l-121 -335h-255l510 1365h297l509 -1365h-256zM451 560h399l-200 549z" />
    <glyph glyph-name="Atilde" unicode="&#xc3;" horiz-adv-x="1303" 
d="M1053 0l-121 335h-563l-121 -335h-255l510 1365h297l509 -1365h-256zM451 560h399l-200 549zM777 1771l196 -46q-7 -83 -21 -120q-22 -58 -70.5 -91t-111.5 -33q-64 0 -156 43q-53 25 -66 25q-9 0 -14 -8q-4 -24 -13 -72l-191 45q9 87 29 129q55 115 177 115
q50 0 158 -47q48 -22 63 -22q10 0 13 10q4 25 7 72z" />
    <glyph glyph-name="Adieresis" unicode="&#xc4;" horiz-adv-x="1303" 
d="M1053 0l-121 335h-563l-121 -335h-255l510 1365h297l509 -1365h-256zM451 560h399l-200 549zM465 1763q59 0 102 -42q42 -43 42 -101q0 -60 -42 -102q-43 -42 -104 -42t-103 42q-43 42 -43 103q0 59 43 101q44 41 105 41zM843 1763q57 0 101 -42q42 -43 42 -101
q0 -60 -42 -102q-44 -42 -104 -42q-61 0 -103 42q-43 42 -43 103q0 59 43 101q44 41 106 41z" />
    <glyph glyph-name="Aring" unicode="&#xc5;" horiz-adv-x="1303" 
d="M650 1838q94 0 159 -64q65 -65 65 -155t-65 -155q-65 -64 -157 -64q-94 0 -158 64q-66 64 -66 158q0 88 66 152q65 64 156 64zM651 1725q-44 0 -75 -31t-31 -76q0 -43 31.5 -74t74.5 -31q44 0 75 31t31 75t-31 75t-75 31zM1053 0l-121 335h-563l-121 -335h-255l510 1365
h297l509 -1365h-256zM451 560h399l-200 549z" />
    <glyph glyph-name="AE" unicode="&#xc6;" horiz-adv-x="1718" 
d="M872 0v335h-436l-173 -335h-270l714 1365h926v-224h-519v-337h461v-225h-461v-354h539v-225h-781zM552 560h320v581h-21z" />
    <glyph glyph-name="Ccedilla" unicode="&#xc7;" horiz-adv-x="1380" 
d="M707 -46l214 -91l-259 -329l-168 85zM1327 1141l-171 -164q-74 78 -120 111q-106 78 -250 78q-230 0 -366 -172q-108 -135 -108 -312q0 -214 148 -353q136 -130 326 -130q144 0 263 87q27 21 113 105l171 -164q-90 -92 -156 -137q-171 -120 -389 -120q-204 0 -374 101
q-158 95 -252 255q-96 166 -96 356q0 188 96 355q97 169 263 263q167 95 363 95q156 0 283 -60q126 -59 256 -194z" />
    <glyph glyph-name="Egrave" unicode="&#xc8;" horiz-adv-x="990" 
d="M542 1415l-315 316l221 119l251 -346zM905 1365v-224h-520v-337h462v-225h-462v-354h539v-225h-781v1365h762z" />
    <glyph glyph-name="Eacute" unicode="&#xc9;" horiz-adv-x="990" 
d="M622 1850l221 -119l-315 -316l-157 89zM905 1365v-224h-520v-337h462v-225h-462v-354h539v-225h-781v1365h762z" />
    <glyph glyph-name="Ecircumflex" unicode="&#xca;" horiz-adv-x="990" 
d="M716 1417l-181 181l-181 -181l-177 88l282 310h151l283 -310zM905 1365v-224h-520v-337h462v-225h-462v-354h539v-225h-781v1365h762z" />
    <glyph glyph-name="Edieresis" unicode="&#xcb;" horiz-adv-x="990" 
d="M905 1365v-224h-520v-337h462v-225h-462v-354h539v-225h-781v1365h762zM347 1763q59 0 102 -42q42 -43 42 -101q0 -60 -42 -102q-44 -42 -104 -42q-61 0 -103 42q-43 42 -43 103q0 59 43 101q44 41 105 41zM724 1763q58 0 102 -42q42 -43 42 -101q0 -60 -42 -102
q-44 -42 -104 -42q-61 0 -103 42q-43 42 -43 103q0 59 43 101q44 41 105 41z" />
    <glyph glyph-name="Igrave" unicode="&#xcc;" horiz-adv-x="529" 
d="M252 1415l-315 316l221 119l251 -346zM143 1365h242v-1365h-242v1365z" />
    <glyph glyph-name="Iacute" unicode="&#xcd;" horiz-adv-x="529" 
d="M371 1850l221 -119l-315 -316l-157 89zM144 1365h242v-1365h-242v1365z" />
    <glyph glyph-name="Icircumflex" unicode="&#xce;" horiz-adv-x="529" 
d="M445 1417l-181 181l-181 -181l-177 88l283 310h151l282 -310zM143 1365h242v-1365h-242v1365z" />
    <glyph glyph-name="Idieresis" unicode="&#xcf;" horiz-adv-x="529" 
d="M143 1365h242v-1365h-242v1365zM112 1763q58 0 102 -42q42 -43 42 -101q0 -60 -42 -102q-44 -42 -104 -42q-61 0 -103 42q-43 42 -43 103q0 59 43 101q44 41 105 41zM422 1763q58 0 101 -42q42 -43 42 -101q0 -60 -42 -102q-44 -42 -104 -42q-61 0 -103 42
q-43 42 -43 103q0 59 43 101q44 41 106 41z" />
    <glyph glyph-name="Eth" unicode="&#xd0;" horiz-adv-x="1291" 
d="M38 844h129v521h313q309 0 505 -152q241 -189 241 -529q0 -346 -241 -532q-199 -152 -505 -152h-313v628h-129v216zM409 1140v-296h293v-216h-293v-403h78q209 0 339 103q156 123 156 356q0 230 -156 353q-130 103 -339 103h-78z" />
    <glyph glyph-name="Ntilde" unicode="&#xd1;" horiz-adv-x="1449" 
d="M385 0h-242v1365h209l711 -949v949h242v-1365h-209l-711 949v-949zM850 1771l195 -46q-6 -83 -21 -120q-21 -58 -69.5 -91t-111.5 -33q-64 0 -156 43q-53 25 -66 25q-9 0 -14 -8q-4 -24 -13 -72l-192 45q11 91 29 129q55 115 177 115q51 0 159 -47q48 -22 63 -22
q10 0 13 10q4 25 7 72z" />
    <glyph glyph-name="Ograve" unicode="&#xd2;" horiz-adv-x="1560" 
d="M774 1415l-315 316l220 119l251 -346zM780 1395q190 0 353 -95q168 -97 265 -262q97 -164 97 -356q0 -190 -98 -357q-94 -160 -253 -254q-172 -101 -369 -101q-186 0 -358 101q-161 95 -254 254q-97 167 -97 368q0 185 97 345q105 171 265 262q166 95 352 95zM777 1166
q-214 0 -355 -172q-110 -134 -110 -320q0 -120 58 -226q62 -113 172 -180q112 -69 238 -69t239 69q110 67 172 180q58 107 58 234q0 206 -144 350q-136 134 -328 134z" />
    <glyph glyph-name="Oacute" unicode="&#xd3;" horiz-adv-x="1560" 
d="M882 1850l220 -119l-315 -316l-157 89zM780 1395q190 0 353 -95q168 -97 265 -262q97 -164 97 -356q0 -190 -98 -357q-94 -160 -253 -254q-172 -101 -369 -101q-186 0 -358 101q-161 95 -254 254q-97 167 -97 368q0 185 97 345q105 171 265 262q166 95 352 95zM777 1166
q-214 0 -355 -172q-110 -134 -110 -320q0 -120 58 -226q62 -113 172 -180q112 -69 238 -69t239 69q110 67 172 180q58 107 58 234q0 206 -144 350q-136 134 -328 134z" />
    <glyph glyph-name="Ocircumflex" unicode="&#xd4;" horiz-adv-x="1560" 
d="M962 1417l-182 181l-181 -181l-177 88l283 310h151l282 -310zM780 1395q190 0 353 -95q168 -97 265 -262q97 -164 97 -356q0 -190 -98 -357q-94 -160 -253 -254q-172 -101 -369 -101q-186 0 -358 101q-161 95 -254 254q-97 167 -97 368q0 185 97 345q105 171 265 262
q166 95 352 95zM777 1166q-214 0 -355 -172q-110 -134 -110 -320q0 -120 58 -226q62 -113 172 -180q112 -69 238 -69t239 69q110 67 172 180q58 107 58 234q0 206 -144 350q-136 134 -328 134z" />
    <glyph glyph-name="Otilde" unicode="&#xd5;" horiz-adv-x="1560" 
d="M780 1395q190 0 353 -95q168 -97 265 -262q97 -164 97 -356q0 -190 -98 -357q-94 -160 -253 -254q-172 -101 -369 -101q-186 0 -358 101q-161 95 -254 254q-97 167 -97 368q0 185 97 345q105 171 265 262q166 95 352 95zM777 1166q-214 0 -355 -172q-110 -134 -110 -320
q0 -120 58 -226q62 -113 172 -180q112 -69 238 -69t239 69q110 67 172 180q58 107 58 234q0 206 -144 350q-136 134 -328 134zM907 1771l195 -46q-8 -83 -21 -120q-22 -58 -70.5 -91t-111.5 -33q-65 0 -155 43q-54 25 -66 25q-9 0 -14 -8l-14 -72l-191 45q11 91 29 129
q55 115 177 115q52 0 158 -47q48 -22 63 -22q10 0 13 10q4 13 8 72z" />
    <glyph glyph-name="Odieresis" unicode="&#xd6;" horiz-adv-x="1560" 
d="M780 1395q190 0 353 -95q168 -97 265 -262q97 -164 97 -356q0 -190 -98 -357q-94 -160 -253 -254q-172 -101 -369 -101q-186 0 -358 101q-161 95 -254 254q-97 167 -97 368q0 185 97 345q105 171 265 262q166 95 352 95zM777 1166q-214 0 -355 -172q-110 -134 -110 -320
q0 -120 58 -226q62 -113 172 -180q112 -69 238 -69t239 69q110 67 172 180q58 107 58 234q0 206 -144 350q-136 134 -328 134zM595 1763q57 0 101 -42q42 -43 42 -101q0 -60 -42 -102q-44 -42 -104 -42q-61 0 -103 42q-43 42 -43 103q0 59 43 101q44 41 106 41zM971 1763
q59 0 102 -42q42 -43 42 -101q0 -60 -42 -102q-43 -42 -104 -42t-103 42q-43 42 -43 103q0 59 43 101q44 41 105 41z" />
    <glyph glyph-name="multiply" unicode="&#xd7;" horiz-adv-x="1139" 
d="M131 350l289 289l-289 289l150 149l288 -288l289 288l150 -149l-289 -289l289 -289l-150 -149l-289 288l-288 -288z" />
    <glyph glyph-name="Oslash" unicode="&#xd8;" horiz-adv-x="1575" 
d="M1224 1244l128 127l133 -129l-131 -129q148 -196 148 -432q0 -189 -98 -356q-94 -160 -253 -254q-170 -101 -362 -101q-244 0 -438 151l-128 -126l-133 128l130 128q-147 197 -147 432q0 189 97 355t265 262q166 95 351 95q245 0 438 -151zM393 422l664 657
q-123 87 -270 87q-131 0 -244 -71q-111 -70 -170 -187q-54 -105 -54 -226q0 -138 74 -260zM1182 943l-663 -655q131 -89 270 -89q125 0 237 69q110 67 172 180q58 106 58 233q0 140 -74 262z" />
    <glyph glyph-name="Ugrave" unicode="&#xd9;" horiz-adv-x="1309" 
d="M662 1415l-316 316l221 119l251 -346zM143 1365h242v-839q0 -85 8 -135q7 -44 29 -80q29 -48 96 -80q66 -32 136 -32t137 32q67 33 97 80q22 34 29 79q7 42 7 136v839h242v-877q0 -111 -22 -186.5t-73 -139.5q-72 -93 -190 -145q-109 -47 -226 -47q-174 0 -311 94
q-106 72 -153.5 172t-47.5 252v877z" />
    <glyph glyph-name="Uacute" unicode="&#xda;" horiz-adv-x="1309" 
d="M742 1850l220 -119l-315 -316l-157 89zM143 1365h242v-839q0 -85 8 -135q7 -44 29 -80q29 -48 96 -80q66 -32 136 -32t137 32q67 33 97 80q22 34 29 79q7 42 7 136v839h242v-877q0 -111 -22 -186.5t-73 -139.5q-72 -93 -190 -145q-109 -47 -226 -47q-174 0 -311 94
q-106 72 -153.5 172t-47.5 252v877z" />
    <glyph glyph-name="Ucircumflex" unicode="&#xdb;" horiz-adv-x="1309" 
d="M836 1417l-182 181l-181 -181l-177 88l283 310h151l282 -310zM143 1365h242v-839q0 -85 8 -135q7 -44 29 -80q29 -48 96 -80q66 -32 136 -32t137 32q67 33 97 80q22 34 29 79q7 42 7 136v839h242v-877q0 -111 -22 -186.5t-73 -139.5q-72 -93 -190 -145q-109 -47 -226 -47
q-174 0 -311 94q-106 72 -153.5 172t-47.5 252v877z" />
    <glyph glyph-name="Udieresis" unicode="&#xdc;" horiz-adv-x="1309" 
d="M143 1365h242v-839q0 -85 8 -135q7 -44 29 -80q29 -48 96 -80q66 -32 136 -32t137 32q67 33 97 80q22 34 29 79q7 42 7 136v839h242v-877q0 -111 -22 -186.5t-73 -139.5q-72 -93 -190 -145q-109 -47 -226 -47q-174 0 -311 94q-106 72 -153.5 172t-47.5 252v877zM468 1763
q58 0 102 -42q42 -43 42 -101q0 -60 -42 -102q-43 -42 -104 -42t-103 42q-43 42 -43 103q0 59 43 101q44 41 105 41zM845 1763q59 0 102 -42q42 -43 42 -101q0 -60 -42 -102q-43 -42 -104 -42t-103 42q-43 42 -43 103q0 59 43 101q44 41 105 41z" />
    <glyph glyph-name="Yacute" unicode="&#xdd;" horiz-adv-x="1106" 
d="M640 1850l221 -119l-315 -316l-157 89zM432 0v565l-452 800h270l304 -553l303 553h269l-452 -800v-565h-242z" />
    <glyph glyph-name="Thorn" unicode="&#xde;" horiz-adv-x="971" 
d="M385 1365v-186h71q129 0 212.5 -24.5t146.5 -81.5q135 -121 135 -318t-135 -318q-79 -72 -180 -91q-79 -16 -179 -16h-71v-330h-242v1365h242zM473 958h-88v-409h88q130 0 183 52q56 56 56 154q0 96 -56 152q-52 51 -183 51z" />
    <glyph glyph-name="germandbls" unicode="&#xdf;" horiz-adv-x="1076" 
d="M342 0h-233v1002q0 161 98 267q115 126 294 126q183 0 295 -114q109 -108 109 -275q0 -138 -94 -244q50 -30 80 -60q114 -116 114 -285q0 -203 -157 -324q-120 -93 -312 -93h-125v220h130q111 0 173 63q56 59 56 141q0 57 -28.5 105t-73.5 68q-51 23 -131 23h-41v214h41
q139 0 139 164q0 87 -44.5 137.5t-120.5 50.5q-78 0 -123.5 -49.5t-45.5 -134.5v-1002z" />
    <glyph glyph-name="agrave" unicode="&#xe0;" horiz-adv-x="1113" 
d="M521 1005l-315 317l221 118l251 -345zM1005 908v-908h-233v58q-115 -88 -244 -88q-212 0 -354 159q-123 137 -123 326q0 219 159 361q137 122 318 122q129 0 244 -88v58h233zM528 726q-115 0 -187 -92q-54 -69 -54 -179q0 -129 73 -202q71 -71 172 -71q120 0 190 93
q53 71 53 181q0 125 -72 200q-67 70 -175 70z" />
    <glyph glyph-name="aacute" unicode="&#xe1;" horiz-adv-x="1113" 
d="M642 1440l221 -118l-315 -317l-157 90zM1005 908v-908h-233v58q-115 -88 -244 -88q-212 0 -354 159q-123 137 -123 326q0 219 159 361q137 122 318 122q129 0 244 -88v58h233zM528 726q-115 0 -187 -92q-54 -69 -54 -179q0 -129 73 -202q71 -71 172 -71q120 0 190 93
q53 71 53 181q0 125 -72 200q-67 70 -175 70z" />
    <glyph glyph-name="acircumflex" unicode="&#xe2;" horiz-adv-x="1113" 
d="M709 1007l-181 181l-181 -181l-177 88l283 310h151l282 -310zM1005 908v-908h-233v58q-115 -88 -244 -88q-212 0 -354 159q-123 137 -123 326q0 219 159 361q137 122 318 122q129 0 244 -88v58h233zM528 726q-115 0 -187 -92q-54 -69 -54 -179q0 -129 73 -202
q71 -71 172 -71q120 0 190 93q53 71 53 181q0 125 -72 200q-67 70 -175 70z" />
    <glyph glyph-name="atilde" unicode="&#xe3;" horiz-adv-x="1113" 
d="M1005 908v-908h-233v58q-115 -88 -244 -88q-212 0 -354 159q-123 137 -123 326q0 219 159 361q137 122 318 122q129 0 244 -88v58h233zM528 726q-115 0 -187 -92q-54 -69 -54 -179q0 -129 73 -202q71 -71 172 -71q120 0 190 93q53 71 53 181q0 125 -72 200
q-67 70 -175 70zM654 1361l195 -46q-7 -83 -21 -120q-22 -58 -70 -91t-112 -33q-65 0 -155 43q-54 25 -66 25q-9 0 -14 -8q-1 0 -14 -72l-191 45q11 91 29 129q55 115 177 115q51 0 159 -47q48 -22 62 -22q11 0 14 10q4 25 7 72z" />
    <glyph glyph-name="adieresis" unicode="&#xe4;" horiz-adv-x="1113" 
d="M1005 908v-908h-233v58q-115 -88 -244 -88q-212 0 -354 159q-123 137 -123 326q0 219 159 361q137 122 318 122q129 0 244 -88v58h233zM528 726q-115 0 -187 -92q-54 -69 -54 -179q0 -129 73 -202q71 -71 172 -71q120 0 190 93q53 71 53 181q0 125 -72 200
q-67 70 -175 70zM358 1359q58 0 102 -42q42 -43 42 -101q0 -60 -42 -102q-44 -42 -104 -42q-61 0 -103 42q-43 42 -43 103q0 59 43 101q44 41 105 41zM735 1359q59 0 102 -42q42 -44 42 -101q0 -60 -42 -102q-43 -42 -104 -42t-103 42q-43 42 -43 103q0 59 43 101
q44 41 105 41z" />
    <glyph glyph-name="aring" unicode="&#xe5;" horiz-adv-x="1113" 
d="M551 1429q94 0 159 -64q65 -63 65 -155q0 -90 -65 -155q-65 -64 -157 -64q-94 0 -158 64q-66 65 -66 158q0 87 66 152q65 64 156 64zM552 1316q-44 0 -75 -31t-31 -76q0 -43 31.5 -74t74.5 -31q44 0 75 31t31 75t-31 75t-75 31zM1005 908v-908h-233v58q-115 -88 -244 -88
q-212 0 -354 159q-123 137 -123 326q0 219 159 361q137 122 318 122q129 0 244 -88v58h233zM528 726q-115 0 -187 -92q-54 -69 -54 -179q0 -129 73 -202q71 -71 172 -71q120 0 190 93q53 71 53 181q0 125 -72 200q-67 70 -175 70z" />
    <glyph glyph-name="ae" unicode="&#xe6;" horiz-adv-x="1669" 
d="M856 98q-116 -128 -366 -128q-196 0 -318 87q-121 85 -121 235q0 190 189 267q94 38 223 38h230q-43 136 -215 136q-75 0 -138 -23q-62 -24 -139 -81l-123 151q77 60 119 83q133 75 304 75q235 0 348 -134q131 134 321 134q197 0 323 -141q126 -142 126 -365
q0 -33 -1 -65h-667q20 -75 57 -115q68 -71 170 -71q118 0 192 75q17 17 47 64l198 -82q-67 -112 -135 -165q-128 -103 -302 -103q-186 0 -322 128zM950 541h436q-59 191 -217 191q-82 0 -139 -50t-80 -141zM700 307v116h-209q-206 0 -206 -129q0 -119 206 -119
q209 0 209 132z" />
    <glyph glyph-name="ccedilla" unicode="&#xe7;" horiz-adv-x="952" 
d="M459 -46l213 -91l-258 -329l-169 85zM923 749l-155 -150q-78 81 -120 104q-44 23 -111 23q-125 0 -196 -92q-54 -70 -54 -179q0 -129 73 -202q69 -71 178 -71q68 0 120 30q51 28 115 104l156 -150q-95 -105 -186 -150q-91 -46 -206 -46q-223 0 -364 158
q-122 139 -122 326q0 220 159 363q134 121 327 121q113 0 202 -43q89 -44 184 -146z" />
    <glyph glyph-name="egrave" unicode="&#xe8;" horiz-adv-x="1010" 
d="M509 1005l-315 317l220 118l251 -345zM959 367h-668q19 -73 58 -115q68 -71 169 -71q120 0 193 75q18 20 46 64l198 -82q-67 -112 -134 -165q-128 -103 -302 -103q-216 0 -351 159q-117 137 -117 326q0 129 59 239q61 117 172 182q106 62 227 62q199 0 325 -141
q126 -142 126 -365q0 -35 -1 -65zM291 541h436q-60 191 -218 191q-82 0 -138.5 -49.5t-79.5 -141.5z" />
    <glyph glyph-name="eacute" unicode="&#xe9;" horiz-adv-x="1010" 
d="M596 1440l221 -118l-315 -317l-157 90zM959 367h-668q19 -73 58 -115q68 -71 169 -71q120 0 193 75q18 20 46 64l198 -82q-67 -112 -134 -165q-128 -103 -302 -103q-216 0 -351 159q-117 137 -117 326q0 129 59 239q61 117 172 182q106 62 227 62q199 0 325 -141
q126 -142 126 -365q0 -35 -1 -65zM291 541h436q-60 191 -218 191q-82 0 -138.5 -49.5t-79.5 -141.5z" />
    <glyph glyph-name="ecircumflex" unicode="&#xea;" horiz-adv-x="1010" 
d="M686 1007l-181 181l-182 -181l-177 88l283 310h151l283 -310zM959 367h-668q19 -73 58 -115q68 -71 169 -71q120 0 193 75q18 20 46 64l198 -82q-67 -112 -134 -165q-128 -103 -302 -103q-216 0 -351 159q-117 137 -117 326q0 129 59 239q61 117 172 182q106 62 227 62
q199 0 325 -141q126 -142 126 -365q0 -35 -1 -65zM291 541h436q-60 191 -218 191q-82 0 -138.5 -49.5t-79.5 -141.5z" />
    <glyph glyph-name="edieresis" unicode="&#xeb;" horiz-adv-x="1010" 
d="M959 367h-668q19 -73 58 -115q68 -71 169 -71q120 0 193 75q18 20 46 64l198 -82q-67 -112 -134 -165q-128 -103 -302 -103q-216 0 -351 159q-117 137 -117 326q0 129 59 239q61 117 172 182q106 62 227 62q199 0 325 -141q126 -142 126 -365q0 -35 -1 -65zM291 541h436
q-60 191 -218 191q-82 0 -138.5 -49.5t-79.5 -141.5zM319 1359q59 0 102 -42q42 -43 42 -101q0 -60 -42 -102q-43 -42 -104 -42t-103 42q-43 42 -43 103q0 59 43 101q44 41 105 41zM696 1359q58 0 102 -42q42 -44 42 -101q0 -60 -42 -102q-44 -42 -104 -42q-61 0 -103 42
q-43 42 -43 103q0 59 43 101q44 41 105 41z" />
    <glyph glyph-name="igrave" unicode="&#xec;" horiz-adv-x="452" 
d="M207 1005l-315 317l221 118l251 -345zM109 908h233v-908h-233v908z" />
    <glyph glyph-name="iacute" unicode="&#xed;" horiz-adv-x="452" 
d="M339 1440l221 -118l-315 -317l-157 90zM109 908h233v-908h-233v908z" />
    <glyph glyph-name="icircumflex" unicode="&#xee;" horiz-adv-x="452" 
d="M407 1007l-181 181l-181 -181l-177 88l283 310h151l282 -310zM109 908h233v-908h-233v908z" />
    <glyph glyph-name="idieresis" unicode="&#xef;" horiz-adv-x="452" 
d="M110 908h233v-908h-233v908zM74 1359q58 0 102 -42q42 -43 42 -101q0 -60 -42 -102q-44 -42 -104 -42q-61 0 -104 42q-42 42 -42 103q0 59 43 101q44 41 105 41zM384 1359q58 0 101 -42q42 -43 42 -101q0 -60 -42 -102q-43 -42 -104 -42t-103 42q-43 42 -43 103
q0 59 43 101q44 41 106 41z" />
    <glyph glyph-name="eth" unicode="&#xf0;" horiz-adv-x="1066" 
d="M726 900q-8 12 -11 18q-70 123 -98 160q-33 45 -93 100l-214 -109l-149 134l183 93q-92 44 -228 84l101 149q187 -49 329 -130l224 111l139 -133l-202 -104q115 -123 191 -270q57 -109 83 -219q25 -109 35 -294v-36q-2 -223 -159 -362q-137 -122 -324 -122
q-218 0 -359 158q-123 138 -123 326q0 220 159 363q136 121 324 121q99 0 192 -38zM529 726q-116 0 -188 -92q-54 -70 -54 -179q0 -129 73 -202q71 -71 174 -71q122 0 192 93q54 71 54 180q0 128 -73 201q-69 70 -178 70z" />
    <glyph glyph-name="ntilde" unicode="&#xf1;" horiz-adv-x="1043" 
d="M342 908v-48q98 78 211 78q80 0 155 -32t127 -89q53 -56 76.5 -133.5t23.5 -195.5v-488h-233v473q0 153 -45 204q-43 49 -121 49q-101 0 -152 -63q-42 -53 -42 -209v-454h-233v908h233zM648 1361l196 -46q-8 -84 -22 -120q-22 -58 -70 -91t-111 -33q-64 0 -156 43
q-53 25 -66 25q-9 0 -14 -8q-4 -24 -13 -72l-192 45q10 88 30 129q55 115 177 115q50 0 158 -47q48 -22 63 -22q10 0 13 10q4 25 7 72z" />
    <glyph glyph-name="ograve" unicode="&#xf2;" horiz-adv-x="1066" 
d="M527 1005l-315 317l220 118l252 -345zM542 938q208 0 351 -158q123 -136 123 -325q0 -221 -159 -363q-136 -122 -323 -122q-218 0 -361 158q-122 137 -122 330q0 216 159 358q136 122 332 122zM529 726q-116 0 -188 -92q-54 -70 -54 -179q0 -129 73 -202q71 -71 174 -71
q122 0 192 93q54 71 54 180q0 128 -73 201q-69 70 -178 70z" />
    <glyph glyph-name="oacute" unicode="&#xf3;" horiz-adv-x="1066" 
d="M635 1440l220 -118l-315 -317l-156 90zM542 938q208 0 351 -158q123 -136 123 -325q0 -221 -159 -363q-136 -122 -323 -122q-218 0 -361 158q-122 137 -122 330q0 216 159 358q136 122 332 122zM529 726q-116 0 -188 -92q-54 -70 -54 -179q0 -129 73 -202q71 -71 174 -71
q122 0 192 93q54 71 54 180q0 128 -73 201q-69 70 -178 70z" />
    <glyph glyph-name="ocircumflex" unicode="&#xf4;" horiz-adv-x="1066" 
d="M715 1007l-181 181l-182 -181l-176 88l282 310h151l283 -310zM542 938q208 0 351 -158q123 -136 123 -325q0 -221 -159 -363q-136 -122 -323 -122q-218 0 -361 158q-122 137 -122 330q0 216 159 358q136 122 332 122zM529 726q-116 0 -188 -92q-54 -70 -54 -179
q0 -129 73 -202q71 -71 174 -71q122 0 192 93q54 71 54 180q0 128 -73 201q-69 70 -178 70z" />
    <glyph glyph-name="otilde" unicode="&#xf5;" horiz-adv-x="1066" 
d="M659 1361l196 -46q-7 -83 -21 -120q-22 -58 -70.5 -91t-111.5 -33q-65 0 -155 43q-54 25 -67 25q-9 0 -14 -8q-4 -24 -13 -72l-191 45q11 91 29 129q55 115 177 115q52 0 158 -47q48 -22 63 -22q10 0 13 10q4 25 7 72zM542 938q208 0 351 -158q123 -136 123 -325
q0 -221 -159 -363q-136 -122 -323 -122q-218 0 -361 158q-122 137 -122 330q0 216 159 358q136 122 332 122zM529 726q-116 0 -188 -92q-54 -70 -54 -179q0 -129 73 -202q71 -71 174 -71q122 0 192 93q54 71 54 180q0 128 -73 201q-69 70 -178 70z" />
    <glyph glyph-name="odieresis" unicode="&#xf6;" horiz-adv-x="1066" 
d="M542 938q208 0 351 -158q123 -136 123 -325q0 -221 -159 -363q-136 -122 -323 -122q-218 0 -361 158q-122 137 -122 330q0 216 159 358q136 122 332 122zM529 726q-116 0 -188 -92q-54 -70 -54 -179q0 -129 73 -202q71 -71 174 -71q122 0 192 93q54 71 54 180
q0 128 -73 201q-69 70 -178 70zM722 1359q58 0 101 -42q42 -44 42 -101q0 -60 -42 -102q-43 -42 -104 -42t-103 42q-43 42 -43 103q0 59 43 101q44 41 106 41zM345 1359q57 0 101 -42q42 -43 42 -101q0 -60 -42 -102q-44 -42 -104 -42q-61 0 -103 42q-43 42 -43 103
q0 59 43 101q44 41 106 41z" />
    <glyph glyph-name="divide" unicode="&#xf7;" horiz-adv-x="1139" 
d="M572 1147q60 0 104 -44q44 -46 44 -106q0 -62 -44 -106t-107 -44q-62 0 -106 44t-44 107q0 62 45 106q44 43 108 43zM572 431q60 0 104 -44q44 -46 44 -106q0 -62 -44 -106q-46 -44 -107 -44q-63 0 -106 45q-44 44 -44 106t45 106q44 43 108 43zM89 744h960v-210h-960
v210z" />
    <glyph glyph-name="oslash" unicode="&#xf8;" horiz-adv-x="1094" 
d="M838 843l75 70l116 -112l-80 -76q80 -119 80 -272q0 -219 -159 -361q-136 -122 -323 -122q-161 0 -292 95l-75 -70l-116 112l80 76q-80 125 -80 272q0 219 159 361q137 122 323 122q162 0 292 -95zM316 347l362 343q-58 36 -131 36q-122 0 -193 -92q-54 -70 -54 -178
q0 -61 16 -109zM777 561l-361 -343q60 -36 131 -36q121 0 192 93q54 71 54 178q0 57 -16 108z" />
    <glyph glyph-name="ugrave" unicode="&#xf9;" horiz-adv-x="1043" 
d="M519 1005l-315 317l220 118l251 -345zM702 0v48q-58 -45 -102 -61q-48 -17 -109 -17q-80 0 -155 32t-127 89q-53 56 -76.5 133.5t-23.5 195.5v488h233v-473q0 -155 45 -204t122 -49q101 0 151 63q42 53 42 209v454h233v-908h-233z" />
    <glyph glyph-name="uacute" unicode="&#xfa;" horiz-adv-x="1043" 
d="M613 1440l221 -118l-315 -317l-157 90zM702 0v48q-58 -45 -102 -61q-48 -17 -109 -17q-80 0 -155 32t-127 89q-53 56 -76.5 133.5t-23.5 195.5v488h233v-473q0 -155 45 -204t122 -49q101 0 151 63q42 53 42 209v454h233v-908h-233z" />
    <glyph glyph-name="ucircumflex" unicode="&#xfb;" horiz-adv-x="1043" 
d="M703 1007l-181 181l-181 -181l-177 88l283 310h151l282 -310zM702 0v48q-58 -45 -102 -61q-48 -17 -109 -17q-80 0 -155 32t-127 89q-53 56 -76.5 133.5t-23.5 195.5v488h233v-473q0 -155 45 -204t122 -49q101 0 151 63q42 53 42 209v454h233v-908h-233z" />
    <glyph glyph-name="udieresis" unicode="&#xfc;" horiz-adv-x="1043" 
d="M702 0v48q-58 -45 -102 -61q-48 -17 -109 -17q-80 0 -155 32t-127 89q-53 56 -76.5 133.5t-23.5 195.5v488h233v-473q0 -155 45 -204t122 -49q101 0 151 63q42 53 42 209v454h233v-908h-233zM336 1359q58 0 102 -42q42 -43 42 -101q0 -60 -42 -102q-44 -42 -104 -42
q-61 0 -103 42q-43 42 -43 103q0 59 43 101q44 41 105 41zM712 1359q58 0 102 -42q42 -44 42 -101q0 -60 -42 -102q-44 -42 -104 -42q-61 0 -103 42q-43 42 -43 103q0 59 43 101q44 41 105 41z" />
    <glyph glyph-name="yacute" unicode="&#xfd;" horiz-adv-x="969" 
d="M581 1440l221 -118l-315 -317l-157 90zM125 -478l230 522l-374 864h253l246 -580l256 580h253l-618 -1386h-246z" />
    <glyph glyph-name="thorn" unicode="&#xfe;" horiz-adv-x="1115" 
d="M111 -478v1843h233v-515q115 88 244 88q212 0 354 -159q123 -137 123 -326q0 -219 -159 -361q-137 -122 -318 -122q-129 0 -244 88v-536h-233zM584 726q-119 0 -188 -93q-53 -71 -53 -181q0 -124 71 -200q67 -70 174 -70q116 0 187 92q54 70 54 179q0 129 -73 202
q-69 71 -172 71z" />
    <glyph glyph-name="ydieresis" unicode="&#xff;" horiz-adv-x="969" 
d="M125 -478l230 522l-374 864h253l246 -580l256 580h253l-618 -1386h-246zM298 1359q58 0 102 -42q42 -43 42 -101q0 -60 -42 -102q-43 -42 -104 -42t-103 42q-43 42 -43 103q0 59 43 101q44 41 105 41zM675 1359q59 0 102 -42q42 -44 42 -101q0 -60 -42 -102
q-43 -42 -104 -42t-103 42q-43 42 -43 103q0 59 43 101q44 41 105 41z" />
    <glyph glyph-name="Amacron" unicode="&#x100;" horiz-adv-x="1303" 
d="M332 1514v210h639v-210h-639zM1053 0l-121 335h-563l-121 -335h-255l510 1365h297l509 -1365h-256zM451 560h399l-200 549z" />
    <glyph glyph-name="amacron" unicode="&#x101;" horiz-adv-x="1113" 
d="M233 1104v210h639v-210h-639zM1005 908v-908h-233v58q-115 -88 -244 -88q-212 0 -354 159q-123 137 -123 326q0 219 159 361q137 122 318 122q129 0 244 -88v58h233zM528 726q-115 0 -187 -92q-54 -69 -54 -179q0 -129 73 -202q71 -71 172 -71q120 0 190 93q53 71 53 181
q0 125 -72 200q-67 70 -175 70z" />
    <glyph glyph-name="Abreve" unicode="&#x102;" horiz-adv-x="1303" 
d="M1053 0l-121 335h-563l-121 -335h-255l510 1365h297l509 -1365h-256zM451 560h399l-200 549zM339 1770l203 17q2 -38 2 -42q3 -57 29 -88q28 -33 73 -33q60 0 91 57q11 21 23 106l203 -17q-11 -92 -16 -115q-8 -30 -29 -66q-90 -164 -271 -164q-117 0 -201 72
q-96 83 -104 199q-1 21 -3 74z" />
    <glyph glyph-name="abreve" unicode="&#x103;" horiz-adv-x="1113" 
d="M221 1361l203 16q0 -7 0.5 -16.5t1 -15.5t0.5 -10q1 -57 28 -88q28 -33 74 -33q60 0 91 57q11 21 23 106l202 -17q-9 -91 -16 -115q-8 -29 -28 -66q-92 -164 -271 -164q-118 0 -202 72q-96 83 -104 200q0 6 -0.5 16.5t-1 27.5t-0.5 30zM1005 908v-908h-233v58
q-115 -88 -244 -88q-212 0 -354 159q-123 137 -123 326q0 219 159 361q137 122 318 122q129 0 244 -88v58h233zM528 726q-115 0 -187 -92q-54 -69 -54 -179q0 -129 73 -202q71 -71 172 -71q120 0 190 93q53 71 53 181q0 125 -72 200q-67 70 -175 70z" />
    <glyph glyph-name="Aogonek" unicode="&#x104;" horiz-adv-x="1303" 
d="M800 1365l509 -1365q-6 -9 -13 -17q-61 -77 -61 -115q0 -18 26 -18q35 0 101 25l70 -176q-90 -32 -109 -37q-28 -7 -72 -7q-98 0 -163 56t-65 141q0 65 53 148h-23l-121 335h-563l-121 -335h-255l510 1365h297zM451 560h399l-200 549z" />
    <glyph glyph-name="aogonek" unicode="&#x105;" horiz-adv-x="1113" 
d="M1005 908v-908q-6 -9 -13 -17q-61 -79 -61 -115q0 -18 26 -18q35 0 101 25l70 -176q-77 -29 -109 -37q-28 -7 -72 -7q-98 0 -163 56t-65 141q0 65 53 148v58q-115 -88 -244 -88q-212 0 -354 159q-123 137 -123 326q0 219 159 361q137 122 318 122q129 0 244 -88v58h233z
M528 726q-115 0 -187 -92q-54 -69 -54 -179q0 -129 73 -202q71 -71 172 -71q120 0 190 93q53 71 53 181q0 125 -72 200q-67 70 -175 70z" />
    <glyph glyph-name="Cacute" unicode="&#x106;" horiz-adv-x="1380" 
d="M904 1850l221 -119l-315 -316l-157 89zM1327 1141l-171 -164q-74 78 -120 111q-106 78 -250 78q-230 0 -366 -172q-108 -135 -108 -312q0 -214 148 -353q136 -130 326 -130q144 0 263 87q27 21 113 105l171 -164q-90 -92 -156 -137q-171 -120 -389 -120q-204 0 -374 101
q-158 95 -252 255q-96 166 -96 356q0 188 96 355q97 169 263 263q167 95 363 95q156 0 283 -60q126 -59 256 -194z" />
    <glyph glyph-name="cacute" unicode="&#x107;" horiz-adv-x="952" 
d="M615 1440l220 -118l-315 -317l-156 90zM923 749l-155 -150q-78 81 -120 104q-44 23 -111 23q-125 0 -196 -92q-54 -70 -54 -179q0 -129 73 -202q69 -71 178 -71q68 0 120 30q51 28 115 104l156 -150q-95 -105 -186 -150q-91 -46 -206 -46q-223 0 -364 158
q-122 139 -122 326q0 220 159 363q134 121 327 121q113 0 202 -43q89 -44 184 -146z" />
    <glyph glyph-name="Ccircumflex" unicode="&#x108;" horiz-adv-x="1380" 
d="M950 1417l-181 181l-182 -181l-176 88l282 310h151l283 -310zM1327 1141l-171 -164q-74 78 -120 111q-106 78 -250 78q-230 0 -366 -172q-108 -135 -108 -312q0 -214 148 -353q136 -130 326 -130q144 0 263 87q27 21 113 105l171 -164q-90 -92 -156 -137
q-171 -120 -389 -120q-204 0 -374 101q-158 95 -252 255q-96 166 -96 356q0 188 96 355q97 169 263 263q167 95 363 95q156 0 283 -60q126 -59 256 -194z" />
    <glyph glyph-name="ccircumflex" unicode="&#x109;" horiz-adv-x="952" 
d="M699 1007l-181 181l-182 -181l-177 88l283 310h151l283 -310zM923 749l-155 -150q-78 81 -120 104q-44 23 -111 23q-125 0 -196 -92q-54 -70 -54 -179q0 -129 73 -202q69 -71 178 -71q68 0 120 30q51 28 115 104l156 -150q-95 -105 -186 -150q-91 -46 -206 -46
q-223 0 -364 158q-122 139 -122 326q0 220 159 363q134 121 327 121q113 0 202 -43q89 -44 184 -146z" />
    <glyph glyph-name="Cdotaccent" unicode="&#x10a;" horiz-adv-x="1380" 
d="M1327 1141l-171 -164q-74 78 -120 111q-106 78 -250 78q-230 0 -366 -172q-108 -135 -108 -312q0 -214 148 -353q136 -130 326 -130q144 0 263 87q27 21 113 105l171 -164q-90 -92 -156 -137q-171 -120 -389 -120q-204 0 -374 101q-158 95 -252 255q-96 166 -96 356
q0 188 96 355q97 169 263 263q167 95 363 95q156 0 283 -60q126 -59 256 -194zM788 1763q58 0 102 -42q42 -43 42 -101q0 -60 -42 -102q-44 -42 -104 -42q-61 0 -103 42q-43 42 -43 103q0 59 43 101q44 41 105 41z" />
    <glyph glyph-name="cdotaccent" unicode="&#x10b;" horiz-adv-x="952" 
d="M923 749l-155 -150q-78 81 -120 104q-44 23 -111 23q-125 0 -196 -92q-54 -70 -54 -179q0 -129 73 -202q69 -71 178 -71q68 0 120 30q51 28 115 104l156 -150q-95 -105 -186 -150q-91 -46 -206 -46q-223 0 -364 158q-122 139 -122 326q0 220 159 363q134 121 327 121
q113 0 202 -43q89 -44 184 -146zM526 1359q58 0 102 -42q42 -43 42 -101q0 -60 -42 -102q-44 -42 -104 -42q-61 0 -103 42q-43 42 -43 103q0 59 43 101q44 41 105 41z" />
    <glyph glyph-name="Ccaron" unicode="&#x10c;" horiz-adv-x="1380" 
d="M587 1834l182 -181l181 181l177 -88l-283 -310h-151l-282 310zM1327 1141l-171 -164q-74 78 -120 111q-106 78 -250 78q-230 0 -366 -172q-108 -135 -108 -312q0 -214 148 -353q136 -130 326 -130q144 0 263 87q27 21 113 105l171 -164q-90 -92 -156 -137
q-171 -120 -389 -120q-204 0 -374 101q-158 95 -252 255q-96 166 -96 356q0 188 96 355q97 169 263 263q167 95 363 95q156 0 283 -60q126 -59 256 -194z" />
    <glyph glyph-name="ccaron" unicode="&#x10d;" horiz-adv-x="952" 
d="M336 1425l182 -181l181 181l177 -88l-283 -310h-151l-283 310zM923 749l-155 -150q-78 81 -120 104q-44 23 -111 23q-125 0 -196 -92q-54 -70 -54 -179q0 -129 73 -202q69 -71 178 -71q68 0 120 30q51 28 115 104l156 -150q-95 -105 -186 -150q-91 -46 -206 -46
q-223 0 -364 158q-122 139 -122 326q0 220 159 363q134 121 327 121q113 0 202 -43q89 -44 184 -146z" />
    <glyph glyph-name="Dcaron" unicode="&#x10e;" horiz-adv-x="1268" 
d="M415 1834l181 -181l182 181l176 -88l-282 -310h-151l-283 310zM143 0v1365h313q310 0 504 -152q241 -189 241 -529q0 -346 -241 -532q-197 -152 -504 -152h-313zM462 1140h-77v-915h77q209 0 339 103q156 123 156 356q0 230 -156 353q-130 103 -339 103z" />
    <glyph glyph-name="dcaron" unicode="&#x10f;" horiz-adv-x="1382" 
d="M1074 1040l118 399l221 -68l-166 -385zM1005 1365v-1365h-233v58q-115 -88 -244 -88q-212 0 -354 159q-123 137 -123 326q0 219 159 361q137 122 318 122q129 0 244 -88v515h233zM528 726q-115 0 -187 -92q-54 -70 -54 -179q0 -129 73 -202q71 -71 172 -71q119 0 188 92
q53 73 53 182q0 124 -71 200q-67 70 -174 70z" />
    <glyph glyph-name="Dcroat" unicode="&#x110;" horiz-adv-x="1291" 
d="M38 844h129v521h313q309 0 505 -152q241 -189 241 -529q0 -346 -241 -532q-199 -152 -505 -152h-313v628h-129v216zM409 1140v-296h293v-216h-293v-403h78q209 0 339 103q156 123 156 356q0 230 -156 353q-130 103 -339 103h-78z" />
    <glyph glyph-name="dslash" unicode="&#x111;" horiz-adv-x="1114" 
d="M1121 1027h-116v-1027h-233v58q-115 -88 -244 -88q-212 0 -354 159q-123 137 -123 326q0 219 159 361q137 122 318 122q129 0 244 -88v177h-229v210h229v128h233v-128h116v-210zM528 726q-115 0 -187 -92q-54 -70 -54 -179q0 -129 73 -202q71 -71 172 -71q119 0 188 92
q53 73 53 182q0 124 -71 200q-67 70 -174 70z" />
    <glyph glyph-name="Emacron" unicode="&#x112;" horiz-adv-x="990" 
d="M215 1514v210h639v-210h-639zM905 1365v-224h-520v-337h462v-225h-462v-354h539v-225h-781v1365h762z" />
    <glyph glyph-name="emacron" unicode="&#x113;" horiz-adv-x="1010" 
d="M185 1104v210h639v-210h-639zM959 367h-668q19 -73 58 -115q68 -71 169 -71q120 0 193 75q18 20 46 64l198 -82q-67 -112 -134 -165q-128 -103 -302 -103q-216 0 -351 159q-117 137 -117 326q0 129 59 239q61 117 172 182q106 62 227 62q199 0 325 -141
q126 -142 126 -365q0 -35 -1 -65zM291 541h436q-60 191 -218 191q-82 0 -138.5 -49.5t-79.5 -141.5z" />
    <glyph glyph-name="Ebreve" unicode="&#x114;" horiz-adv-x="990" 
d="M905 1365v-224h-520v-337h462v-225h-462v-354h539v-225h-781v1365h762zM222 1770l203 17q0 -7 0.5 -16.5t1 -15.5t0.5 -10q1 -57 28 -88q29 -33 73 -33q60 0 92 57q11 21 23 106l202 -17q-9 -91 -16 -115q-8 -29 -28 -66q-92 -164 -271 -164q-118 0 -202 72
q-96 83 -104 199q0 6 -0.5 16.5t-1 27.5t-0.5 30z" />
    <glyph glyph-name="ebreve" unicode="&#x115;" horiz-adv-x="1010" 
d="M959 367h-668q19 -73 58 -115q68 -71 169 -71q120 0 193 75q18 20 46 64l198 -82q-67 -112 -134 -165q-128 -103 -302 -103q-216 0 -351 159q-117 137 -117 326q0 129 59 239q61 117 172 182q106 62 227 62q199 0 325 -141q126 -142 126 -365q0 -35 -1 -65zM291 541h436
q-60 191 -218 191q-82 0 -138.5 -49.5t-79.5 -141.5zM194 1361l202 16q2 -38 2 -42q3 -57 29 -88q29 -33 73 -33q60 0 92 57q10 18 22 106l203 -17q-11 -92 -16 -115q-8 -29 -28 -66q-92 -164 -272 -164q-117 0 -201 72q-96 83 -104 200q0 6 -0.5 16.5t-1 27.5t-0.5 30z" />
    <glyph glyph-name="Edotaccent" unicode="&#x116;" horiz-adv-x="990" 
d="M905 1365v-224h-520v-337h462v-225h-462v-354h539v-225h-781v1365h762zM536 1763q58 0 102 -42q42 -43 42 -101q0 -60 -42 -102q-44 -42 -104 -42q-61 0 -103 42q-43 42 -43 103q0 59 43 101q44 41 105 41z" />
    <glyph glyph-name="edotaccent" unicode="&#x117;" horiz-adv-x="1010" 
d="M959 367h-668q19 -73 58 -115q68 -71 169 -71q120 0 193 75q18 20 46 64l198 -82q-67 -112 -134 -165q-128 -103 -302 -103q-216 0 -351 159q-117 137 -117 326q0 129 59 239q61 117 172 182q106 62 227 62q199 0 325 -141q126 -142 126 -365q0 -35 -1 -65zM291 541h436
q-60 191 -218 191q-82 0 -138.5 -49.5t-79.5 -141.5zM506 1359q58 0 102 -42q42 -43 42 -101q0 -60 -42 -102q-44 -42 -104 -42q-61 0 -103 42q-43 42 -43 103q0 59 43 101q44 41 105 41z" />
    <glyph glyph-name="Eogonek" unicode="&#x118;" horiz-adv-x="990" 
d="M924 225v-225q-6 -9 -13 -17q-60 -78 -60 -115q0 -18 26 -18q35 0 100 25l70 -176q-90 -32 -109 -37q-28 -7 -72 -7q-92 0 -153 48q-75 59 -75 149q0 66 52 148h-547v1365h762v-224h-520v-337h462v-225h-462v-354h539z" />
    <glyph glyph-name="eogonek" unicode="&#x119;" horiz-adv-x="1010" 
d="M610 -22q-58 -76 -58 -110q0 -18 26 -18q36 0 101 25l70 -176q-75 -28 -108 -37q-28 -7 -73 -7q-98 0 -163 56t-65 141q0 61 45 136q-55 16 -101 43q-111 64 -174 182q-59 112 -59 242q0 129 59 239q61 117 172 182q106 62 227 62q199 0 325 -141q126 -142 126 -365
q0 -35 -1 -65h-668q19 -73 58 -115q68 -71 169 -71q120 0 193 75q14 16 46 64l198 -82q-120 -218 -345 -260zM291 541h436q-60 191 -218 191q-82 0 -138.5 -49.5t-79.5 -141.5z" />
    <glyph glyph-name="Ecaron" unicode="&#x11a;" horiz-adv-x="990" 
d="M354 1834l181 -181l181 181l177 -88l-283 -310h-151l-282 310zM905 1365v-224h-520v-337h462v-225h-462v-354h539v-225h-781v1365h762z" />
    <glyph glyph-name="ecaron" unicode="&#x11b;" horiz-adv-x="1010" 
d="M323 1425l182 -181l181 181l177 -88l-283 -310h-151l-283 310zM959 367h-668q19 -73 58 -115q68 -71 169 -71q120 0 193 75q18 20 46 64l198 -82q-67 -112 -134 -165q-128 -103 -302 -103q-216 0 -351 159q-117 137 -117 326q0 129 59 239q61 117 172 182q106 62 227 62
q199 0 325 -141q126 -142 126 -365q0 -35 -1 -65zM291 541h436q-60 191 -218 191q-82 0 -138.5 -49.5t-79.5 -141.5z" />
    <glyph glyph-name="Gcircumflex" unicode="&#x11c;" horiz-adv-x="1488" 
d="M937 1417l-181 181l-182 -181l-176 88l282 310h151l283 -310zM786 525v225h633v-117q0 -187 -70 -331q-68 -140 -194 -226q-154 -106 -363 -106q-289 0 -494 187q-110 102 -171 239t-61 284q0 190 96 357q96 168 263 263t362 95q222 0 397 -126q52 -37 142 -125
l-170 -164q-87 87 -120 110q-109 76 -250 76q-230 0 -366 -172q-108 -135 -108 -314q0 -126 58 -232q62 -114 169 -180q112 -69 250 -69q225 0 331 181q32 55 47 145h-381z" />
    <glyph glyph-name="gcircumflex" unicode="&#x11d;" horiz-adv-x="1113" 
d="M710 1007l-182 181l-181 -181l-177 88l283 310h151l282 -310zM772 -18v76q-70 -50 -123 -69t-124 -19q-209 0 -351 159q-123 137 -123 326q0 219 159 361q137 122 315 122q73 0 124 -19q53 -19 123 -69v58h233v-926q0 -199 -111 -328q-140 -162 -378 -162
q-190 0 -330 110q-36 29 -119 124l153 151q8 -10 35 -40q61 -71 100 -92q68 -41 159 -41q123 0 190.5 73t67.5 205zM528 726q-115 0 -187 -92q-54 -69 -54 -179q0 -129 73 -202q71 -71 172 -71q120 0 189 92q52 70 52 182q0 126 -71 200q-66 70 -174 70z" />
    <glyph glyph-name="Gbreve" unicode="&#x11e;" horiz-adv-x="1488" 
d="M786 525v225h633v-117q0 -187 -70 -331q-68 -140 -194 -226q-154 -106 -363 -106q-289 0 -494 187q-110 102 -171 239t-61 284q0 190 96 357q96 168 263 263t362 95q222 0 397 -126q52 -37 142 -125l-170 -164q-87 87 -120 110q-109 76 -250 76q-230 0 -366 -172
q-108 -135 -108 -314q0 -126 58 -232q62 -114 169 -180q112 -69 250 -69q225 0 331 181q32 55 47 145h-381zM483 1770l202 17q1 -29 3 -42q1 -57 28 -88q29 -33 73 -33q61 0 92 57q12 22 22 106l203 -17q-11 -92 -16 -115q-8 -29 -28 -66q-92 -164 -271 -164q-118 0 -202 72
q-96 83 -104 199q0 6 -0.5 16.5t-1 27.5t-0.5 30z" />
    <glyph glyph-name="gbreve" unicode="&#x11f;" horiz-adv-x="1113" 
d="M772 -18v76q-70 -50 -123 -69t-124 -19q-209 0 -351 159q-123 137 -123 326q0 219 159 361q137 122 315 122q73 0 124 -19q53 -19 123 -69v58h233v-926q0 -199 -111 -328q-140 -162 -378 -162q-190 0 -330 110q-36 29 -119 124l153 151q8 -10 35 -40q61 -71 100 -92
q68 -41 159 -41q123 0 190.5 73t67.5 205zM528 726q-115 0 -187 -92q-54 -69 -54 -179q0 -129 73 -202q71 -71 172 -71q120 0 189 92q52 70 52 182q0 126 -71 200q-66 70 -174 70zM222 1361l202 16q2 -38 2 -42q3 -57 29 -88q29 -33 73 -33q60 0 92 57q10 18 22 106l203 -17
q-11 -92 -16 -115q-8 -29 -28 -66q-92 -164 -272 -164q-117 0 -201 72q-96 83 -104 200q0 6 -0.5 16.5t-1 27.5t-0.5 30z" />
    <glyph glyph-name="Gdotaccent" unicode="&#x120;" horiz-adv-x="1488" 
d="M786 525v225h633v-117q0 -187 -70 -331q-68 -140 -194 -226q-154 -106 -363 -106q-289 0 -494 187q-110 102 -171 239t-61 284q0 190 96 357q96 168 263 263t362 95q222 0 397 -126q52 -37 142 -125l-170 -164q-87 87 -120 110q-109 76 -250 76q-230 0 -366 -172
q-108 -135 -108 -314q0 -126 58 -232q62 -114 169 -180q112 -69 250 -69q225 0 331 181q32 55 47 145h-381zM792 1763q58 0 102 -42q42 -43 42 -101q0 -60 -42 -102q-44 -42 -104 -42q-61 0 -103 42q-43 42 -43 103q0 59 43 101q44 41 105 41z" />
    <glyph glyph-name="gdotaccent" unicode="&#x121;" horiz-adv-x="1113" 
d="M772 -18v76q-70 -50 -123 -69t-124 -19q-209 0 -351 159q-123 137 -123 326q0 219 159 361q137 122 315 122q73 0 124 -19q53 -19 123 -69v58h233v-926q0 -199 -111 -328q-140 -162 -378 -162q-190 0 -330 110q-36 29 -119 124l153 151q8 -10 35 -40q61 -71 100 -92
q68 -41 159 -41q123 0 190.5 73t67.5 205zM528 726q-115 0 -187 -92q-54 -69 -54 -179q0 -129 73 -202q71 -71 172 -71q120 0 189 92q52 70 52 182q0 126 -71 200q-66 70 -174 70zM531 1359q57 0 101 -42q42 -43 42 -101q0 -60 -42 -102q-44 -42 -104 -42q-61 0 -103 42
q-43 42 -43 103q0 59 43 101q44 41 106 41z" />
    <glyph glyph-name="Gcommaaccent" unicode="&#x122;" horiz-adv-x="1488" 
d="M575 -444l118 398l222 -67l-166 -386zM786 525v225h633v-117q0 -187 -70 -331q-68 -140 -194 -226q-154 -106 -363 -106q-289 0 -494 187q-110 102 -171 239t-61 284q0 190 96 357q96 168 263 263t362 95q222 0 397 -126q52 -37 142 -125l-170 -164q-87 87 -120 110
q-109 76 -250 76q-230 0 -366 -172q-108 -135 -108 -314q0 -126 58 -232q62 -114 169 -180q112 -69 250 -69q225 0 331 181q32 55 47 145h-381z" />
    <glyph glyph-name="gcommaaccent" unicode="&#x123;" horiz-adv-x="1113" 
d="M750 1383l-118 -398l-222 67l166 386zM772 -18v76q-70 -50 -123 -69t-124 -19q-209 0 -351 159q-123 137 -123 326q0 219 159 361q137 122 315 122q73 0 124 -19q53 -19 123 -69v58h233v-926q0 -199 -111 -328q-140 -162 -378 -162q-190 0 -330 110q-36 29 -119 124
l153 151q8 -10 35 -40q61 -71 100 -92q68 -41 159 -41q123 0 190.5 73t67.5 205zM528 726q-115 0 -187 -92q-54 -69 -54 -179q0 -129 73 -202q71 -71 172 -71q120 0 189 92q52 70 52 182q0 126 -71 200q-66 70 -174 70z" />
    <glyph glyph-name="Hcircumflex" unicode="&#x124;" horiz-adv-x="1333" 
d="M847 1417l-181 181l-181 -181l-177 88l283 310h151l282 -310zM385 1365v-561h562v561h242v-1365h-242v579h-562v-579h-242v1365h242z" />
    <glyph glyph-name="hcircumflex" unicode="&#x125;" horiz-adv-x="1043" 
d="M710 1417l-181 181l-182 -181l-176 88l282 310h151l283 -310zM342 1365v-505q98 78 211 78q80 0 155 -32t127 -89q53 -56 76.5 -133.5t23.5 -195.5v-488h-233v473q0 153 -45 204q-43 49 -121 49q-101 0 -152 -63q-42 -53 -42 -209v-454h-233v1365h233z" />
    <glyph glyph-name="Hbar" unicode="&#x126;" horiz-adv-x="1326" 
d="M1302 1027h-116v-1027h-242v579h-562v-579h-242v1027h-116v211h116v127h242v-127h562v127h242v-127h116v-211zM944 804v223h-562v-223h562z" />
    <glyph glyph-name="hbar" unicode="&#x127;" horiz-adv-x="1038" 
d="M103 0v1027h-117v210h117v128h233v-128h236v-210h-236v-167q97 78 211 78q80 0 155 -32t128 -89q52 -56 75.5 -134t23.5 -195v-488h-233v473q0 153 -45 204q-43 49 -121 49q-101 0 -152 -63q-42 -53 -42 -209v-454h-233z" />
    <glyph glyph-name="Itilde" unicode="&#x128;" horiz-adv-x="529" 
d="M143 1365h242v-1365h-242v1365zM391 1771l195 -46q-8 -83 -21 -120q-22 -58 -70.5 -91t-111.5 -33q-65 0 -155 43q-54 25 -66 25q-9 0 -14 -8l-14 -72l-191 45q11 91 29 129q55 115 177 115q51 0 159 -47q48 -22 62 -22q10 0 13 10q4 13 8 72z" />
    <glyph glyph-name="itilde" unicode="&#x129;" horiz-adv-x="452" 
d="M109 908h233v-908h-233v908zM352 1361l195 -46q-7 -83 -21 -120q-22 -58 -70 -91t-112 -33q-65 0 -155 43q-54 25 -66 25q-9 0 -14 -8q-1 0 -14 -72l-191 45q11 91 29 129q55 115 177 115q51 0 159 -47q48 -22 62 -22q10 0 13 10q4 13 8 72z" />
    <glyph glyph-name="Imacron" unicode="&#x12a;" horiz-adv-x="529" 
d="M-55 1514v210h639v-210h-639zM143 1365h242v-1365h-242v1365z" />
    <glyph glyph-name="imacron" unicode="&#x12b;" horiz-adv-x="452" 
d="M-93 1104v210h639v-210h-639zM110 908h233v-908h-233v908z" />
    <glyph glyph-name="Ibreve" unicode="&#x12c;" horiz-adv-x="529" 
d="M144 1365h242v-1365h-242v1365zM-47 1770l203 17q0 -7 0.5 -16.5t1 -15.5t0.5 -10q3 -59 28 -88q29 -33 74 -33q60 0 91 57q11 21 23 106l203 -17q-11 -92 -16 -115q-8 -30 -29 -66q-90 -164 -271 -164q-119 0 -201 72q-96 83 -104 199q-1 21 -3 74z" />
    <glyph glyph-name="ibreve" unicode="&#x12d;" horiz-adv-x="452" 
d="M109 908h233v-908h-233v908zM-86 1361l203 16q0 -7 0.5 -16.5t1 -15.5t0.5 -10q3 -59 28 -88q29 -33 74 -33q59 0 91 57q11 21 23 106l203 -17q-11 -92 -16 -115q-8 -30 -29 -66q-90 -164 -271 -164q-118 0 -201 72q-96 82 -104 200q-1 19 -3 74z" />
    <glyph glyph-name="Iogonek" unicode="&#x12e;" horiz-adv-x="529" 
d="M386 1365v-1365q-11 -15 -13 -17q-60 -78 -60 -115q0 -18 26 -18q35 0 100 25l70 -176q-75 -28 -108 -37q-28 -7 -73 -7q-97 0 -162 56t-65 141q0 68 52 148h-9v1365h242z" />
    <glyph glyph-name="iogonek" unicode="&#x12f;" horiz-adv-x="452" 
d="M342 908v-908q-1 -1 -13 -17q-60 -78 -60 -115q0 -18 26 -18q34 0 100 25l70 -176q-78 -29 -109 -37q-27 -7 -72 -7q-97 0 -162 56t-65 141q0 68 52 148v908h233zM228 1359q58 0 102 -42q42 -43 42 -101q0 -60 -42 -102q-44 -42 -104 -42q-61 0 -103 42q-43 42 -43 103
q0 59 43 101q44 41 105 41z" />
    <glyph glyph-name="Idot" unicode="&#x130;" horiz-adv-x="529" 
d="M144 1365h242v-1365h-242v1365zM268 1763q58 0 101 -42q42 -43 42 -101q0 -60 -42 -102q-43 -42 -104 -42t-103 42q-43 42 -43 103q0 59 43 101q44 41 106 41z" />
    <glyph glyph-name="dotlessi" unicode="&#x131;" horiz-adv-x="452" 
d="M109 908h233v-908h-233v908z" />
    <glyph glyph-name="IJ" unicode="&#x132;" horiz-adv-x="1388" 
d="M143 1365h242v-1365h-242v1365zM1002 1365h242v-941q0 -118 -17 -183q-48 -176 -194 -238q-78 -33 -163 -33q-96 0 -180.5 42t-181.5 138l153 175q119 -126 210 -126q70 0 100.5 52.5t30.5 172.5v941z" />
    <glyph glyph-name="ij" unicode="&#x133;" horiz-adv-x="916" 
d="M109 908h233v-908h-233v908zM228 1359q58 0 102 -42q42 -43 42 -101q0 -60 -42 -102q-44 -42 -104 -42q-61 0 -103 42q-43 42 -43 103q0 59 43 101q44 41 105 41zM574 908h233v-1096q0 -136 -52 -212q-67 -97 -199 -97q-60 0 -135 23v220q72 -22 108 -22q26 0 35.5 18.5
t9.5 69.5v1096zM692 1359q58 0 102 -42q42 -44 42 -101q0 -60 -42 -102q-44 -42 -104 -42q-61 0 -103 42q-43 42 -43 103q0 59 43 101q44 41 105 41z" />
    <glyph glyph-name="Jcircumflex" unicode="&#x134;" horiz-adv-x="866" 
d="M708 1417l-181 181l-182 -181l-177 88l283 310h151l283 -310zM480 1365h242v-941q0 -118 -17 -183q-48 -176 -194 -238q-78 -33 -163 -33q-97 0 -181 42q-83 41 -181 138l153 175q119 -126 209 -126q70 0 101 52.5t31 172.5v941z" />
    <glyph glyph-name="jcircumflex" unicode="&#x135;" horiz-adv-x="471" 
d="M403 1007l-181 181l-181 -181l-177 88l283 310h151l282 -310zM129 908h233v-1096q0 -136 -52 -212q-67 -97 -199 -97q-59 0 -134 23v220q72 -22 107 -22q26 0 35.5 18.5t9.5 69.5v1096z" />
    <glyph glyph-name="Kcommaaccent" unicode="&#x136;" horiz-adv-x="1213" 
d="M465 -444l118 398l222 -67l-166 -386zM1219 1365l-535 -578l528 -787h-285l-408 609l-134 -145v-464h-242v1365h242v-573l530 573h304z" />
    <glyph glyph-name="kcommaaccent" unicode="&#x137;" horiz-adv-x="986" 
d="M321 -444l118 398l222 -67l-166 -386zM978 908l-390 -382l416 -526h-288l-287 371l-87 -85v-286h-233v1365h233v-781l329 324h307z" />
    <glyph glyph-name="kgreenlandic" unicode="&#x138;" horiz-adv-x="986" 
d="M978 908l-390 -382l416 -526h-288l-287 371l-87 -85v-286h-233v908h233v-324l329 324h307z" />
    <glyph glyph-name="Lacute" unicode="&#x139;" horiz-adv-x="879" 
d="M375 1850l221 -119l-315 -316l-157 89zM143 1365h242v-1140h501v-225h-743v1365z" />
    <glyph glyph-name="lacute" unicode="&#x13a;" horiz-adv-x="455" 
d="M340 1874l221 -119l-315 -316l-157 89zM343 1365v-1365h-233v1365h233z" />
    <glyph glyph-name="Lcommaaccent" unicode="&#x13b;" horiz-adv-x="891" 
d="M366 -444l118 398l222 -67l-166 -386zM143 1365h242v-1140h501v-225h-743v1365z" />
    <glyph glyph-name="lcommaaccent" unicode="&#x13c;" horiz-adv-x="455" 
d="M25 -444l118 398l222 -67l-166 -386zM344 1365v-1365h-233v1365h233z" />
    <glyph glyph-name="Lcaron" unicode="&#x13d;" horiz-adv-x="891" 
d="M508 1016l118 399l222 -68l-166 -385zM143 1365h242v-1140h501v-225h-743v1365z" />
    <glyph glyph-name="lcaron" unicode="&#x13e;" horiz-adv-x="721" 
d="M413 1040l118 399l222 -68l-167 -385zM344 1365v-1365h-233v1365h233z" />
    <glyph glyph-name="Ldot" unicode="&#x13f;" horiz-adv-x="891" 
d="M143 1365h242v-1140h501v-225h-743v1365zM694 826q58 0 101 -42q42 -44 42 -101q0 -60 -42 -102q-43 -42 -104 -42t-103 42q-43 42 -43 103q0 59 43 101q44 41 106 41z" />
    <glyph glyph-name="ldot" unicode="&#x140;" horiz-adv-x="745" 
d="M603 826q57 0 101 -42q42 -44 42 -101q0 -60 -42 -102q-44 -42 -104 -42q-61 0 -103 42q-43 42 -43 103q0 59 43 101q44 41 106 41zM344 1365v-1365h-233v1365h233z" />
    <glyph glyph-name="Lslash" unicode="&#x141;" horiz-adv-x="914" 
d="M409 1365v-460l221 143v-252l-221 -143v-428h501v-225h-743v496l-129 -84v252l129 84v617h242z" />
    <glyph glyph-name="lslash" unicode="&#x142;" horiz-adv-x="543" 
d="M155 0v517l-124 -84v256l124 83v593h233v-437l125 83v-255l-125 -83v-673h-233z" />
    <glyph glyph-name="Nacute" unicode="&#x143;" horiz-adv-x="1449" 
d="M845 1850l221 -119l-315 -316l-157 89zM385 0h-242v1365h209l711 -949v949h242v-1365h-209l-711 949v-949z" />
    <glyph glyph-name="nacute" unicode="&#x144;" horiz-adv-x="1043" 
d="M647 1440l221 -118l-316 -317l-156 90zM342 908v-48q98 78 211 78q80 0 155 -32t127 -89q53 -56 76.5 -133.5t23.5 -195.5v-488h-233v473q0 153 -45 204q-43 49 -121 49q-101 0 -152 -63q-42 -53 -42 -209v-454h-233v908h233z" />
    <glyph glyph-name="Ncommaaccent" unicode="&#x145;" horiz-adv-x="1449" 
d="M557 -444l118 398l221 -67l-166 -386zM385 0h-242v1365h209l711 -949v949h242v-1365h-209l-711 949v-949z" />
    <glyph glyph-name="ncommaaccent" unicode="&#x146;" horiz-adv-x="1043" 
d="M355 -444l118 398l221 -67l-166 -386zM342 908v-48q98 78 211 78q80 0 155 -32t127 -89q53 -56 76.5 -133.5t23.5 -195.5v-488h-233v473q0 153 -45 204q-43 49 -121 49q-101 0 -152 -63q-42 -53 -42 -209v-454h-233v908h233z" />
    <glyph glyph-name="Ncaron" unicode="&#x147;" horiz-adv-x="1449" 
d="M577 1834l181 -181l181 181l177 -88l-282 -310h-151l-283 310zM385 0h-242v1365h209l711 -949v949h242v-1365h-209l-711 949v-949z" />
    <glyph glyph-name="ncaron" unicode="&#x148;" horiz-adv-x="1043" 
d="M351 1425l181 -181l181 181l177 -88l-282 -310h-151l-283 310zM342 908v-48q98 78 211 78q80 0 155 -32t127 -89q53 -56 76.5 -133.5t23.5 -195.5v-488h-233v473q0 153 -45 204q-43 49 -121 49q-101 0 -152 -63q-42 -53 -42 -209v-454h-233v908h233z" />
    <glyph glyph-name="napostrophe" unicode="&#x149;" horiz-adv-x="1237" 
d="M-20 849l196 545l211 -77l-238 -535zM536 908v-48q98 78 211 78q80 0 155 -32t127 -89q53 -56 76.5 -133.5t23.5 -195.5v-488h-233v473q0 153 -45 204q-43 49 -121 49q-102 0 -151 -63q-43 -52 -43 -209v-454h-233v908h233z" />
    <glyph glyph-name="Eng" unicode="&#x14a;" horiz-adv-x="1449" 
d="M1305 1365v-1365q0 -101 -29 -171q-27 -67 -85.5 -104t-136.5 -37q-58 0 -135 23v221q74 -23 107 -23q27 0 36.5 19t9.5 70v35l-687 916v-949h-242v1365h209l711 -949v949h242z" />
    <glyph glyph-name="eng" unicode="&#x14b;" horiz-adv-x="1043" 
d="M342 908v-48q98 78 211 78q80 0 155 -32t127 -89q53 -56 76.5 -133.5t23.5 -195.5v-516q0 -127 -68 -206q-69 -78 -183 -78q-57 0 -135 23v221q75 -23 107 -23q26 0 36 18.5t10 67.5v478q0 153 -45 204q-43 49 -121 49q-101 0 -152 -63q-42 -53 -42 -209v-454h-233v908
h233z" />
    <glyph glyph-name="Omacron" unicode="&#x14c;" horiz-adv-x="1560" 
d="M461 1514v210h639v-210h-639zM780 1395q190 0 353 -95q168 -97 265 -262q97 -164 97 -356q0 -190 -98 -357q-94 -160 -253 -254q-172 -101 -369 -101q-186 0 -358 101q-161 95 -254 254q-97 167 -97 368q0 185 97 345q105 171 265 262q166 95 352 95zM777 1166
q-214 0 -355 -172q-110 -134 -110 -320q0 -120 58 -226q62 -113 172 -180q112 -69 238 -69t239 69q110 67 172 180q58 107 58 234q0 206 -144 350q-136 134 -328 134z" />
    <glyph glyph-name="omacron" unicode="&#x14d;" horiz-adv-x="1066" 
d="M214 1104v210h639v-210h-639zM542 938q208 0 351 -158q123 -136 123 -325q0 -221 -159 -363q-136 -122 -323 -122q-218 0 -361 158q-122 137 -122 330q0 216 159 358q136 122 332 122zM529 726q-116 0 -188 -92q-54 -70 -54 -179q0 -129 73 -202q71 -71 174 -71
q122 0 192 93q54 71 54 180q0 128 -73 201q-69 70 -178 70z" />
    <glyph glyph-name="Obreve" unicode="&#x14e;" horiz-adv-x="1560" 
d="M780 1395q190 0 353 -95q168 -97 265 -262q97 -164 97 -356q0 -190 -98 -357q-94 -160 -253 -254q-172 -101 -369 -101q-186 0 -358 101q-161 95 -254 254q-97 167 -97 368q0 185 97 345q105 171 265 262q166 95 352 95zM777 1166q-214 0 -355 -172q-110 -134 -110 -320
q0 -120 58 -226q62 -113 172 -180q112 -69 238 -69t239 69q110 67 172 180q58 107 58 234q0 206 -144 350q-136 134 -328 134zM469 1770l203 17q0 -7 0.5 -16.5t1 -15.5t0.5 -10q1 -57 28 -88q28 -33 73 -33q61 0 92 57q11 21 23 106l202 -17q-11 -92 -16 -115
q-8 -29 -28 -66q-92 -164 -271 -164q-118 0 -202 72q-96 83 -104 199q0 6 -0.5 16.5t-1 27.5t-0.5 30z" />
    <glyph glyph-name="obreve" unicode="&#x14f;" horiz-adv-x="1066" 
d="M542 938q208 0 351 -158q123 -136 123 -325q0 -221 -159 -363q-136 -122 -323 -122q-218 0 -361 158q-122 137 -122 330q0 216 159 358q136 122 332 122zM529 726q-116 0 -188 -92q-54 -70 -54 -179q0 -129 73 -202q71 -71 174 -71q122 0 192 93q54 71 54 180
q0 128 -73 201q-69 70 -178 70zM222 1361l203 16q0 -7 0.5 -16.5t1 -15.5t0.5 -10q1 -57 28 -88q29 -33 74 -33q59 0 91 57q11 21 23 106l202 -17q-9 -91 -16 -115q-8 -29 -28 -66q-92 -164 -271 -164q-118 0 -202 72q-96 83 -104 200q0 6 -0.5 16.5t-1 27.5t-0.5 30z" />
    <glyph glyph-name="Ohungarumlaut" unicode="&#x150;" horiz-adv-x="1560" 
d="M780 1395q190 0 353 -95q168 -97 265 -262q97 -164 97 -356q0 -190 -98 -357q-94 -160 -253 -254q-172 -101 -369 -101q-186 0 -358 101q-161 95 -254 254q-97 167 -97 368q0 185 97 345q105 171 265 262q166 95 352 95zM777 1166q-214 0 -355 -172q-110 -134 -110 -320
q0 -120 58 -226q62 -113 172 -180q112 -69 238 -69t239 69q110 67 172 180q58 107 58 234q0 206 -144 350q-136 134 -328 134zM950 1737l-322 -323l-131 92l251 345zM796 1498l256 353l195 -120l-315 -317z" />
    <glyph glyph-name="ohungarumlaut" unicode="&#x151;" horiz-adv-x="1072" 
d="M724 1327l-321 -323l-131 92l250 345zM570 1089l256 352l196 -120l-316 -317zM542 938q208 0 351 -158q123 -136 123 -325q0 -221 -159 -363q-136 -122 -323 -122q-218 0 -361 158q-122 137 -122 330q0 216 159 358q136 122 332 122zM529 726q-116 0 -188 -92
q-54 -70 -54 -179q0 -129 73 -202q71 -71 174 -71q122 0 192 93q54 71 54 180q0 128 -73 201q-69 70 -178 70z" />
    <glyph glyph-name="OE" unicode="&#x152;" horiz-adv-x="2094" 
d="M1248 0v147q-202 -177 -469 -177q-192 0 -362 101q-159 93 -254 254q-97 166 -97 357q0 190 97 356t265 262q166 95 351 95q267 0 469 -177v147h762v-224h-519v-337h461v-225h-461v-354h538v-225h-781zM776 1166q-213 0 -354 -172q-110 -136 -110 -320q0 -120 58 -227
q62 -113 172 -180q112 -69 238 -69t238 69q110 67 172 180q58 107 58 235q0 206 -144 350q-136 134 -328 134z" />
    <glyph glyph-name="oe" unicode="&#x153;" horiz-adv-x="1739" 
d="M896 777q139 160 343 160q208 0 338 -160q112 -136 112 -346q0 -26 -1 -65h-667q19 -74 57 -114q68 -72 170 -72q118 0 192 75q15 15 47 64l198 -82q-42 -72 -68 -102q-25 -30 -67 -63q-127 -103 -302 -103q-213 0 -353 161q-142 -160 -362 -160q-218 0 -359 158
q-123 138 -123 326q0 220 159 362q137 122 323 122q220 0 363 -161zM530 726q-117 0 -189 -92q-54 -70 -54 -180q0 -129 73 -202q71 -71 174 -71q122 0 193 93q54 70 54 181q0 127 -73 201q-69 70 -178 70zM1021 540h436q-60 191 -218 191q-82 0 -139 -49.5t-79 -141.5z" />
    <glyph glyph-name="Racute" unicode="&#x154;" horiz-adv-x="1135" 
d="M623 1850l220 -119l-315 -316l-156 89zM778 579l325 -579h-273l-289 519q-49 -3 -85 -3h-71v-516h-242v1365h313q136 0 225 -24q90 -26 156 -83q68 -57 106.5 -142t38.5 -180q0 -114 -53.5 -207t-150.5 -150zM385 1144v-408h88q147 0 210 54q61 52 61 149q0 99 -63 152
q-62 53 -208 53h-88z" />
    <glyph glyph-name="racute" unicode="&#x155;" horiz-adv-x="629" 
d="M404 1440l220 -118l-315 -317l-156 90zM342 908v-59q79 65 178 65q35 0 86 -6v-209q-48 4 -84 4q-102 0 -141 -57q-39 -58 -39 -209v-437h-233v908h233z" />
    <glyph glyph-name="Rcommaaccent" unicode="&#x156;" horiz-adv-x="1135" 
d="M402 -444l118 398l222 -67l-166 -386zM778 579l325 -579h-273l-289 519q-49 -3 -85 -3h-71v-516h-242v1365h313q136 0 225 -24q90 -26 156 -83q68 -57 106.5 -142t38.5 -180q0 -114 -53.5 -207t-150.5 -150zM385 1144v-408h88q147 0 210 54q61 52 61 149q0 99 -63 152
q-62 53 -208 53h-88z" />
    <glyph glyph-name="rcommaaccent" unicode="&#x157;" horiz-adv-x="629" 
d="M12 -444l118 398l222 -67l-166 -386zM341 908v-59q79 65 178 65q35 0 86 -6v-209q-48 4 -84 4q-102 0 -141 -57q-39 -58 -39 -209v-437h-233v908h233z" />
    <glyph glyph-name="Rcaron" unicode="&#x158;" horiz-adv-x="1135" 
d="M351 1834l181 -181l181 181l177 -88l-282 -310h-151l-283 310zM778 579l325 -579h-273l-289 519q-49 -3 -85 -3h-71v-516h-242v1365h313q136 0 225 -24q90 -26 156 -83q68 -57 106.5 -142t38.5 -180q0 -114 -53.5 -207t-150.5 -150zM385 1144v-408h88q147 0 210 54
q61 52 61 149q0 99 -63 152q-62 53 -208 53h-88z" />
    <glyph glyph-name="rcaron" unicode="&#x159;" horiz-adv-x="623" 
d="M176 1425l181 -181l181 181l177 -88l-282 -310h-151l-283 310zM342 908v-59q79 65 178 65q35 0 86 -6v-209q-49 4 -84 4q-102 0 -141 -57q-39 -58 -39 -209v-437h-233v908h233z" />
    <glyph glyph-name="Sacute" unicode="&#x15a;" horiz-adv-x="1064" 
d="M656 1850l220 -119l-315 -316l-156 89zM972 1130l-198 -123q-50 77 -75 102q-61 60 -146 60q-58 0 -99 -22q-40 -20 -65.5 -62t-25.5 -87q0 -97 159 -157l128 -49q166 -63 249 -153q87 -96 87 -233q0 -198 -154 -327q-128 -109 -310 -109q-178 0 -303 109
q-106 92 -140 229q-3 15 -18 75l236 62q7 -30 12 -49q49 -199 218 -199q94 0 155 64q58 61 58 143q0 68 -57 113q-44 33 -138 70l-123 47q-301 115 -301 366q0 194 154 306q121 89 281 89q190 0 317 -129q36 -36 99 -136z" />
    <glyph glyph-name="sacute" unicode="&#x15b;" horiz-adv-x="786" 
d="M496 1440l221 -118l-315 -317l-157 90zM728 723l-181 -90q-40 56 -69 76.5t-69 20.5q-43 0 -68.5 -20t-25.5 -53q0 -31 19 -44q19 -15 96 -44l83 -31q89 -34 141 -78q81 -68 81 -180q0 -136 -108 -228q-94 -82 -232 -82q-182 0 -284 139q-38 52 -71 143l190 76
q43 -84 79 -116q35 -32 87 -32q48 0 77 26t29 68q0 30 -21 46q-18 14 -95 44l-92 35q-203 78 -203 252q0 130 101 213q94 74 219 74q107 0 182.5 -51t134.5 -164z" />
    <glyph glyph-name="Scircumflex" unicode="&#x15c;" horiz-adv-x="1064" 
d="M709 1417l-182 181l-181 -181l-177 88l283 310h151l282 -310zM972 1130l-198 -123q-50 77 -75 102q-61 60 -146 60q-58 0 -99 -22q-40 -20 -65.5 -62t-25.5 -87q0 -97 159 -157l128 -49q166 -63 249 -153q87 -96 87 -233q0 -198 -154 -327q-128 -109 -310 -109
q-178 0 -303 109q-106 92 -140 229q-3 15 -18 75l236 62q7 -30 12 -49q49 -199 218 -199q94 0 155 64q58 61 58 143q0 68 -57 113q-44 33 -138 70l-123 47q-301 115 -301 366q0 194 154 306q121 89 281 89q190 0 317 -129q36 -36 99 -136z" />
    <glyph glyph-name="scircumflex" unicode="&#x15d;" horiz-adv-x="807" 
d="M579 1007l-181 181l-181 -181l-177 88l283 310h151l282 -310zM731 723l-181 -90q-40 56 -69 76.5t-69 20.5q-43 0 -68.5 -20t-25.5 -53q0 -31 19 -44q20 -15 97 -44l82 -31q88 -34 141 -78q81 -68 81 -180q0 -136 -108 -228q-94 -82 -232 -82q-181 0 -283 139
q-37 51 -72 143l191 76q44 -86 78 -117t87 -31q48 0 77 26t29 68q0 30 -21 46q-21 15 -95 44l-91 35q-204 78 -204 252q0 130 101 213q94 74 220 74q107 0 183 -51.5t133 -163.5z" />
    <glyph glyph-name="Scedilla" unicode="&#x15e;" horiz-adv-x="1064" 
d="M530 -46l214 -91l-259 -329l-168 85zM972 1130l-198 -123q-50 77 -75 102q-61 60 -146 60q-58 0 -99 -22q-40 -20 -65.5 -62t-25.5 -87q0 -97 159 -157l128 -49q166 -63 249 -153q87 -96 87 -233q0 -198 -154 -327q-128 -109 -310 -109q-178 0 -303 109q-106 92 -140 229
q-3 15 -18 75l236 62q7 -30 12 -49q49 -199 218 -199q94 0 155 64q58 61 58 143q0 68 -57 113q-44 33 -138 70l-123 47q-301 115 -301 366q0 194 154 306q121 89 281 89q190 0 317 -129q36 -36 99 -136z" />
    <glyph glyph-name="scedilla" unicode="&#x15f;" horiz-adv-x="786" 
d="M381 -46l213 -91l-258 -329l-169 85zM728 723l-181 -90q-40 56 -69 76.5t-69 20.5q-43 0 -68.5 -20t-25.5 -53q0 -31 19 -44q19 -15 96 -44l83 -31q89 -34 141 -78q81 -68 81 -180q0 -136 -108 -228q-94 -82 -232 -82q-182 0 -284 139q-38 52 -71 143l190 76
q43 -84 79 -116q35 -32 87 -32q48 0 77 26t29 68q0 30 -21 46q-18 14 -95 44l-92 35q-203 78 -203 252q0 130 101 213q94 74 219 74q107 0 182.5 -51t134.5 -164z" />
    <glyph glyph-name="Scaron" unicode="&#x160;" horiz-adv-x="1064" 
d="M346 1834l181 -181l182 181l176 -88l-282 -310h-151l-283 310zM972 1130l-198 -123q-50 77 -75 102q-61 60 -146 60q-58 0 -99 -22q-40 -20 -65.5 -62t-25.5 -87q0 -97 159 -157l128 -49q166 -63 249 -153q87 -96 87 -233q0 -198 -154 -327q-128 -109 -310 -109
q-178 0 -303 109q-106 92 -140 229q-3 15 -18 75l236 62q7 -30 12 -49q49 -199 218 -199q94 0 155 64q58 61 58 143q0 68 -57 113q-44 33 -138 70l-123 47q-301 115 -301 366q0 194 154 306q121 89 281 89q190 0 317 -129q36 -36 99 -136z" />
    <glyph glyph-name="scaron" unicode="&#x161;" horiz-adv-x="807" 
d="M217 1425l181 -181l181 181l177 -88l-282 -310h-151l-283 310zM731 723l-181 -90q-40 56 -69 76.5t-69 20.5q-43 0 -68.5 -20t-25.5 -53q0 -31 19 -44q20 -15 97 -44l82 -31q88 -34 141 -78q81 -68 81 -180q0 -136 -108 -228q-94 -82 -232 -82q-181 0 -283 139
q-37 51 -72 143l191 76q44 -86 78 -117t87 -31q48 0 77 26t29 68q0 30 -21 46q-21 15 -95 44l-91 35q-204 78 -204 252q0 130 101 213q94 74 220 74q107 0 183 -51.5t133 -163.5z" />
    <glyph glyph-name="Tcommaaccent" unicode="&#x162;" horiz-adv-x="897" 
d="M249 -444l118 398l222 -67l-166 -386zM903 1141h-334v-1141h-242v1141h-334v224h910v-224z" />
    <glyph glyph-name="tcommaaccent" unicode="&#x163;" horiz-adv-x="545" 
d="M97 -444l118 398l222 -67l-166 -386zM492 698h-140v-405q0 -51 9.5 -70t36.5 -19q32 0 107 23v-221q-77 -23 -135 -23q-121 0 -186 80.5t-65 229.5v405h-95v210h95v195l233 91v-286h140v-210z" />
    <glyph glyph-name="Tcaron" unicode="&#x164;" horiz-adv-x="897" 
d="M267 1834l181 -181l181 181l177 -88l-282 -310h-151l-283 310zM903 1141h-334v-1141h-242v1141h-334v224h910v-224z" />
    <glyph glyph-name="tcaron" unicode="&#x165;" horiz-adv-x="729" 
d="M421 1040l118 399l221 -68l-166 -385zM492 698h-140v-405q0 -51 9.5 -70t36.5 -19q32 0 107 23v-221q-77 -23 -135 -23q-121 0 -186 80.5t-65 229.5v405h-95v210h95v195l233 91v-286h140v-210z" />
    <glyph glyph-name="Tbar" unicode="&#x166;" horiz-adv-x="897" 
d="M569 1141v-233h205v-216h-205v-692h-242v692h-205v216h205v233h-334v224h910v-224h-334z" />
    <glyph glyph-name="tbar" unicode="&#x167;" horiz-adv-x="545" 
d="M352 1194v-286h140v-210h-140v-55h140v-210h-140v-140q0 -51 9.5 -70t36.5 -19q32 0 107 23v-221q-77 -23 -135 -23q-121 0 -186 80.5t-65 229.5v140h-95v210h95v55h-95v210h95v195z" />
    <glyph glyph-name="Utilde" unicode="&#x168;" horiz-adv-x="1309" 
d="M143 1365h242v-839q0 -85 8 -135q7 -44 29 -80q29 -48 96 -80q66 -32 136 -32t137 32q67 33 97 80q22 34 29 79q7 42 7 136v839h242v-877q0 -111 -22 -186.5t-73 -139.5q-72 -93 -190 -145q-109 -47 -226 -47q-174 0 -311 94q-106 72 -153.5 172t-47.5 252v877zM780 1771
l196 -46q-8 -83 -21 -120q-22 -58 -70.5 -91t-111.5 -33q-65 0 -155 43q-54 25 -66 25q-10 0 -15 -8q-4 -24 -13 -72l-191 45q11 91 29 129q55 115 177 115q52 0 158 -47q48 -22 63 -22q10 0 13 10q4 25 7 72z" />
    <glyph glyph-name="utilde" unicode="&#x169;" horiz-adv-x="1043" 
d="M702 0v48q-58 -45 -102 -61q-48 -17 -109 -17q-80 0 -155 32t-127 89q-53 56 -76.5 133.5t-23.5 195.5v488h233v-473q0 -155 45 -204t122 -49q101 0 151 63q42 53 42 209v454h233v-908h-233zM648 1361l196 -46q-8 -84 -22 -120q-22 -58 -70 -91t-111 -33q-64 0 -156 43
q-53 25 -66 25q-9 0 -14 -8q-4 -24 -13 -72l-192 45q10 88 30 129q55 115 177 115q50 0 158 -47q48 -22 63 -22q10 0 13 10q4 25 7 72z" />
    <glyph glyph-name="Umacron" unicode="&#x16a;" horiz-adv-x="1309" 
d="M335 1514v210h639v-210h-639zM143 1365h242v-839q0 -85 8 -135q7 -44 29 -80q29 -48 96 -80q66 -32 136 -32t137 32q67 33 97 80q22 34 29 79q7 42 7 136v839h242v-877q0 -111 -22 -186.5t-73 -139.5q-72 -93 -190 -145q-109 -47 -226 -47q-174 0 -311 94
q-106 72 -153.5 172t-47.5 252v877z" />
    <glyph glyph-name="umacron" unicode="&#x16b;" horiz-adv-x="1043" 
d="M203 1104v210h639v-210h-639zM702 0v48q-58 -45 -102 -61q-48 -17 -109 -17q-80 0 -155 32t-127 89q-53 56 -76.5 133.5t-23.5 195.5v488h233v-473q0 -155 45 -204t122 -49q101 0 151 63q42 53 42 209v454h233v-908h-233z" />
    <glyph glyph-name="Ubreve" unicode="&#x16c;" horiz-adv-x="1309" 
d="M143 1365h242v-839q0 -85 8 -135q7 -44 29 -80q29 -48 96 -80q66 -32 136 -32t137 32q67 33 97 80q22 34 29 79q7 42 7 136v839h242v-877q0 -111 -22 -186.5t-73 -139.5q-72 -93 -190 -145q-109 -47 -226 -47q-174 0 -311 94q-106 72 -153.5 172t-47.5 252v877zM342 1770
l203 17q1 -29 3 -42q1 -57 28 -88q28 -33 73 -33q61 0 92 57q10 18 22 106l203 -17q-11 -92 -16 -115q-8 -29 -28 -66q-92 -164 -272 -164q-117 0 -201 72q-96 83 -104 199q-1 21 -3 74z" />
    <glyph glyph-name="ubreve" unicode="&#x16d;" horiz-adv-x="1043" 
d="M702 0v48q-58 -45 -102 -61q-48 -17 -109 -17q-80 0 -155 32t-127 89q-53 56 -76.5 133.5t-23.5 195.5v488h233v-473q0 -155 45 -204t122 -49q101 0 151 63q42 53 42 209v454h233v-908h-233zM210 1361l203 16q2 -38 2 -42q3 -57 29 -88q29 -33 73 -33q59 0 91 57
q11 21 23 106l203 -17q-11 -92 -16 -115q-8 -30 -29 -66q-90 -164 -271 -164q-117 0 -201 72q-96 83 -104 200q-1 21 -3 74z" />
    <glyph glyph-name="Uring" unicode="&#x16e;" horiz-adv-x="1309" 
d="M654 1838q94 0 158 -64q66 -63 66 -155q0 -90 -65 -155q-65 -64 -158 -64q-94 0 -158 64q-66 64 -66 158q0 88 66 152q65 64 157 64zM655 1725q-45 0 -76 -31t-31 -76q0 -43 31.5 -74t75.5 -31t75 31t31 75t-31 75t-75 31zM143 1365h242v-839q0 -85 8 -135q7 -44 29 -80
q29 -48 96 -80q66 -32 136 -32t137 32q67 33 97 80q22 34 29 79q7 42 7 136v839h242v-877q0 -111 -22 -186.5t-73 -139.5q-72 -93 -190 -145q-109 -47 -226 -47q-174 0 -311 94q-106 72 -153.5 172t-47.5 252v877z" />
    <glyph glyph-name="uring" unicode="&#x16f;" horiz-adv-x="1043" 
d="M521 1429q94 0 159 -64q65 -63 65 -155q0 -90 -65 -155q-64 -64 -157 -64q-95 0 -159 64q-65 65 -65 158q0 89 65 152q67 64 157 64zM522 1316q-44 0 -75 -31t-31 -76q0 -43 31.5 -74t74.5 -31q44 0 75 31t31 75t-31 75t-75 31zM702 0v48q-58 -45 -102 -61
q-48 -17 -109 -17q-80 0 -155 32t-127 89q-53 56 -76.5 133.5t-23.5 195.5v488h233v-473q0 -155 45 -204t122 -49q101 0 151 63q42 53 42 209v454h233v-908h-233z" />
    <glyph glyph-name="Uhungarumlaut" unicode="&#x170;" horiz-adv-x="1309" 
d="M143 1365h242v-839q0 -85 8 -135q7 -44 29 -80q29 -48 96 -80q66 -32 136 -32t137 32q67 33 97 80q22 34 29 79q7 42 7 136v839h242v-877q0 -111 -22 -186.5t-73 -139.5q-72 -93 -190 -145q-109 -47 -226 -47q-174 0 -311 94q-106 72 -153.5 172t-47.5 252v877zM804 1737
l-322 -323l-131 92l251 345zM650 1498l256 353l195 -120l-315 -317z" />
    <glyph glyph-name="uhungarumlaut" unicode="&#x171;" horiz-adv-x="1043" 
d="M702 0v48q-58 -45 -102 -61q-48 -17 -109 -17q-80 0 -155 32t-127 89q-53 56 -76.5 133.5t-23.5 195.5v488h233v-473q0 -155 45 -204t122 -49q101 0 151 63q42 53 42 209v454h233v-908h-233zM682 1327l-322 -323l-131 92l251 345zM528 1089l256 352l195 -120l-315 -317z
" />
    <glyph glyph-name="Uogonek" unicode="&#x172;" horiz-adv-x="1309" 
d="M786 -15q-62 -83 -62 -117q0 -18 27 -18q34 0 100 25l69 -176q-75 -28 -108 -37q-28 -7 -73 -7q-98 0 -163 56t-65 141q0 60 40 127q-198 38 -303 169t-105 340v877h242v-839q0 -86 8 -136q7 -45 29 -79q30 -49 96 -81t136 -32t137 32q66 32 97 81q22 34 29 79
q7 42 7 136v839h242v-877q0 -162 -53 -262q-46 -87 -132 -150.5t-195 -90.5z" />
    <glyph glyph-name="uogonek" unicode="&#x173;" horiz-adv-x="1043" 
d="M935 908v-908q-1 -2 -13 -17q-60 -78 -60 -115q0 -18 26 -18q34 0 100 25l70 -176q-75 -28 -108 -37q-28 -7 -73 -7q-97 0 -162 56t-65 141q0 68 52 148v48q-58 -45 -102 -61q-48 -17 -109 -17q-80 0 -155 32t-127 89q-53 56 -76.5 133.5t-23.5 195.5v488h233v-473
q0 -155 45 -204t122 -49q101 0 151 63q42 53 42 209v454h233z" />
    <glyph glyph-name="Wcircumflex" unicode="&#x174;" horiz-adv-x="1795" 
d="M1078 1417l-181 181l-181 -181l-177 88l283 310h151l282 -310zM-7 1365h253l264 -942l286 942h203l286 -942l264 942h252l-406 -1365h-222l-276 901l-276 -901h-222z" />
    <glyph glyph-name="wcircumflex" unicode="&#x175;" horiz-adv-x="1356" 
d="M860 1007l-182 181l-181 -181l-177 88l283 310h151l283 -310zM-19 908h251l169 -522l185 522h185l185 -522l170 522h250l-330 -908h-184l-184 515l-183 -515h-184z" />
    <glyph glyph-name="Ycircumflex" unicode="&#x176;" horiz-adv-x="1106" 
d="M735 1417l-181 181l-181 -181l-177 88l282 310h151l283 -310zM432 0v565l-452 800h270l304 -553l303 553h269l-452 -800v-565h-242z" />
    <glyph glyph-name="ycircumflex" unicode="&#x177;" horiz-adv-x="969" 
d="M668 1007l-181 181l-182 -181l-176 88l282 310h151l283 -310zM125 -478l230 522l-374 864h253l246 -580l256 580h253l-618 -1386h-246z" />
    <glyph glyph-name="Ydieresis" unicode="&#x178;" horiz-adv-x="1106" 
d="M432 0v565l-452 800h270l304 -553l303 553h269l-452 -800v-565h-242zM367 1763q59 0 102 -42q42 -43 42 -101q0 -60 -42 -102q-44 -42 -104 -42q-61 0 -103 42q-43 42 -43 103q0 59 43 101q44 41 105 41zM744 1763q58 0 102 -42q42 -43 42 -101q0 -60 -42 -102
q-44 -42 -104 -42q-61 0 -103 42q-43 42 -43 103q0 59 43 101q44 41 105 41z" />
    <glyph glyph-name="Zacute" unicode="&#x179;" horiz-adv-x="1047" 
d="M608 1850l221 -119l-315 -316l-157 89zM1002 1176l-664 -951h678v-225h-989v189l675 953h-617v223h917v-189z" />
    <glyph glyph-name="zacute" unicode="&#x17a;" horiz-adv-x="844" 
d="M521 1440l221 -118l-315 -317l-157 90zM812 735l-463 -525h482v-210h-793v172l464 527h-436v209h746v-173z" />
    <glyph glyph-name="Zdotaccent" unicode="&#x17b;" horiz-adv-x="1047" 
d="M1002 1176l-664 -951h678v-225h-989v189l675 953h-617v223h917v-189zM556 1763q58 0 102 -42q42 -43 42 -101q0 -60 -42 -102q-44 -42 -104 -42q-61 0 -103 42q-43 42 -43 103q0 59 43 101q44 41 105 41z" />
    <glyph glyph-name="zdotaccent" unicode="&#x17c;" horiz-adv-x="844" 
d="M812 735l-463 -525h482v-210h-793v172l464 527h-436v209h746v-173zM435 1359q59 0 102 -42q42 -43 42 -101q0 -60 -42 -102q-43 -42 -104 -42t-103 42q-43 42 -43 103q0 59 43 101q44 41 105 41z" />
    <glyph glyph-name="Zcaron" unicode="&#x17d;" horiz-adv-x="1047" 
d="M374 1834l181 -181l181 181l177 -88l-282 -310h-151l-283 310zM1002 1176l-664 -951h678v-225h-989v189l675 953h-617v223h917v-189z" />
    <glyph glyph-name="zcaron" unicode="&#x17e;" horiz-adv-x="844" 
d="M253 1425l181 -181l181 181l177 -88l-282 -310h-151l-283 310zM812 735l-463 -525h482v-210h-793v172l464 527h-436v209h746v-173z" />
    <glyph glyph-name="longs" unicode="&#x17f;" horiz-adv-x="489" 
d="M357 1072v-1072h-233v698h-86v210h86v164q0 151 65.5 230.5t189.5 79.5q55 0 131 -17v-210q-54 16 -82 16q-39 0 -55 -22t-16 -77z" />
    <glyph glyph-name="florin" unicode="&#x192;" horiz-adv-x="999" 
d="M696 1053l-30 -145h162l-44 -210h-162l-164 -794q-32 -153 -113 -232.5t-206 -79.5q-47 0 -142 27l46 222q21 -5 52 -13q30 -8 45 -8q31 0 49 23.5t30 80.5l160 774h-89l43 210h89l34 165q28 138 97 216q87 96 221 96q42 0 143 -27l-46 -223q-81 22 -97 22
q-31 0 -48.5 -23.5t-29.5 -80.5z" />
    <glyph glyph-name="Ohorn" unicode="&#x1a0;" horiz-adv-x="1581" 
d="M1265 1203q83 41 83 108q0 45 -30 86q-14 19 -89 82l178 89q61 -43 88 -77q62 -77 62 -185q0 -155 -161 -265q99 -171 99 -361q0 -188 -98 -355q-94 -160 -253 -254q-170 -101 -364 -101q-193 0 -363 101q-159 93 -254 254q-97 166 -97 357q0 190 97 356t265 262
q166 95 352 95q276 0 485 -192zM777 1166q-214 0 -355 -172q-110 -134 -110 -320q0 -120 58 -226q62 -113 172 -180q112 -69 238 -69t239 69q110 67 172 180q58 107 58 234q0 206 -144 350q-136 134 -328 134z" />
    <glyph glyph-name="ohorn" unicode="&#x1a1;" horiz-adv-x="1160" 
d="M900 773q38 32 38 81q0 46 -30 86q-12 17 -89 82l178 89q64 -47 88 -77q62 -79 62 -185q0 -153 -150 -257q19 -67 19 -137q0 -221 -159 -363q-136 -122 -323 -122q-219 0 -360 158q-123 138 -123 326q0 220 159 362q137 122 323 122q225 0 367 -165zM529 726
q-116 0 -188 -92q-54 -70 -54 -179q0 -129 73 -202q71 -71 174 -71q122 0 192 93q54 71 54 180q0 128 -73 201q-69 70 -178 70z" />
    <glyph glyph-name="Uhorn" unicode="&#x1af;" horiz-adv-x="1419" 
d="M1166 1365v-148q58 34 58 95q0 44 -30 85q-12 17 -89 82l178 89q61 -43 88 -77q62 -77 62 -185q0 -96 -64 -178q-63 -81 -177 -128l-13 -5l-13 -5v-502q0 -111 -22 -186.5t-73 -139.5q-72 -93 -190 -145q-109 -47 -226 -47q-174 0 -311 94q-106 72 -153.5 172t-47.5 252
v877h242v-839q0 -85 8 -135q7 -44 29 -80q29 -48 96 -80q66 -32 136 -32t137 32q67 33 97 80q22 34 29 79q7 42 7 136v839h242z" />
    <glyph glyph-name="uhorn" unicode="&#x1b0;" horiz-adv-x="1219" 
d="M935 908v-151q62 38 62 97q0 46 -30 86q-12 17 -89 82l178 89q61 -43 88 -77q62 -79 62 -185q0 -96 -64 -178q-63 -81 -177 -128l-30 -12v-531h-233v48q-58 -45 -102 -61q-48 -17 -109 -17q-80 0 -155 32t-127 89q-53 56 -76.5 133.5t-23.5 195.5v488h233v-473
q0 -155 45 -204t122 -49q101 0 151 63q42 53 42 209v454h233z" />
    <glyph glyph-name="uni01C4" unicode="&#x1c4;" horiz-adv-x="2315" 
d="M143 0v1365h313q310 0 504 -152q241 -189 241 -529q0 -346 -241 -532q-197 -152 -504 -152h-313zM462 1140h-77v-915h77q209 0 339 103q156 123 156 356q0 230 -156 353q-130 103 -339 103zM1641 1834l182 -181l181 181l177 -88l-283 -310h-151l-282 310zM2270 1176
l-664 -951h678v-225h-989v189l675 953h-617v223h917v-189z" />
    <glyph glyph-name="uni01C5" unicode="&#x1c5;" horiz-adv-x="2112" 
d="M143 0v1365h313q310 0 504 -152q241 -189 241 -529q0 -346 -241 -532q-197 -152 -504 -152h-313zM462 1140h-77v-915h77q209 0 339 103q156 123 156 356q0 230 -156 353q-130 103 -339 103zM1520 1425l182 -181l181 181l177 -88l-283 -310h-151l-282 310zM2080 735
l-463 -525h481v-210h-792v172l464 527h-436v209h746v-173z" />
    <glyph glyph-name="uni01C6" unicode="&#x1c6;" horiz-adv-x="1958" 
d="M1005 1365v-1365h-233v58q-115 -88 -244 -88q-212 0 -354 159q-123 137 -123 326q0 219 159 361q137 122 318 122q129 0 244 -88v515h233zM528 726q-115 0 -187 -92q-54 -70 -54 -179q0 -129 73 -202q71 -71 172 -71q119 0 188 92q53 73 53 182q0 124 -71 200
q-67 70 -174 70zM1367 1425l181 -181l182 181l176 -88l-282 -310h-151l-283 310zM1926 735l-463 -525h482v-210h-793v172l464 527h-436v209h746v-173z" />
    <glyph glyph-name="uni01C7" unicode="&#x1c7;" horiz-adv-x="1770" 
d="M143 1365h242v-1140h501v-225h-743v1365zM1384 1365h242v-941q0 -118 -17 -183q-48 -176 -194 -238q-78 -33 -163 -33q-96 0 -180.5 42t-181.5 138l153 175q119 -126 210 -126q70 0 100.5 52.5t30.5 172.5v941z" />
    <glyph glyph-name="uni01C8" unicode="&#x1c8;" horiz-adv-x="1362" 
d="M143 1365h242v-1140h501v-225h-743v1365zM1019 908h233v-1096q0 -136 -52 -212q-67 -97 -199 -97q-59 0 -134 23v220q72 -22 107 -22q26 0 35.5 18.5t9.5 69.5v1096zM1138 1359q58 0 102 -42q42 -44 42 -101q0 -60 -42 -102q-44 -42 -104 -42q-61 0 -103 42
q-43 42 -43 103q0 59 43 101q44 41 105 41z" />
    <glyph glyph-name="uni01C9" unicode="&#x1c9;" horiz-adv-x="926" 
d="M344 1365v-1365h-233v1365h233zM584 908h233v-1096q0 -136 -52 -212q-67 -97 -199 -97q-60 0 -135 23v220q72 -22 107 -22q27 0 36.5 18.5t9.5 69.5v1096zM702 1359q58 0 102 -42q42 -44 42 -101q0 -60 -42 -102q-44 -42 -104 -42q-61 0 -103 42q-43 42 -43 103
q0 59 43 101q44 41 105 41z" />
    <glyph glyph-name="uni01CA" unicode="&#x1ca;" horiz-adv-x="2314" 
d="M385 0h-242v1365h209l711 -949v949h242v-1365h-209l-711 949v-949zM1929 1365h242v-941q0 -118 -17 -183q-48 -176 -194 -238q-78 -33 -163 -33q-96 0 -180.5 42t-181.5 138l153 175q118 -126 210 -126q70 0 100.5 52.5t30.5 172.5v941z" />
    <glyph glyph-name="uni01CB" unicode="&#x1cb;" horiz-adv-x="1920" 
d="M385 0h-242v1365h209l711 -949v949h242v-1365h-209l-711 949v-949zM1577 908h233v-1096q0 -136 -52 -212q-67 -97 -199 -97q-60 0 -135 23v220q72 -22 108 -22q26 0 35.5 18.5t9.5 69.5v1096zM1696 1359q58 0 102 -42q42 -44 42 -101q0 -60 -42 -102q-44 -42 -104 -42
q-61 0 -103 42q-43 42 -43 103q0 59 43 101q44 41 105 41z" />
    <glyph glyph-name="uni01CC" unicode="&#x1cc;" horiz-adv-x="1514" 
d="M342 908v-48q98 78 211 78q80 0 155 -32t127 -89q53 -56 76.5 -133.5t23.5 -195.5v-488h-233v473q0 153 -45 204q-43 49 -121 49q-101 0 -152 -63q-42 -53 -42 -209v-454h-233v908h233zM1173 908h233v-1096q0 -136 -52 -212q-67 -97 -199 -97q-60 0 -135 23v220
q72 -22 108 -22q26 0 35.5 18.5t9.5 69.5v1096zM1292 1359q58 0 101 -42q42 -44 42 -101q0 -60 -42 -102q-43 -42 -104 -42t-103 42q-43 42 -43 103q0 59 43 101q44 41 106 41z" />
    <glyph glyph-name="uni01CD" unicode="&#x1cd;" horiz-adv-x="1303" 
d="M470 1834l181 -181l181 181l177 -88l-282 -310h-151l-283 310zM1053 0l-121 335h-563l-121 -335h-255l510 1365h297l509 -1365h-256zM451 560h399l-200 549z" />
    <glyph glyph-name="uni01CE" unicode="&#x1ce;" horiz-adv-x="1113" 
d="M347 1425l181 -181l181 181l177 -88l-282 -310h-151l-283 310zM1005 908v-908h-233v58q-115 -88 -244 -88q-212 0 -354 159q-123 137 -123 326q0 219 159 361q137 122 318 122q129 0 244 -88v58h233zM528 726q-115 0 -187 -92q-54 -69 -54 -179q0 -129 73 -202
q71 -71 172 -71q120 0 190 93q53 71 53 181q0 125 -72 200q-67 70 -175 70z" />
    <glyph glyph-name="uni01CF" unicode="&#x1cf;" horiz-adv-x="529" 
d="M83 1834l181 -181l181 181l177 -88l-282 -310h-151l-283 310zM143 1365h242v-1365h-242v1365z" />
    <glyph glyph-name="uni01D0" unicode="&#x1d0;" horiz-adv-x="452" 
d="M45 1425l181 -181l181 181l177 -88l-282 -310h-151l-283 310zM109 908h233v-908h-233v908z" />
    <glyph glyph-name="uni01D1" unicode="&#x1d1;" horiz-adv-x="1560" 
d="M780 1395q190 0 353 -95q168 -97 265 -262q97 -164 97 -356q0 -190 -98 -357q-94 -160 -253 -254q-172 -101 -369 -101q-186 0 -358 101q-161 95 -254 254q-97 167 -97 368q0 185 97 345q105 171 265 262q166 95 352 95zM777 1166q-214 0 -355 -172q-110 -134 -110 -320
q0 -120 58 -226q62 -113 172 -180q112 -69 238 -69t239 69q110 67 172 180q58 107 58 234q0 206 -144 350q-136 134 -328 134zM599 1834l181 -181l182 181l177 -88l-283 -310h-151l-283 310z" />
    <glyph glyph-name="uni01D2" unicode="&#x1d2;" horiz-adv-x="1066" 
d="M352 1425l182 -181l181 181l177 -88l-283 -310h-151l-282 310zM542 938q208 0 351 -158q123 -136 123 -325q0 -221 -159 -363q-136 -122 -323 -122q-218 0 -361 158q-122 137 -122 330q0 216 159 358q136 122 332 122zM529 726q-116 0 -188 -92q-54 -70 -54 -179
q0 -129 73 -202q71 -71 174 -71q122 0 192 93q54 71 54 180q0 128 -73 201q-69 70 -178 70z" />
    <glyph glyph-name="uni01D3" unicode="&#x1d3;" horiz-adv-x="1309" 
d="M473 1834l181 -181l182 181l176 -88l-282 -310h-151l-283 310zM143 1365h242v-839q0 -85 8 -135q7 -44 29 -80q29 -48 96 -80q66 -32 136 -32t137 32q67 33 97 80q22 34 29 79q7 42 7 136v839h242v-877q0 -111 -22 -186.5t-73 -139.5q-72 -93 -190 -145
q-109 -47 -226 -47q-174 0 -311 94q-106 72 -153.5 172t-47.5 252v877z" />
    <glyph glyph-name="uni01D4" unicode="&#x1d4;" horiz-adv-x="1043" 
d="M341 1425l181 -181l181 181l177 -88l-282 -310h-151l-283 310zM702 0v48q-58 -45 -102 -61q-48 -17 -109 -17q-80 0 -155 32t-127 89q-53 56 -76.5 133.5t-23.5 195.5v488h233v-473q0 -155 45 -204t122 -49q101 0 151 63q42 53 42 209v454h233v-908h-233z" />
    <glyph glyph-name="Gcaron" unicode="&#x1e6;" horiz-adv-x="1488" 
d="M608 1834l182 -181l181 181l177 -88l-283 -310h-151l-282 310zM786 525v225h633v-117q0 -187 -70 -331q-68 -140 -194 -226q-154 -106 -363 -106q-289 0 -494 187q-110 102 -171 239t-61 284q0 190 96 357q96 168 263 263t362 95q222 0 397 -126q52 -37 142 -125
l-170 -164q-87 87 -120 110q-109 76 -250 76q-230 0 -366 -172q-108 -135 -108 -314q0 -126 58 -232q62 -114 169 -180q112 -69 250 -69q225 0 331 181q32 55 47 145h-381z" />
    <glyph glyph-name="gcaron" unicode="&#x1e7;" horiz-adv-x="1113" 
d="M347 1425l182 -181l181 181l177 -88l-283 -310h-151l-283 310zM772 -18v76q-70 -50 -123 -69t-124 -19q-209 0 -351 159q-123 137 -123 326q0 219 159 361q137 122 315 122q73 0 124 -19q53 -19 123 -69v58h233v-926q0 -199 -111 -328q-140 -162 -378 -162
q-190 0 -330 110q-36 29 -119 124l153 151q8 -10 35 -40q61 -71 100 -92q68 -41 159 -41q123 0 190.5 73t67.5 205zM528 726q-115 0 -187 -92q-54 -69 -54 -179q0 -129 73 -202q71 -71 172 -71q120 0 189 92q52 70 52 182q0 126 -71 200q-66 70 -174 70z" />
    <glyph glyph-name="uni01F4" unicode="&#x1f4;" horiz-adv-x="1488" 
d="M891 1850l221 -119l-316 -316l-156 89zM786 525v225h633v-117q0 -187 -70 -331q-68 -140 -194 -226q-154 -106 -363 -106q-289 0 -494 187q-110 102 -171 239t-61 284q0 190 96 357q96 168 263 263t362 95q222 0 397 -126q52 -37 142 -125l-170 -164q-87 87 -120 110
q-109 76 -250 76q-230 0 -366 -172q-108 -135 -108 -314q0 -126 58 -232q62 -114 169 -180q112 -69 250 -69q225 0 331 181q32 55 47 145h-381z" />
    <glyph glyph-name="uni01F5" unicode="&#x1f5;" horiz-adv-x="1113" 
d="M626 1440l221 -118l-315 -317l-157 90zM772 -18v76q-70 -50 -123 -69t-124 -19q-209 0 -351 159q-123 137 -123 326q0 219 159 361q137 122 315 122q73 0 124 -19q53 -19 123 -69v58h233v-926q0 -199 -111 -328q-140 -162 -378 -162q-190 0 -330 110q-36 29 -119 124
l153 151q8 -10 35 -40q61 -71 100 -92q68 -41 159 -41q123 0 190.5 73t67.5 205zM528 726q-115 0 -187 -92q-54 -69 -54 -179q0 -129 73 -202q71 -71 172 -71q120 0 189 92q52 70 52 182q0 126 -71 200q-66 70 -174 70z" />
    <glyph glyph-name="Aringacute" unicode="&#x1fa;" horiz-adv-x="1303" 
d="M538 1808l-119 68l251 346l221 -119l-265 -266q10 1 25 1q93 0 158 -64q65 -65 65 -155t-65 -155q-65 -64 -158 -64t-157 64q-66 64 -66 155q0 121 110 189zM651 1725q-44 0 -75 -31t-31 -76q0 -43 31.5 -74t74.5 -31q44 0 75 31t31 75t-31 75t-75 31zM1053 0l-121 335
h-563l-121 -335h-255l510 1365h297l509 -1365h-256zM451 560h399l-200 549z" />
    <glyph glyph-name="aringacute" unicode="&#x1fb;" horiz-adv-x="1113" 
d="M574 1850l221 -119l-315 -316l-157 89zM1005 908v-908h-233v58q-115 -88 -244 -88q-212 0 -354 159q-123 137 -123 326q0 219 159 361q137 122 318 122q129 0 244 -88v58h233zM528 726q-115 0 -187 -92q-54 -69 -54 -179q0 -129 73 -202q71 -71 172 -71q120 0 190 93
q53 71 53 181q0 125 -72 200q-67 70 -175 70zM554 1422q94 0 159 -64q65 -65 65 -155t-65 -155q-65 -64 -157 -64q-94 0 -158 64q-66 64 -66 158q0 88 66 152q65 64 156 64zM555 1309q-44 0 -75 -31t-31 -76q0 -43 31.5 -74t74.5 -31q44 0 75 31t31 75t-31 75t-75 31z" />
    <glyph glyph-name="AEacute" unicode="&#x1fc;" horiz-adv-x="1718" 
d="M1163 1850l221 -119l-315 -316l-157 89zM872 0v335h-436l-173 -335h-270l714 1365h926v-224h-519v-337h461v-225h-461v-354h539v-225h-781zM552 560h320v581h-21z" />
    <glyph glyph-name="aeacute" unicode="&#x1fd;" horiz-adv-x="1669" 
d="M925 1440l221 -118l-315 -317l-157 90zM856 98q-116 -128 -366 -128q-196 0 -318 87q-121 85 -121 235q0 190 189 267q94 38 223 38h230q-43 136 -215 136q-75 0 -138 -23q-62 -24 -139 -81l-123 151q77 60 119 83q133 75 304 75q235 0 348 -134q131 134 321 134
q197 0 323 -141q126 -142 126 -365q0 -33 -1 -65h-667q20 -75 57 -115q68 -71 170 -71q118 0 192 75q17 17 47 64l198 -82q-67 -112 -135 -165q-128 -103 -302 -103q-186 0 -322 128zM950 541h436q-59 191 -217 191q-82 0 -139 -50t-80 -141zM700 307v116h-209
q-206 0 -206 -129q0 -119 206 -119q209 0 209 132z" />
    <glyph glyph-name="Oslashacute" unicode="&#x1fe;" horiz-adv-x="1575" 
d="M889 1850l220 -119l-315 -316l-157 89zM1224 1244l128 127l133 -129l-131 -129q148 -196 148 -432q0 -189 -98 -356q-94 -160 -253 -254q-170 -101 -362 -101q-244 0 -438 151l-128 -126l-133 128l130 128q-147 197 -147 432q0 189 97 355t265 262q166 95 351 95
q245 0 438 -151zM393 422l664 657q-123 87 -270 87q-131 0 -244 -71q-111 -70 -170 -187q-54 -105 -54 -226q0 -138 74 -260zM1182 943l-663 -655q131 -89 270 -89q125 0 237 69q110 67 172 180q58 106 58 233q0 140 -74 262z" />
    <glyph glyph-name="oslashacute" unicode="&#x1ff;" horiz-adv-x="1094" 
d="M648 1440l220 -118l-315 -317l-156 90zM838 843l75 70l116 -112l-80 -76q80 -119 80 -272q0 -219 -159 -361q-136 -122 -323 -122q-161 0 -292 95l-75 -70l-116 112l80 76q-80 125 -80 272q0 219 159 361q137 122 323 122q162 0 292 -95zM316 347l362 343q-58 36 -131 36
q-122 0 -193 -92q-54 -70 -54 -178q0 -61 16 -109zM777 561l-361 -343q60 -36 131 -36q121 0 192 93q54 71 54 178q0 57 -16 108z" />
    <glyph glyph-name="uni0200" unicode="&#x200;" horiz-adv-x="1303" 
d="M790 1414l-267 268l128 -176l-148 -92l-315 317l212 120l84 -115l203 115l251 -345zM1053 0l-121 335h-563l-121 -335h-255l510 1365h297l509 -1365h-256zM451 560h399l-200 549z" />
    <glyph glyph-name="uni0201" unicode="&#x201;" horiz-adv-x="1113" 
d="M621 1004l-267 268l128 -176l-148 -92l-315 317l213 120l83 -115l203 115l251 -345zM1005 908v-908h-233v58q-115 -88 -244 -88q-124 0 -234 62q-114 64 -181 181q-62 112 -62 242q0 219 159 361q137 122 317 122q130 0 245 -88v58h233zM528 726q-115 0 -187 -92
q-54 -70 -54 -179q0 -129 73 -202q71 -71 172 -71q120 0 190 93q53 71 53 181q0 125 -72 200q-67 70 -175 70z" />
    <glyph glyph-name="Scommaaccent" unicode="&#x218;" horiz-adv-x="1064" 
d="M519 -46l214 -91l-259 -329l-168 85zM972 1130l-198 -123q-50 77 -75 102q-61 60 -146 60q-58 0 -99 -22q-40 -20 -65.5 -62t-25.5 -87q0 -97 159 -157l128 -49q166 -63 249 -153q87 -96 87 -233q0 -198 -154 -327q-128 -109 -310 -109q-178 0 -303 109q-106 92 -140 229
q-3 15 -18 75l236 62q7 -30 12 -49q49 -199 218 -199q94 0 155 64q58 61 58 143q0 68 -57 113q-44 33 -138 70l-123 47q-301 115 -301 366q0 194 154 306q121 89 281 89q190 0 317 -129q36 -36 99 -136z" />
    <glyph glyph-name="scommaaccent" unicode="&#x219;" horiz-adv-x="786" 
d="M225 -444l118 398l222 -67l-166 -386zM728 723l-181 -90q-40 56 -69 76.5t-69 20.5q-43 0 -68.5 -20t-25.5 -53q0 -31 19 -44q19 -15 96 -44l83 -31q89 -34 141 -78q81 -68 81 -180q0 -136 -108 -228q-94 -82 -232 -82q-182 0 -284 139q-38 52 -71 143l190 76
q43 -84 79 -116q35 -32 87 -32q48 0 77 26t29 68q0 30 -21 46q-18 14 -95 44l-92 35q-203 78 -203 252q0 130 101 213q94 74 219 74q107 0 182.5 -51t134.5 -164z" />
    <glyph glyph-name="uni021A" unicode="&#x21a;" horiz-adv-x="897" 
d="M249 -444l118 398l222 -67l-166 -386zM903 1141h-334v-1141h-242v1141h-334v224h910v-224z" />
    <glyph glyph-name="uni021B" unicode="&#x21b;" horiz-adv-x="545" 
d="M97 -444l118 398l222 -67l-166 -386zM492 698h-140v-405q0 -51 9.5 -70t36.5 -19q32 0 107 23v-221q-77 -23 -135 -23q-121 0 -186 80.5t-65 229.5v405h-95v210h95v195l233 91v-286h140v-210z" />
    <glyph glyph-name="uni0226" unicode="&#x226;" horiz-adv-x="1303" 
d="M1053 0l-121 335h-563l-121 -335h-255l510 1365h297l509 -1365h-256zM451 560h399l-200 549zM653 1763q59 0 102 -42q42 -43 42 -101q0 -60 -42 -102q-43 -42 -104 -42t-103 42q-43 42 -43 103q0 59 43 101q44 41 105 41z" />
    <glyph glyph-name="uni0227" unicode="&#x227;" horiz-adv-x="1113" 
d="M1005 908v-908h-233v58q-115 -88 -244 -88q-212 0 -354 159q-123 137 -123 326q0 219 159 361q137 122 318 122q129 0 244 -88v58h233zM528 726q-115 0 -187 -92q-54 -69 -54 -179q0 -129 73 -202q71 -71 172 -71q120 0 190 93q53 71 53 181q0 125 -72 200
q-67 70 -175 70zM531 1359q57 0 101 -42q42 -43 42 -101q0 -60 -42 -102q-44 -42 -104 -42q-61 0 -103 42q-43 42 -43 103q0 59 43 101q44 41 106 41z" />
    <glyph glyph-name="uni0237" unicode="&#x237;" horiz-adv-x="471" 
d="M128 908h233v-1096q0 -136 -52 -212q-67 -97 -199 -97q-59 0 -134 23v220q72 -22 107 -22q26 0 35.5 18.5t9.5 69.5v1096z" />
    <glyph glyph-name="uni02BB" unicode="&#x2bb;" horiz-adv-x="530" 
d="M481 1418l-196 -545l-211 77l239 535z" />
    <glyph glyph-name="afii57929" unicode="&#x2bc;" horiz-adv-x="602" 
d="M96 939l197 548l214 -78l-240 -538z" />
    <glyph glyph-name="circumflex" unicode="&#x2c6;" horiz-adv-x="975" 
d="M668 1007l-181 181l-181 -181l-177 88l283 310h151l282 -310z" />
    <glyph glyph-name="caron" unicode="&#x2c7;" horiz-adv-x="975" 
d="M306 1425l181 -181l181 181l177 -88l-282 -310h-151l-283 310z" />
    <glyph glyph-name="uni02C9" unicode="&#x2c9;" horiz-adv-x="975" 
d="M168 1104v210h639v-210h-639z" />
    <glyph glyph-name="breve" unicode="&#x2d8;" horiz-adv-x="975" 
d="M176 1361l203 16q0 -7 0.5 -16.5t1 -15.5t0.5 -10q1 -57 28 -88q29 -33 74 -33q59 0 91 57q11 21 23 106l203 -17q-11 -94 -17 -115q-8 -29 -28 -66q-90 -164 -271 -164q-118 0 -202 72q-96 83 -103 200q-1 21 -3 74z" />
    <glyph glyph-name="dotaccent" unicode="&#x2d9;" horiz-adv-x="975" 
d="M489 1359q59 0 102 -42q42 -43 42 -101q0 -60 -42 -102q-43 -42 -104 -42t-103 42q-43 42 -43 103q0 59 43 101q44 41 105 41z" />
    <glyph glyph-name="ring" unicode="&#x2da;" horiz-adv-x="975" 
d="M486 1429q94 0 159 -64q65 -63 65 -155q0 -90 -65 -155q-65 -64 -157 -64q-94 0 -158 64q-66 65 -66 158q0 87 66 152q65 64 156 64zM487 1316q-44 0 -75 -31t-31 -76q0 -43 31.5 -74t74.5 -31q44 0 75 31t31 75t-31 75t-75 31z" />
    <glyph glyph-name="ogonek" unicode="&#x2db;" horiz-adv-x="975" 
d="M674 0h233q-74 -95 -74 -132q0 -18 27 -18q34 0 100 25l70 -176q-90 -32 -109 -37q-28 -7 -72 -7q-98 0 -163 56t-65 141q0 66 53 148z" />
    <glyph glyph-name="tilde" unicode="&#x2dc;" horiz-adv-x="975" 
d="M614 1361l195 -46q-7 -83 -21 -120q-22 -58 -70 -91t-112 -33q-65 0 -155 43q-54 25 -66 25q-9 0 -14 -8q-1 0 -14 -72l-191 45q11 91 29 129q55 115 177 115q51 0 159 -47q48 -22 62 -22q10 0 13 10q4 13 8 72z" />
    <glyph glyph-name="hungarumlaut" unicode="&#x2dd;" horiz-adv-x="975" 
d="M649 1327l-321 -323l-131 92l251 345zM495 1089l256 352l196 -120l-315 -317z" />
    <glyph glyph-name="uni0309" unicode="&#x309;" horiz-adv-x="975" 
d="M653 1436h-210q1 65 8 90q4 20 28 53l20 28q19 28 19 35q0 13 -23 13q-27 0 -102 -25l-70 176q84 31 109 37q29 7 77 7q101 0 162 -49t61 -129q0 -60 -38 -121l-32 -49q-9 -14 -9 -45v-21z" />
    <glyph glyph-name="uni0323" unicode="&#x323;" horiz-adv-x="975" 
d="M490 -85q58 0 101 -43q42 -42 42 -100q0 -60 -42 -102q-43 -42 -104 -42t-103 42q-43 42 -43 103q0 60 43 100q44 42 106 42z" />
    <glyph glyph-name="uni037E" unicode="&#x37e;" horiz-adv-x="521" 
d="M28 -295l197 547l214 -77l-240 -538zM298 880q58 0 102 -42q42 -44 42 -101q0 -60 -42 -102q-44 -42 -104 -42q-61 0 -103 42q-43 42 -43 103q0 59 43 101q44 41 105 41z" />
    <glyph glyph-name="uni0387" unicode="&#x387;" horiz-adv-x="513" 
d="M259 826q59 0 102 -42q42 -44 42 -101q0 -60 -42 -102q-43 -42 -104 -42t-103 42q-43 42 -43 103q0 59 43 101q44 41 105 41z" />
    <glyph glyph-name="uni1E1E" unicode="&#x1e1e;" horiz-adv-x="914" 
d="M860 1365v-224h-475v-337h433v-225h-433v-579h-242v1365h717zM503 1763q59 0 102 -42q42 -43 42 -101q0 -60 -42 -102q-43 -42 -104 -42t-103 42q-43 42 -43 103q0 59 43 101q44 41 105 41z" />
    <glyph glyph-name="uni1E1F" unicode="&#x1e1f;" horiz-adv-x="539" 
d="M363 1072v-164h155v-210h-155v-698h-233v698h-86v210h86v164q0 151 65.5 230.5t189.5 79.5q55 0 131 -17v-210q-54 16 -82 16q-39 0 -55 -22t-16 -77zM335 1753q59 0 102 -42q42 -43 42 -101q0 -60 -42 -102q-44 -42 -104 -42q-61 0 -103 42q-43 42 -43 103q0 59 43 101
q44 41 105 41z" />
    <glyph glyph-name="Wgrave" unicode="&#x1e80;" horiz-adv-x="1795" 
d="M904 1415l-315 316l221 119l251 -346zM-7 1365h253l264 -942l286 942h203l286 -942l264 942h252l-406 -1365h-222l-276 901l-276 -901h-222z" />
    <glyph glyph-name="wgrave" unicode="&#x1e81;" horiz-adv-x="1356" 
d="M672 1005l-315 317l220 118l251 -345zM-19 908h251l169 -522l185 522h185l185 -522l170 522h250l-330 -908h-184l-184 515l-183 -515h-184z" />
    <glyph glyph-name="Wacute" unicode="&#x1e82;" horiz-adv-x="1795" 
d="M998 1850l221 -119l-315 -316l-157 89zM-7 1365h253l264 -942l286 942h203l286 -942l264 942h252l-406 -1365h-222l-276 901l-276 -901h-222z" />
    <glyph glyph-name="wacute" unicode="&#x1e83;" horiz-adv-x="1362" 
d="M718 1440l221 -118l-315 -317l-157 90zM-19 908h251l169 -522l185 522h185l185 -522l170 522h250l-330 -908h-184l-184 515l-183 -515h-184z" />
    <glyph glyph-name="Wdieresis" unicode="&#x1e84;" horiz-adv-x="1795" 
d="M-7 1365h253l264 -942l286 942h203l286 -942l264 942h252l-406 -1365h-222l-276 901l-276 -901h-222zM711 1763q59 0 102 -42q42 -43 42 -101q0 -60 -42 -102q-43 -42 -104 -42t-103 42q-43 42 -43 103q0 59 43 101q44 41 105 41zM1088 1763q58 0 102 -42q42 -43 42 -101
q0 -60 -42 -102q-44 -42 -104 -42q-61 0 -103 42q-43 42 -43 103q0 59 43 101q44 41 105 41z" />
    <glyph glyph-name="wdieresis" unicode="&#x1e85;" horiz-adv-x="1356" 
d="M-19 908h251l169 -522l185 522h185l185 -522l170 522h250l-330 -908h-184l-184 515l-183 -515h-184zM492 1359q58 0 102 -42q42 -43 42 -101q0 -60 -42 -102q-44 -42 -104 -42q-61 0 -103 42q-43 42 -43 103q0 59 43 101q44 41 105 41zM869 1359q59 0 102 -42
q42 -44 42 -101q0 -60 -42 -102q-43 -42 -104 -42t-103 42q-43 42 -43 103q0 59 43 101q44 41 105 41z" />
    <glyph glyph-name="uni1EA0" unicode="&#x1ea0;" horiz-adv-x="1303" 
d="M1053 0l-121 335h-563l-121 -335h-255l510 1365h297l509 -1365h-256zM451 560h399l-200 549zM654 -85q58 0 101 -43q42 -42 42 -100q0 -60 -42 -102q-43 -42 -104 -42t-103 42q-43 42 -43 103q0 60 43 100q44 42 106 42z" />
    <glyph glyph-name="uni1EA1" unicode="&#x1ea1;" horiz-adv-x="1113" 
d="M1005 908v-908h-233v58q-115 -88 -244 -88q-212 0 -354 159q-123 137 -123 326q0 219 159 361q137 122 318 122q129 0 244 -88v58h233zM528 726q-115 0 -187 -92q-54 -69 -54 -179q0 -129 73 -202q71 -71 172 -71q120 0 190 93q53 71 53 181q0 125 -72 200
q-67 70 -175 70zM555 -85q58 0 101 -43q42 -42 42 -100q0 -60 -42 -102q-44 -42 -104 -42q-61 0 -103 42q-43 42 -43 103q0 60 43 100q43 42 106 42z" />
    <glyph glyph-name="uni1EA2" unicode="&#x1ea2;" horiz-adv-x="1303" 
d="M771 1436h-211q3 68 9 90q4 20 28 53l19 28q19 29 19 35q0 13 -23 13q-27 0 -102 -25l-69 176q82 31 109 37q29 7 76 7q101 0 162 -49t61 -129q0 -62 -38 -121l-31 -49q-9 -14 -9 -45v-21zM1053 0l-121 335h-563l-121 -335h-255l510 1365h297l509 -1365h-256zM451 560
h399l-200 549z" />
    <glyph glyph-name="uni1EA3" unicode="&#x1ea3;" horiz-adv-x="1113" 
d="M1005 908v-908h-233v58q-115 -88 -244 -88q-212 0 -354 159q-123 137 -123 326q0 219 159 361q137 122 318 122q129 0 244 -88v58h233zM528 726q-115 0 -187 -92q-54 -69 -54 -179q0 -129 73 -202q71 -71 172 -71q120 0 190 93q53 71 53 181q0 125 -72 200
q-67 70 -175 70zM654 1015h-210q1 65 8 90q4 20 28 53l19 28q20 31 20 35q0 13 -23 13q-24 0 -102 -26l-70 177q75 28 110 37q27 7 76 7q101 0 162 -49t61 -129q0 -61 -39 -121l-31 -49q-9 -13 -9 -45v-21z" />
    <glyph glyph-name="uni1EA4" unicode="&#x1ea4;" horiz-adv-x="1303" 
d="M1184 1844l-253 -254l78 -85l-177 -88l-181 181l-181 -181l-177 88l283 310h151l72 -79l165 227zM1053 0l-121 335h-563l-121 -335h-255l510 1365h297l509 -1365h-256zM451 560h399l-200 549z" />
    <glyph glyph-name="uni1EA5" unicode="&#x1ea5;" horiz-adv-x="1113" 
d="M811 1215l-136 78l211 -232l-177 -88l-181 181l-181 -181l-177 88l283 310h151l55 -60l247 339l220 -118zM1005 908v-908h-233v58q-115 -88 -244 -88q-212 0 -354 159q-123 137 -123 326q0 219 159 361q137 122 318 122q129 0 244 -88v58h233zM528 726q-115 0 -187 -92
q-54 -69 -54 -179q0 -129 73 -202q71 -71 172 -71q120 0 190 93q53 71 53 181q0 125 -72 200q-67 70 -175 70z" />
    <glyph glyph-name="uni1EA6" unicode="&#x1ea6;" horiz-adv-x="1303" 
d="M1053 0l-121 335h-563l-121 -335h-255l510 1365h297l509 -1365h-256zM451 560h399l-200 549zM1061 1528l-315 316l221 119l251 -346zM832 1417l-181 181l-181 -181l-177 88l283 310h151l282 -310z" />
    <glyph glyph-name="uni1EA7" unicode="&#x1ea7;" horiz-adv-x="1113" 
d="M1005 908v-908h-233v58q-115 -88 -244 -88q-212 0 -354 159q-123 137 -123 326q0 219 159 361q137 122 318 122q129 0 244 -88v58h233zM528 726q-115 0 -187 -92q-54 -69 -54 -179q0 -129 73 -202q71 -71 172 -71q120 0 190 93q53 71 53 181q0 125 -72 200
q-67 70 -175 70zM798 1215l-315 316l221 119l251 -346zM709 973l-181 181l-181 -181l-177 88l283 310h151l282 -310z" />
    <glyph glyph-name="uni1EA8" unicode="&#x1ea8;" horiz-adv-x="1303" 
d="M1053 0l-121 335h-563l-121 -335h-255l510 1365h297l509 -1365h-256zM451 560h399l-200 549zM1080 1537h-100l29 -32l-177 -89l-181 182l-181 -182l-177 89l283 310h151l156 -172q9 19 22 38l20 28q19 29 19 35q0 13 -23 13q-24 0 -102 -26l-70 176q115 45 186 45
q101 0 162 -49t61 -129q0 -61 -38 -122l-32 -49q-9 -15 -9 -45q0 -11 1 -21z" />
    <glyph glyph-name="uni1EA9" unicode="&#x1ea9;" horiz-adv-x="1113" 
d="M1005 908v-908h-233v58q-115 -88 -244 -88q-212 0 -354 159q-123 137 -123 326q0 219 159 361q137 122 318 122q129 0 244 -88v58h233zM528 726q-115 0 -187 -92q-54 -69 -54 -179q0 -129 73 -202q71 -71 172 -71q120 0 190 93q53 71 53 181q0 125 -72 200
q-67 70 -175 70zM604 1371l83 -91q5 45 34 88l20 28q19 29 19 35q0 13 -23 13q-24 0 -102 -26l-70 177q75 28 110 37q28 7 76 7q101 0 162 -49t61 -129q0 -60 -38 -121l-32 -49q-9 -13 -9 -45v-21h-158l149 -163l-177 -89l-181 181l-181 -181l-177 89l283 309h151z" />
    <glyph glyph-name="uni1EAA" unicode="&#x1eaa;" horiz-adv-x="1303" 
d="M1053 0l-121 335h-563l-121 -335h-255l510 1365h297l509 -1365h-256zM451 560h399l-200 549zM832 1382l-181 181l-181 -181l-177 88l283 310h151l282 -310zM777 2089l196 -46q-7 -83 -21 -120q-22 -58 -70.5 -91t-111.5 -33q-64 0 -156 43q-53 25 -66 25q-9 0 -14 -8
q-4 -24 -13 -72l-191 45q9 87 29 129q55 115 177 115q50 0 158 -47q48 -22 63 -22q10 0 13 11q4 26 7 71z" />
    <glyph glyph-name="uni1EAB" unicode="&#x1eab;" horiz-adv-x="1113" 
d="M1005 908v-908h-233v58q-115 -88 -244 -88q-212 0 -354 159q-123 137 -123 326q0 219 159 361q137 122 318 122q129 0 244 -88v58h233zM528 726q-115 0 -187 -92q-54 -69 -54 -179q0 -129 73 -202q71 -71 172 -71q120 0 190 93q53 71 53 181q0 125 -72 200
q-67 70 -175 70zM709 973l-181 181l-182 -181l-176 88l282 310h151l283 -310zM653 1699l196 -46q-7 -83 -21 -120q-22 -58 -70.5 -91t-111.5 -33q-65 0 -155 43q-54 25 -67 25q-9 0 -14 -8q-4 -24 -13 -72l-191 45q11 91 29 129q55 115 177 115q52 0 158 -47q48 -22 63 -22
q10 0 13 10q4 25 7 72z" />
    <glyph glyph-name="uni1EAC" unicode="&#x1eac;" horiz-adv-x="1303" 
d="M1053 0l-121 335h-563l-121 -335h-255l510 1365h297l509 -1365h-256zM451 560h399l-200 549zM832 1417l-181 181l-181 -181l-177 88l283 310h151l282 -310zM654 -85q58 0 101 -43q42 -42 42 -100q0 -60 -42 -102q-43 -42 -104 -42t-103 42q-43 42 -43 103q0 60 43 100
q44 42 106 42z" />
    <glyph glyph-name="uni1EAD" unicode="&#x1ead;" horiz-adv-x="1113" 
d="M1005 908v-908h-233v58q-115 -88 -244 -88q-212 0 -354 159q-123 137 -123 326q0 219 159 361q137 122 318 122q129 0 244 -88v58h233zM528 726q-115 0 -187 -92q-54 -69 -54 -179q0 -129 73 -202q71 -71 172 -71q120 0 190 93q53 71 53 181q0 125 -72 200
q-67 70 -175 70zM531 -85q58 0 101 -43q42 -42 42 -100q0 -60 -42 -102q-44 -42 -104 -42q-61 0 -103 42q-43 42 -43 103q0 60 43 100q44 42 106 42zM709 1007l-181 181l-182 -181l-176 88l282 310h151l283 -310z" />
    <glyph glyph-name="uni1EAE" unicode="&#x1eae;" horiz-adv-x="1303" 
d="M651 1669l-106 60q1 -5 1 -12q6 -122 102 -122q60 0 91 57q11 21 23 106l203 -17q-11 -92 -16 -115q-8 -30 -29 -66q-90 -164 -271 -164q-119 0 -201 72q-96 83 -104 199q-1 21 -3 74l160 14l-7 4l251 345l221 -118zM1053 0l-121 335h-563l-121 -335h-255l510 1365h297
l509 -1365h-256zM451 560h399l-200 549z" />
    <glyph glyph-name="uni1EAF" unicode="&#x1eaf;" horiz-adv-x="1113" 
d="M636 1718l221 -118l-315 -317l-157 90zM1005 908v-908h-233v58q-115 -88 -244 -88q-212 0 -354 159q-123 137 -123 326q0 219 159 361q137 122 318 122q129 0 244 -88v58h233zM528 726q-115 0 -187 -92q-54 -69 -54 -179q0 -129 73 -202q71 -71 172 -71q120 0 190 93
q53 71 53 181q0 125 -72 200q-67 70 -175 70zM221 1326l203 17q0 -7 0.5 -16.5t1 -15.5t0.5 -10q1 -57 28 -88q28 -33 74 -33q60 0 91 57q11 21 23 106l202 -17q-9 -92 -16 -116q-8 -30 -28 -65q-92 -164 -271 -164q-118 0 -202 72q-97 83 -104 199q0 6 -0.5 16.5t-1 27.5
t-0.5 30z" />
    <glyph glyph-name="uni1EB0" unicode="&#x1eb0;" horiz-adv-x="1303" 
d="M759 1736l-117 -67l-315 317l220 118l251 -345l-6 -4l173 -14q-11 -92 -16 -115q-8 -30 -29 -66q-90 -164 -271 -164q-119 0 -201 72q-96 83 -104 199q-1 21 -3 74l203 17q0 -7 0.5 -16.5t1 -15.5t0.5 -10q3 -59 28 -88q28 -33 74 -33q60 0 91 57q11 21 20 84zM1053 0
l-121 335h-563l-121 -335h-255l510 1365h297l509 -1365h-256zM451 560h399l-200 549z" />
    <glyph glyph-name="uni1EB1" unicode="&#x1eb1;" horiz-adv-x="1113" 
d="M515 1283l-316 317l221 118l251 -345zM1005 908v-908h-233v58q-115 -88 -244 -88q-212 0 -354 159q-123 137 -123 326q0 219 159 361q137 122 318 122q129 0 244 -88v58h233zM528 726q-115 0 -187 -92q-54 -69 -54 -179q0 -129 73 -202q71 -71 172 -71q120 0 190 93
q53 71 53 181q0 125 -72 200q-67 70 -175 70zM221 1326l203 17q0 -7 0.5 -16.5t1 -15.5t0.5 -10q1 -57 28 -88q28 -33 74 -33q60 0 91 57q11 21 23 106l202 -17q-9 -92 -16 -116q-8 -30 -28 -65q-92 -164 -271 -164q-118 0 -202 72q-97 83 -104 199q0 6 -0.5 16.5t-1 27.5
t-0.5 30z" />
    <glyph glyph-name="uni1EB2" unicode="&#x1eb2;" horiz-adv-x="1303" 
d="M746 1721h-199q3 -55 29 -84.5t72 -29.5q60 0 91 57q11 21 23 106l203 -17q-11 -92 -16 -115q-8 -30 -29 -66q-90 -164 -271 -164q-119 0 -201 72q-96 83 -104 200q-1 19 -3 74l196 16q5 52 35 94l19 28q19 26 19 35q0 13 -23 13q-24 0 -102 -26l-69 177q75 28 110 37
q27 7 75 7q101 0 162 -49t61 -129q0 -62 -38 -121l-31 -49q-9 -13 -9 -45v-21zM1053 0l-121 335h-563l-121 -335h-255l510 1365h297l509 -1365h-256zM451 560h399l-200 549z" />
    <glyph glyph-name="uni1EB3" unicode="&#x1eb3;" horiz-adv-x="1113" 
d="M1005 908v-908h-233v58q-115 -88 -244 -88q-212 0 -354 159q-123 137 -123 326q0 219 159 361q137 122 318 122q129 0 244 -88v58h233zM528 726q-115 0 -187 -92q-54 -69 -54 -179q0 -129 73 -202q71 -71 172 -71q120 0 190 93q53 71 53 181q0 125 -72 200
q-67 70 -175 70zM221 1326l203 17q0 -7 0.5 -16.5t1 -15.5t0.5 -10q1 -57 28 -88q28 -33 74 -33q60 0 91 57q11 21 23 106l202 -17q-9 -92 -16 -116q-8 -30 -28 -65q-92 -164 -271 -164q-118 0 -202 72q-97 83 -104 199q0 6 -0.5 16.5t-1 27.5t-0.5 30zM626 1361h-211
q3 67 9 90q5 22 27 53l20 28q19 29 19 35q0 13 -23 13q-24 0 -102 -26l-70 177q77 29 109 36q34 8 77 8q101 0 162 -49t61 -129q0 -62 -38 -121l-32 -49q-9 -15 -9 -45q0 -11 1 -21z" />
    <glyph glyph-name="uni1EB4" unicode="&#x1eb4;" horiz-adv-x="1303" 
d="M1053 0l-121 335h-563l-121 -335h-255l510 1365h297l509 -1365h-256zM451 560h399l-200 549zM339 1753l203 17q2 -38 2 -42q3 -57 29 -88q28 -33 73 -33q60 0 91 57q11 21 23 106l203 -17q-11 -92 -16 -115q-8 -30 -29 -66q-90 -164 -271 -164q-119 0 -201 72
q-96 83 -104 199q-1 21 -3 74zM777 2089l196 -46q-7 -83 -21 -120q-22 -58 -70.5 -91t-111.5 -33q-64 0 -156 43q-53 25 -66 25q-9 0 -14 -8q-4 -24 -13 -72l-191 45q9 87 29 129q55 115 177 115q50 0 158 -47q48 -22 63 -22q10 0 13 11q4 26 7 71z" />
    <glyph glyph-name="uni1EB5" unicode="&#x1eb5;" horiz-adv-x="1113" 
d="M1005 908v-908h-233v58q-115 -88 -244 -88q-212 0 -354 159q-123 137 -123 326q0 219 159 361q137 122 318 122q129 0 244 -88v58h233zM528 726q-115 0 -187 -92q-54 -69 -54 -179q0 -129 73 -202q71 -71 172 -71q120 0 190 93q53 71 53 181q0 125 -72 200
q-67 70 -175 70zM654 1699l196 -46q-8 -83 -21 -120q-22 -58 -70.5 -91t-111.5 -33q-64 0 -156 43q-53 25 -66 25q-9 0 -14 -8q-4 -24 -13 -72l-191 45q9 87 29 129q55 115 177 115q52 0 158 -47q48 -22 63 -22q10 0 13 10q4 25 7 72zM216 1344l203 16q2 -38 2 -42
q3 -57 29 -88q29 -33 73 -33q61 0 92 57q10 18 22 106l203 -17q-11 -92 -16 -115q-8 -29 -28 -66q-92 -164 -272 -164q-118 0 -201 72q-96 83 -104 200q-1 19 -3 74z" />
    <glyph glyph-name="uni1EB6" unicode="&#x1eb6;" horiz-adv-x="1303" 
d="M1053 0l-121 335h-563l-121 -335h-255l510 1365h297l509 -1365h-256zM451 560h399l-200 549zM339 1770l203 17q2 -38 2 -42q3 -57 29 -88q28 -33 73 -33q60 0 91 57q11 21 23 106l203 -17q-11 -92 -16 -115q-8 -30 -29 -66q-90 -164 -271 -164q-117 0 -201 72
q-96 83 -104 199q-1 21 -3 74zM654 -85q58 0 101 -43q42 -42 42 -100q0 -60 -42 -102q-43 -42 -104 -42t-103 42q-43 42 -43 103q0 60 43 100q44 42 106 42z" />
    <glyph glyph-name="uni1EB7" unicode="&#x1eb7;" horiz-adv-x="1113" 
d="M1005 908v-908h-233v58q-115 -88 -244 -88q-212 0 -354 159q-123 137 -123 326q0 219 159 361q137 122 318 122q129 0 244 -88v58h233zM528 726q-115 0 -187 -92q-54 -69 -54 -179q0 -129 73 -202q71 -71 172 -71q120 0 190 93q53 71 53 181q0 125 -72 200
q-67 70 -175 70zM531 -85q58 0 101 -43q42 -42 42 -100q0 -60 -42 -102q-44 -42 -104 -42q-61 0 -103 42q-43 42 -43 103q0 60 43 100q44 42 106 42zM216 1361l203 16q2 -38 2 -42q3 -57 29 -88q29 -33 73 -33q61 0 92 57q10 18 22 106l203 -17q-11 -92 -16 -115
q-8 -29 -28 -66q-92 -164 -272 -164q-117 0 -201 72q-96 83 -104 200q-1 21 -3 74z" />
    <glyph glyph-name="uni1EB8" unicode="&#x1eb8;" horiz-adv-x="990" 
d="M905 1365v-224h-520v-337h462v-225h-462v-354h539v-225h-781v1365h762zM564 -85q58 0 101 -43q42 -42 42 -100q0 -60 -42 -102q-43 -42 -104 -42t-103 42q-43 42 -43 103q0 60 43 100q44 42 106 42z" />
    <glyph glyph-name="uni1EB9" unicode="&#x1eb9;" horiz-adv-x="1010" 
d="M959 367h-668q19 -73 58 -115q68 -71 169 -71q120 0 193 75q18 20 46 64l198 -82q-67 -112 -134 -165q-128 -103 -302 -103q-216 0 -351 159q-117 137 -117 326q0 129 59 239q61 117 172 182q106 62 227 62q199 0 325 -141q126 -142 126 -365q0 -35 -1 -65zM291 541h436
q-60 191 -218 191q-82 0 -138.5 -49.5t-79.5 -141.5zM521 -85q59 0 102 -43q42 -42 42 -100q0 -60 -42 -102q-43 -42 -104 -42t-103 42q-43 42 -43 103q0 60 43 100q44 42 105 42z" />
    <glyph glyph-name="uni1EBA" unicode="&#x1eba;" horiz-adv-x="990" 
d="M905 1365v-224h-520v-337h462v-225h-462v-354h539v-225h-781v1365h762zM660 1436h-211q1 65 8 90q4 20 28 53l20 28q19 28 19 35q0 13 -23 13q-27 0 -102 -25l-70 176q84 31 109 37q29 7 77 7q101 0 162 -49t61 -129q0 -60 -38 -121l-32 -49q-9 -14 -9 -45q0 -12 1 -21z
" />
    <glyph glyph-name="uni1EBB" unicode="&#x1ebb;" horiz-adv-x="1010" 
d="M959 367h-668q19 -73 58 -115q68 -71 169 -71q120 0 193 75q18 20 46 64l198 -82q-67 -112 -134 -165q-128 -103 -302 -103q-216 0 -351 159q-117 137 -117 326q0 129 59 239q61 117 172 182q106 62 227 62q199 0 325 -141q126 -142 126 -365q0 -35 -1 -65zM291 541h436
q-60 191 -218 191q-82 0 -138.5 -49.5t-79.5 -141.5zM631 1015h-210q1 65 8 90q4 20 28 53l20 28q19 28 19 35q0 13 -23 13q-24 0 -102 -26l-70 177q75 28 110 37q27 7 76 7q101 0 162 -49t61 -129q0 -60 -38 -121l-32 -49q-9 -13 -9 -45v-21z" />
    <glyph glyph-name="uni1EBC" unicode="&#x1ebc;" horiz-adv-x="990" 
d="M905 1365v-224h-520v-337h462v-225h-462v-354h539v-225h-781v1365h762zM620 1771l196 -46q-8 -83 -21 -120q-22 -58 -70.5 -91t-111.5 -33q-64 0 -156 43q-53 25 -66 25q-9 0 -14 -8q-4 -24 -13 -72l-191 45q9 87 29 129q55 115 177 115q52 0 158 -47q48 -22 63 -22
q10 0 13 10q4 25 7 72z" />
    <glyph glyph-name="uni1EBD" unicode="&#x1ebd;" horiz-adv-x="1010" 
d="M959 367h-668q19 -73 58 -115q68 -71 169 -71q120 0 193 75q18 20 46 64l198 -82q-67 -112 -134 -165q-128 -103 -302 -103q-216 0 -351 159q-117 137 -117 326q0 129 59 239q61 117 172 182q106 62 227 62q199 0 325 -141q126 -142 126 -365q0 -35 -1 -65zM291 541h436
q-60 191 -218 191q-82 0 -138.5 -49.5t-79.5 -141.5zM632 1361l195 -46q-7 -83 -21 -120q-22 -58 -70.5 -91t-111.5 -33q-65 0 -155 43q-54 25 -66 25q-10 0 -15 -8q-4 -24 -13 -72l-191 45q11 91 29 129q55 115 177 115q52 0 158 -47q48 -22 63 -22q10 0 13 10q3 22 8 72z
" />
    <glyph glyph-name="uni1EBE" unicode="&#x1ebe;" horiz-adv-x="990" 
d="M1044 1844l-253 -254l78 -85l-177 -88l-181 181l-181 -181l-177 88l283 310h151l72 -79l164 227zM905 1365v-224h-520v-337h462v-225h-462v-354h539v-225h-781v1365h762z" />
    <glyph glyph-name="uni1EBF" unicode="&#x1ebf;" horiz-adv-x="1010" 
d="M584 1371l55 -60l247 339l221 -118l-315 -317l-137 78l212 -232l-177 -88l-181 181l-182 -181l-176 88l282 310h151zM959 367h-668q19 -73 58 -115q68 -71 169 -71q120 0 193 75q18 20 46 64l198 -82q-67 -112 -134 -165q-128 -103 -302 -103q-216 0 -351 159
q-117 137 -117 326q0 129 59 239q61 117 172 182q106 62 227 62q199 0 325 -141q126 -142 126 -365q0 -35 -1 -65zM291 541h436q-60 191 -218 191q-82 0 -138.5 -49.5t-79.5 -141.5z" />
    <glyph glyph-name="uni1EC0" unicode="&#x1ec0;" horiz-adv-x="990" 
d="M905 1365v-224h-520v-337h462v-225h-462v-354h539v-225h-781v1365h762zM921 1528l-315 316l220 119l252 -346zM692 1417l-181 181l-181 -181l-177 88l282 310h151l283 -310z" />
    <glyph glyph-name="uni1EC1" unicode="&#x1ec1;" horiz-adv-x="1010" 
d="M959 367h-668q19 -73 58 -115q68 -71 169 -71q120 0 193 75q18 20 46 64l198 -82q-67 -112 -134 -165q-128 -103 -302 -103q-216 0 -351 159q-117 137 -117 326q0 129 59 239q61 117 172 182q106 62 227 62q199 0 325 -141q126 -142 126 -365q0 -35 -1 -65zM291 541h436
q-60 191 -218 191q-82 0 -138.5 -49.5t-79.5 -141.5zM779 1215l-315 316l220 119l251 -346zM690 973l-181 181l-182 -181l-176 88l282 310h151l283 -310z" />
    <glyph glyph-name="uni1EC2" unicode="&#x1ec2;" horiz-adv-x="990" 
d="M905 1365v-224h-520v-337h462v-225h-462v-354h539v-225h-781v1365h762zM940 1537h-100l29 -32l-177 -89l-181 182l-181 -182l-177 89l283 310h151l156 -172q9 19 22 38l20 28q19 26 19 35q0 13 -23 13q-24 0 -102 -26l-70 176q115 45 186 45q101 0 162 -49t61 -129
q0 -61 -38 -122l-32 -49q-9 -13 -9 -45q0 -11 1 -21z" />
    <glyph glyph-name="uni1EC3" unicode="&#x1ec3;" horiz-adv-x="1010" 
d="M959 367h-668q19 -73 58 -115q68 -71 169 -71q120 0 193 75q18 20 46 64l198 -82q-67 -112 -134 -165q-128 -103 -302 -103q-216 0 -351 159q-117 137 -117 326q0 129 59 239q61 117 172 182q106 62 227 62q199 0 325 -141q126 -142 126 -365q0 -35 -1 -65zM291 541h436
q-60 191 -218 191q-82 0 -138.5 -49.5t-79.5 -141.5zM584 1371l84 -91q5 45 34 88l19 28q19 29 19 35q0 13 -23 13q-24 0 -102 -26l-69 177q75 28 110 37q27 7 75 7q101 0 162 -49t61 -129q0 -62 -38 -121l-31 -49q-9 -13 -9 -45v-21h-158l149 -163l-177 -89l-181 181
l-182 -181l-176 89l282 309h151z" />
    <glyph glyph-name="uni1EC4" unicode="&#x1ec4;" horiz-adv-x="990" 
d="M905 1365v-224h-520v-337h462v-225h-462v-354h539v-225h-781v1365h762zM692 1382l-181 181l-181 -181l-177 88l283 310h151l282 -310zM637 2089l195 -46q-8 -83 -21 -120q-21 -58 -69.5 -91t-111.5 -33q-64 0 -156 43q-53 25 -66 25q-9 0 -14 -8q-4 -24 -13 -72l-192 45
q11 88 30 129q55 115 176 115q51 0 159 -47q48 -22 63 -22q10 0 13 11q4 26 7 71z" />
    <glyph glyph-name="uni1EC5" unicode="&#x1ec5;" horiz-adv-x="1010" 
d="M959 367h-668q19 -73 58 -115q68 -71 169 -71q120 0 193 75q18 20 46 64l198 -82q-67 -112 -134 -165q-128 -103 -302 -103q-216 0 -351 159q-117 137 -117 326q0 129 59 239q61 117 172 182q106 62 227 62q199 0 325 -141q126 -142 126 -365q0 -35 -1 -65zM291 541h436
q-60 191 -218 191q-82 0 -138.5 -49.5t-79.5 -141.5zM690 973l-181 181l-182 -181l-176 88l282 310h151l283 -310zM634 1699l196 -46q-8 -83 -21 -120q-22 -58 -70.5 -91t-111.5 -33q-65 0 -155 43q-54 25 -67 25q-9 0 -14 -8q-4 -24 -13 -72l-191 45q11 91 29 129
q55 115 177 115q52 0 158 -47q48 -22 63 -22q10 0 13 10q4 25 7 72z" />
    <glyph glyph-name="uni1EC6" unicode="&#x1ec6;" horiz-adv-x="990" 
d="M905 1365v-224h-520v-337h462v-225h-462v-354h539v-225h-781v1365h762zM716 1417l-181 181l-181 -181l-177 88l282 310h151l283 -310zM564 -85q58 0 101 -43q42 -42 42 -100q0 -60 -42 -102q-43 -42 -104 -42t-103 42q-43 42 -43 103q0 60 43 100q44 42 106 42z" />
    <glyph glyph-name="uni1EC7" unicode="&#x1ec7;" horiz-adv-x="1010" 
d="M959 367h-668q19 -73 58 -115q68 -71 169 -71q120 0 193 75q18 20 46 64l198 -82q-67 -112 -134 -165q-128 -103 -302 -103q-216 0 -351 159q-117 137 -117 326q0 129 59 239q61 117 172 182q106 62 227 62q199 0 325 -141q126 -142 126 -365q0 -35 -1 -65zM291 541h436
q-60 191 -218 191q-82 0 -138.5 -49.5t-79.5 -141.5zM521 -85q58 0 101 -43q42 -42 42 -100q0 -60 -42 -102q-44 -42 -104 -42q-61 0 -103 42q-43 42 -43 103q0 60 43 100q43 42 106 42zM700 1007l-181 181l-182 -181l-177 88l283 310h151l283 -310z" />
    <glyph glyph-name="uni1EC8" unicode="&#x1ec8;" horiz-adv-x="529" 
d="M143 1365h242v-1365h-242v1365zM391 1436h-211q1 65 8 90q4 20 28 53l20 28q19 28 19 35q0 13 -23 13q-27 0 -102 -25l-70 176q75 28 108 36q35 8 78 8q101 0 162 -49t61 -129q0 -60 -38 -121l-32 -49q-9 -14 -9 -45q0 -12 1 -21z" />
    <glyph glyph-name="uni1EC9" unicode="&#x1ec9;" horiz-adv-x="452" 
d="M110 908h233v-908h-233v908zM352 1015h-210q1 65 8 90q4 20 28 53l20 28q19 28 19 35q0 13 -23 13q-24 0 -102 -26l-70 177q75 28 110 37q27 7 76 7q101 0 162 -49t61 -129q0 -60 -38 -121l-32 -49q-9 -13 -9 -45v-21z" />
    <glyph glyph-name="uni1ECA" unicode="&#x1eca;" horiz-adv-x="529" 
d="M144 1365h242v-1365h-242v1365zM268 -85q58 0 101 -43q42 -42 42 -100q0 -60 -42 -102q-43 -42 -104 -42t-103 42q-43 42 -43 103q0 60 43 100q43 42 106 42z" />
    <glyph glyph-name="uni1ECB" unicode="&#x1ecb;" horiz-adv-x="452" 
d="M109 908h233v-908h-233v908zM228 1359q58 0 102 -42q42 -43 42 -101q0 -60 -42 -102q-44 -42 -104 -42q-61 0 -103 42q-43 42 -43 103q0 59 43 101q44 41 105 41zM229 -85q58 0 101 -43q42 -42 42 -100q0 -60 -42 -102q-44 -42 -104 -42q-61 0 -103 42q-43 42 -43 103
q0 60 43 100q43 42 106 42z" />
    <glyph glyph-name="uni1ECC" unicode="&#x1ecc;" horiz-adv-x="1560" 
d="M780 1395q190 0 353 -95q168 -97 265 -262q97 -164 97 -356q0 -190 -98 -357q-94 -160 -253 -254q-172 -101 -369 -101q-186 0 -358 101q-161 95 -254 254q-97 167 -97 368q0 185 97 345q105 171 265 262q166 95 352 95zM777 1166q-214 0 -355 -172q-110 -134 -110 -320
q0 -120 58 -226q62 -113 172 -180q112 -69 238 -69t239 69q110 67 172 180q58 107 58 234q0 206 -144 350q-136 134 -328 134zM783 -85q58 0 101 -43q42 -42 42 -100q0 -60 -42 -102q-44 -42 -104 -42q-61 0 -103 42q-43 42 -43 103q0 60 43 100q43 42 106 42z" />
    <glyph glyph-name="uni1ECD" unicode="&#x1ecd;" horiz-adv-x="1066" 
d="M542 938q208 0 351 -158q123 -136 123 -325q0 -221 -159 -363q-136 -122 -323 -122q-218 0 -361 158q-122 137 -122 330q0 216 159 358q136 122 332 122zM529 726q-116 0 -188 -92q-54 -70 -54 -179q0 -129 73 -202q71 -71 174 -71q122 0 192 93q54 71 54 180
q0 128 -73 201q-69 70 -178 70zM537 -85q58 0 101 -43q42 -42 42 -100q0 -60 -42 -102q-44 -42 -104 -42q-61 0 -103 42q-43 42 -43 103q0 60 43 100q43 42 106 42z" />
    <glyph glyph-name="uni1ECE" unicode="&#x1ece;" horiz-adv-x="1560" 
d="M780 1395q190 0 353 -95q168 -97 265 -262q97 -164 97 -356q0 -190 -98 -357q-94 -160 -253 -254q-172 -101 -369 -101q-186 0 -358 101q-161 95 -254 254q-97 167 -97 368q0 185 97 345q105 171 265 262q166 95 352 95zM777 1166q-214 0 -355 -172q-110 -134 -110 -320
q0 -120 58 -226q62 -113 172 -180q112 -69 238 -69t239 69q110 67 172 180q58 107 58 234q0 206 -144 350q-136 134 -328 134zM906 1436h-210q1 65 8 90q4 20 28 53l20 28q19 29 19 35q0 13 -23 13q-27 0 -102 -25l-70 176q84 31 109 37q29 7 77 7q101 0 162 -49t61 -129
q0 -60 -38 -121l-32 -49q-9 -14 -9 -45v-21z" />
    <glyph glyph-name="uni1ECF" unicode="&#x1ecf;" horiz-adv-x="1066" 
d="M542 938q208 0 351 -158q123 -136 123 -325q0 -221 -159 -363q-136 -122 -323 -122q-218 0 -361 158q-122 137 -122 330q0 216 159 358q136 122 332 122zM529 726q-116 0 -188 -92q-54 -70 -54 -179q0 -129 73 -202q71 -71 174 -71q122 0 192 93q54 71 54 180
q0 128 -73 201q-69 70 -178 70zM660 1015h-211q3 64 8 90q4 20 28 53l20 28q19 26 19 35q0 13 -23 13q-24 0 -102 -26l-70 177q77 28 111 37q27 7 75 7q101 0 162 -49t61 -129q0 -60 -38 -121l-32 -49q-9 -15 -9 -45q0 -12 1 -21z" />
    <glyph glyph-name="uni1ED0" unicode="&#x1ed0;" horiz-adv-x="1560" 
d="M1314 1844l-253 -254l77 -85l-176 -88l-182 171l-181 -171l-177 88l283 310h151l72 -79l165 227zM780 1395q190 0 353 -95q168 -97 265 -262q97 -164 97 -356q0 -190 -98 -357q-94 -160 -253 -254q-172 -101 -369 -101q-186 0 -358 101q-161 95 -254 254q-97 167 -97 368
q0 185 97 345q105 171 265 262q166 95 352 95zM777 1166q-214 0 -355 -172q-110 -134 -110 -320q0 -120 58 -226q62 -113 172 -180q112 -69 238 -69t239 69q110 67 172 180q58 107 58 234q0 206 -144 350q-136 134 -328 134z" />
    <glyph glyph-name="uni1ED1" unicode="&#x1ed1;" horiz-adv-x="1066" 
d="M609 1371l55 -60l247 339l221 -118l-315 -317l-137 78l212 -232l-177 -88l-181 181l-182 -181l-176 88l282 310h151zM542 938q208 0 351 -158q123 -136 123 -325q0 -221 -159 -363q-136 -122 -323 -122q-218 0 -361 158q-122 137 -122 330q0 216 159 358q136 122 332 122
zM529 726q-116 0 -188 -92q-54 -70 -54 -179q0 -129 73 -202q71 -71 174 -71q122 0 192 93q54 71 54 180q0 128 -73 201q-69 70 -178 70z" />
    <glyph glyph-name="uni1ED2" unicode="&#x1ed2;" horiz-adv-x="1560" 
d="M1190 1528l-315 316l221 119l251 -346zM962 1417l-182 181l-181 -181l-177 88l283 310h151l282 -310zM780 1395q190 0 353 -95q168 -97 265 -262q97 -164 97 -356q0 -190 -98 -357q-94 -160 -253 -254q-172 -101 -369 -101q-186 0 -358 101q-161 95 -254 254
q-97 167 -97 368q0 185 97 345q105 171 265 262q166 95 352 95zM777 1166q-214 0 -355 -172q-110 -134 -110 -320q0 -120 58 -226q62 -113 172 -180q112 -69 238 -69t239 69q110 67 172 180q58 107 58 234q0 206 -144 350q-136 134 -328 134z" />
    <glyph glyph-name="uni1ED3" unicode="&#x1ed3;" horiz-adv-x="1066" 
d="M804 1215l-315 316l220 119l251 -346zM715 973l-181 181l-182 -181l-176 88l282 310h151l283 -310zM542 938q208 0 351 -158q123 -136 123 -325q0 -221 -159 -363q-136 -122 -323 -122q-218 0 -361 158q-122 137 -122 330q0 216 159 358q136 122 332 122zM529 726
q-116 0 -188 -92q-54 -70 -54 -179q0 -129 73 -202q71 -71 174 -71q122 0 192 93q54 71 54 180q0 128 -73 201q-69 70 -178 70z" />
    <glyph glyph-name="uni1ED4" unicode="&#x1ed4;" horiz-adv-x="1560" 
d="M1209 1537h-100l30 -32l-177 -89l-182 182l-181 -182l-177 89l283 310h151l157 -172q9 19 22 38l19 28q20 29 20 35q0 13 -23 13q-24 0 -102 -26l-70 176q114 45 186 45q101 0 162 -49t61 -129q0 -61 -39 -122l-31 -49q-9 -13 -9 -45v-21zM780 1395q190 0 353 -95
q168 -97 265 -262q97 -164 97 -356q0 -190 -98 -357q-94 -160 -253 -254q-172 -101 -369 -101q-186 0 -358 101q-161 95 -254 254q-97 167 -97 368q0 185 97 345q105 171 265 262q166 95 352 95zM777 1166q-214 0 -355 -172q-110 -134 -110 -320q0 -120 58 -226
q62 -113 172 -180q112 -69 238 -69t239 69q110 67 172 180q58 107 58 234q0 206 -144 350q-136 134 -328 134z" />
    <glyph glyph-name="uni1ED5" unicode="&#x1ed5;" horiz-adv-x="1066" 
d="M609 1371l84 -91q5 45 34 88l19 28q19 29 19 35q0 13 -23 13q-24 0 -102 -26l-69 177q75 28 110 37q27 7 75 7q101 0 162 -49t61 -129q0 -62 -38 -121l-31 -49q-9 -13 -9 -66h-158l149 -163l-177 -89l-181 181l-182 -181l-176 89l282 309h151zM542 938q208 0 351 -158
q123 -136 123 -325q0 -221 -159 -363q-136 -122 -323 -122q-218 0 -361 158q-122 137 -122 330q0 216 159 358q136 122 332 122zM529 726q-116 0 -188 -92q-54 -70 -54 -179q0 -129 73 -202q71 -71 174 -71q122 0 192 93q54 71 54 180q0 128 -73 201q-69 70 -178 70z" />
    <glyph glyph-name="uni1ED6" unicode="&#x1ed6;" horiz-adv-x="1560" 
d="M780 1395q190 0 353 -95q168 -97 265 -262q97 -164 97 -356q0 -190 -98 -357q-94 -160 -253 -254q-172 -101 -369 -101q-186 0 -358 101q-161 95 -254 254q-97 167 -97 368q0 185 97 345q105 171 265 262q166 95 352 95zM777 1166q-214 0 -355 -172q-110 -134 -110 -320
q0 -120 58 -226q62 -113 172 -180q112 -69 238 -69t239 69q110 67 172 180q58 107 58 234q0 206 -144 350q-136 134 -328 134zM962 1382l-182 181l-181 -181l-177 88l283 310h151l283 -310zM907 2089l195 -46q-8 -83 -21 -120q-22 -58 -70.5 -91t-111.5 -33q-65 0 -155 43
q-54 25 -66 25q-9 0 -14 -8l-14 -72l-191 45q11 91 29 129q55 115 177 115q52 0 158 -47q48 -22 63 -22q10 0 13 11q4 13 8 71z" />
    <glyph glyph-name="uni1ED7" unicode="&#x1ed7;" horiz-adv-x="1066" 
d="M715 973l-181 181l-182 -181l-176 88l282 310h151l283 -310zM542 938q208 0 351 -158q123 -136 123 -325q0 -221 -159 -363q-136 -122 -323 -122q-218 0 -361 158q-122 137 -122 330q0 216 159 358q136 122 332 122zM529 726q-116 0 -188 -92q-54 -70 -54 -179
q0 -129 73 -202q71 -71 174 -71q122 0 192 93q54 71 54 180q0 128 -73 201q-69 70 -178 70zM659 1699l196 -46q-7 -83 -21 -120q-22 -58 -70.5 -91t-111.5 -33q-65 0 -155 43q-54 25 -67 25q-9 0 -14 -8q-4 -24 -13 -72l-191 45q11 91 29 129q55 115 177 115q52 0 158 -47
q48 -22 63 -22q10 0 13 10q4 25 7 72z" />
    <glyph glyph-name="uni1ED8" unicode="&#x1ed8;" horiz-adv-x="1560" 
d="M962 1417l-182 181l-181 -181l-177 88l283 310h151l282 -310zM780 1395q190 0 353 -95q168 -97 265 -262q97 -164 97 -356q0 -190 -98 -357q-94 -160 -253 -254q-172 -101 -369 -101q-186 0 -358 101q-161 95 -254 254q-97 167 -97 368q0 185 97 345q105 171 265 262
q166 95 352 95zM777 1166q-214 0 -355 -172q-110 -134 -110 -320q0 -120 58 -226q62 -113 172 -180q112 -69 238 -69t239 69q110 67 172 180q58 107 58 234q0 206 -144 350q-136 134 -328 134zM783 -85q58 0 101 -43q42 -42 42 -100q0 -60 -42 -102q-44 -42 -104 -42
q-61 0 -103 42q-43 42 -43 103q0 60 43 100q43 42 106 42z" />
    <glyph glyph-name="uni1ED9" unicode="&#x1ed9;" horiz-adv-x="1066" 
d="M715 1007l-181 181l-182 -181l-176 88l282 310h151l283 -310zM542 938q208 0 351 -158q123 -136 123 -325q0 -221 -159 -363q-136 -122 -323 -122q-218 0 -361 158q-122 137 -122 330q0 216 159 358q136 122 332 122zM529 726q-116 0 -188 -92q-54 -70 -54 -179
q0 -129 73 -202q71 -71 174 -71q122 0 192 93q54 71 54 180q0 128 -73 201q-69 70 -178 70zM537 -85q58 0 101 -43q42 -42 42 -100q0 -60 -42 -102q-44 -42 -104 -42q-61 0 -103 42q-43 42 -43 103q0 60 43 100q43 42 106 42z" />
    <glyph glyph-name="uni1EDA" unicode="&#x1eda;" horiz-adv-x="1581" 
d="M882 1850l220 -119l-315 -316l-157 89zM1265 1203q83 41 83 108q0 45 -30 86q-14 19 -89 82l178 89q61 -43 88 -77q62 -77 62 -185q0 -155 -161 -265q99 -171 99 -361q0 -188 -98 -355q-94 -160 -253 -254q-170 -101 -364 -101q-193 0 -363 101q-159 93 -254 254
q-97 166 -97 357q0 190 97 356t265 262q166 95 352 95q276 0 485 -192zM777 1166q-214 0 -355 -172q-110 -134 -110 -320q0 -120 58 -226q62 -113 172 -180q112 -69 238 -69t239 69q110 67 172 180q58 107 58 234q0 206 -144 350q-136 134 -328 134z" />
    <glyph glyph-name="uni1EDB" unicode="&#x1edb;" horiz-adv-x="1160" 
d="M606 1440l220 -118l-315 -317l-156 90zM900 773q38 32 38 81q0 46 -30 86q-12 17 -89 82l178 89q64 -47 88 -77q62 -79 62 -185q0 -153 -150 -257q19 -67 19 -137q0 -221 -159 -363q-136 -122 -323 -122q-219 0 -360 158q-123 138 -123 326q0 220 159 362
q137 122 323 122q225 0 367 -165zM529 726q-116 0 -188 -92q-54 -70 -54 -179q0 -129 73 -202q71 -71 174 -71q122 0 192 93q54 71 54 180q0 128 -73 201q-69 70 -178 70z" />
    <glyph glyph-name="uni1EDC" unicode="&#x1edc;" horiz-adv-x="1581" 
d="M774 1415l-315 316l220 119l251 -346zM1265 1203q83 41 83 108q0 45 -30 86q-14 19 -89 82l178 89q61 -43 88 -77q62 -77 62 -185q0 -155 -161 -265q99 -171 99 -361q0 -188 -98 -355q-94 -160 -253 -254q-170 -101 -364 -101q-193 0 -363 101q-159 93 -254 254
q-97 166 -97 357q0 190 97 356t265 262q166 95 352 95q276 0 485 -192zM777 1166q-214 0 -355 -172q-110 -134 -110 -320q0 -120 58 -226q62 -113 172 -180q112 -69 238 -69t239 69q110 67 172 180q58 107 58 234q0 206 -144 350q-136 134 -328 134z" />
    <glyph glyph-name="uni1EDD" unicode="&#x1edd;" horiz-adv-x="1160" 
d="M527 1005l-315 317l221 118l251 -345zM900 773q38 32 38 81q0 46 -30 86q-12 17 -89 82l178 89q64 -47 88 -77q62 -79 62 -185q0 -153 -150 -257q19 -67 19 -137q0 -221 -159 -363q-136 -122 -323 -122q-219 0 -360 158q-123 138 -123 326q0 220 159 362q137 122 323 122
q225 0 367 -165zM529 726q-116 0 -188 -92q-54 -70 -54 -179q0 -129 73 -202q71 -71 174 -71q122 0 192 93q54 71 54 180q0 128 -73 201q-69 70 -178 70z" />
    <glyph glyph-name="uni1EDE" unicode="&#x1ede;" horiz-adv-x="1581" 
d="M1265 1203q83 41 83 108q0 45 -30 86q-14 19 -89 82l178 89q61 -43 88 -77q62 -77 62 -185q0 -155 -161 -265q99 -171 99 -361q0 -188 -98 -355q-94 -160 -253 -254q-170 -101 -364 -101q-193 0 -363 101q-159 93 -254 254q-97 166 -97 357q0 190 97 356t265 262
q166 95 352 95q276 0 485 -192zM777 1166q-214 0 -355 -172q-110 -134 -110 -320q0 -120 58 -226q62 -113 172 -180q112 -69 238 -69t239 69q110 67 172 180q58 107 58 234q0 206 -144 350q-136 134 -328 134zM919 1436h-211q3 68 9 90q4 20 28 53l19 28q19 29 19 35
q0 13 -23 13q-27 0 -102 -25l-69 176q84 31 108 37q29 7 77 7q101 0 162 -49t61 -129q0 -62 -38 -121l-31 -49q-9 -14 -9 -66z" />
    <glyph glyph-name="uni1EDF" unicode="&#x1edf;" horiz-adv-x="1160" 
d="M900 773q38 32 38 81q0 46 -30 86q-12 17 -89 82l178 89q64 -47 88 -77q62 -79 62 -185q0 -153 -150 -257q19 -67 19 -137q0 -221 -159 -363q-136 -122 -323 -122q-219 0 -360 158q-123 138 -123 326q0 220 159 362q137 122 323 122q225 0 367 -165zM529 726
q-116 0 -188 -92q-54 -70 -54 -179q0 -129 73 -202q71 -71 174 -71q122 0 192 93q54 71 54 180q0 128 -73 201q-69 70 -178 70zM669 1015h-211q3 67 9 90q4 20 28 53l19 28q19 29 19 35q0 13 -23 13q-24 0 -102 -26l-69 177q75 28 110 37q27 7 75 7q101 0 162 -49t61 -129
q0 -62 -38 -121l-31 -49q-9 -13 -9 -45v-21z" />
    <glyph glyph-name="uni1EE0" unicode="&#x1ee0;" horiz-adv-x="1581" 
d="M1265 1203q83 41 83 108q0 45 -30 86q-14 19 -89 82l178 89q61 -43 88 -77q62 -77 62 -185q0 -155 -161 -265q99 -171 99 -361q0 -188 -98 -355q-94 -160 -253 -254q-170 -101 -364 -101q-193 0 -363 101q-159 93 -254 254q-97 166 -97 357q0 190 97 356t265 262
q166 95 352 95q276 0 485 -192zM777 1166q-214 0 -355 -172q-110 -134 -110 -320q0 -120 58 -226q62 -113 172 -180q112 -69 238 -69t239 69q110 67 172 180q58 107 58 234q0 206 -144 350q-136 134 -328 134zM905 1771l195 -46q-8 -83 -21 -120q-22 -58 -70 -91t-112 -33
q-63 0 -155 43q-54 25 -66 25q-9 0 -14 -8q-5 -24 -14 -72l-191 45q11 91 29 129q55 115 177 115q51 0 159 -47q48 -22 63 -22q10 0 13 10q4 25 7 72z" />
    <glyph glyph-name="uni1EE1" unicode="&#x1ee1;" horiz-adv-x="1160" 
d="M900 773q38 32 38 81q0 46 -30 86q-12 17 -89 82l178 89q64 -47 88 -77q62 -79 62 -185q0 -153 -150 -257q19 -67 19 -137q0 -221 -159 -363q-136 -122 -323 -122q-219 0 -360 158q-123 138 -123 326q0 220 159 362q137 122 323 122q225 0 367 -165zM529 726
q-116 0 -188 -92q-54 -70 -54 -179q0 -129 73 -202q71 -71 174 -71q122 0 192 93q54 71 54 180q0 128 -73 201q-69 70 -178 70zM659 1361l196 -46q-7 -83 -21 -120q-22 -58 -70.5 -91t-111.5 -33q-65 0 -155 43q-54 25 -67 25q-9 0 -14 -8q-4 -24 -13 -72l-191 45
q11 91 29 129q55 115 177 115q52 0 158 -47q48 -22 63 -22q10 0 13 10q4 25 7 72z" />
    <glyph glyph-name="uni1EE2" unicode="&#x1ee2;" horiz-adv-x="1581" 
d="M1265 1203q83 41 83 108q0 45 -30 86q-14 19 -89 82l178 89q61 -43 88 -77q62 -77 62 -185q0 -155 -161 -265q99 -171 99 -361q0 -188 -98 -355q-94 -160 -253 -254q-170 -101 -364 -101q-193 0 -363 101q-159 93 -254 254q-97 166 -97 357q0 190 97 356t265 262
q166 95 352 95q276 0 485 -192zM777 1166q-214 0 -355 -172q-110 -134 -110 -320q0 -120 58 -226q62 -113 172 -180q112 -69 238 -69t239 69q110 67 172 180q58 107 58 234q0 206 -144 350q-136 134 -328 134zM783 -85q58 0 101 -43q42 -42 42 -100q0 -60 -42 -102
q-44 -42 -104 -42q-61 0 -103 42q-43 42 -43 103q0 60 43 100q43 42 106 42z" />
    <glyph glyph-name="uni1EE3" unicode="&#x1ee3;" horiz-adv-x="1160" 
d="M900 773q38 32 38 81q0 46 -30 86q-12 17 -89 82l178 89q64 -47 88 -77q62 -79 62 -185q0 -153 -150 -257q19 -67 19 -137q0 -221 -159 -363q-136 -122 -323 -122q-219 0 -360 158q-123 138 -123 326q0 220 159 362q137 122 323 122q225 0 367 -165zM529 726
q-116 0 -188 -92q-54 -70 -54 -179q0 -129 73 -202q71 -71 174 -71q122 0 192 93q54 71 54 180q0 128 -73 201q-69 70 -178 70zM537 -85q58 0 101 -43q42 -42 42 -100q0 -60 -42 -102q-44 -42 -104 -42q-61 0 -103 42q-43 42 -43 103q0 60 43 100q43 42 106 42z" />
    <glyph glyph-name="uni1EE4" unicode="&#x1ee4;" horiz-adv-x="1309" 
d="M143 1365h242v-839q0 -85 8 -135q7 -44 29 -80q29 -48 96 -80q66 -32 136 -32t137 32q67 33 97 80q22 34 29 79q7 42 7 136v839h242v-877q0 -111 -22 -186.5t-73 -139.5q-72 -93 -190 -145q-109 -47 -226 -47q-174 0 -311 94q-106 72 -153.5 172t-47.5 252v877zM657 -85
q58 0 101 -43q42 -42 42 -100q0 -60 -42 -102q-44 -42 -104 -42q-61 0 -103 42q-43 42 -43 103q0 60 43 100q43 42 106 42z" />
    <glyph glyph-name="uni1EE5" unicode="&#x1ee5;" horiz-adv-x="1043" 
d="M702 0v48q-58 -45 -102 -61q-48 -17 -109 -17q-80 0 -155 32t-127 89q-53 56 -76.5 133.5t-23.5 195.5v488h233v-473q0 -155 45 -204t122 -49q101 0 151 63q42 53 42 209v454h233v-908h-233zM524 -85q59 0 102 -43q42 -42 42 -100q0 -60 -42 -102q-44 -42 -104 -42
q-61 0 -103 42q-43 42 -43 103q0 60 43 100q43 42 105 42z" />
    <glyph glyph-name="uni1EE6" unicode="&#x1ee6;" horiz-adv-x="1309" 
d="M143 1365h242v-839q0 -85 8 -135q7 -44 29 -80q29 -48 96 -80q66 -32 136 -32t137 32q67 33 97 80q22 34 29 79q7 42 7 136v839h242v-877q0 -111 -22 -186.5t-73 -139.5q-72 -93 -190 -145q-109 -47 -226 -47q-174 0 -311 94q-106 72 -153.5 172t-47.5 252v877zM774 1436
h-210q1 65 8 90q4 20 28 53l20 28q19 29 19 35q0 13 -23 13q-27 0 -102 -25l-70 176q84 31 109 37q29 7 77 7q101 0 162 -49t61 -129q0 -61 -39 -121l-31 -49q-9 -14 -9 -45v-21z" />
    <glyph glyph-name="uni1EE7" unicode="&#x1ee7;" horiz-adv-x="1043" 
d="M702 0v48q-58 -45 -102 -61q-48 -17 -109 -17q-80 0 -155 32t-127 89q-53 56 -76.5 133.5t-23.5 195.5v488h233v-473q0 -155 45 -204t122 -49q101 0 151 63q42 53 42 209v454h233v-908h-233zM642 1015h-211q3 67 9 90q4 20 28 53l19 28q19 26 19 35q0 13 -23 13
q-24 0 -102 -26l-69 177q75 28 110 37q27 7 75 7q101 0 162 -49t61 -129q0 -62 -38 -121l-31 -49q-10 -14 -10 -45q0 -11 1 -21z" />
    <glyph glyph-name="uni1EE8" unicode="&#x1ee8;" horiz-adv-x="1419" 
d="M755 1850l221 -119l-315 -316l-157 89zM1166 1365v-148q58 34 58 95q0 44 -30 85q-12 17 -89 82l178 89q61 -43 88 -77q62 -77 62 -185q0 -96 -64 -178q-63 -81 -177 -128l-13 -5l-13 -5v-502q0 -111 -22 -186.5t-73 -139.5q-72 -93 -190 -145q-109 -47 -226 -47
q-174 0 -311 94q-106 72 -153.5 172t-47.5 252v877h242v-839q0 -85 8 -135q7 -44 29 -80q29 -48 96 -80q66 -32 136 -32t137 32q67 33 97 80q22 34 29 79q7 42 7 136v839h242z" />
    <glyph glyph-name="uni1EE9" unicode="&#x1ee9;" horiz-adv-x="1219" 
d="M613 1440l221 -118l-315 -317l-157 90zM935 908v-151q62 38 62 97q0 46 -30 86q-12 17 -89 82l178 89q61 -43 88 -77q62 -79 62 -185q0 -96 -64 -178q-63 -81 -177 -128l-30 -12v-531h-233v48q-58 -45 -102 -61q-48 -17 -109 -17q-80 0 -155 32t-127 89
q-53 56 -76.5 133.5t-23.5 195.5v488h233v-473q0 -155 45 -204t122 -49q101 0 151 63q42 53 42 209v454h233z" />
    <glyph glyph-name="uni1EEA" unicode="&#x1eea;" horiz-adv-x="1419" 
d="M648 1415l-315 316l220 119l251 -346zM1166 1365v-148q58 34 58 95q0 44 -30 85q-12 17 -89 82l178 89q61 -43 88 -77q62 -77 62 -185q0 -96 -64 -178q-63 -81 -177 -128l-13 -5l-13 -5v-502q0 -111 -22 -186.5t-73 -139.5q-72 -93 -190 -145q-109 -47 -226 -47
q-174 0 -311 94q-106 72 -153.5 172t-47.5 252v877h242v-839q0 -85 8 -135q7 -44 29 -80q29 -48 96 -80q66 -32 136 -32t137 32q67 33 97 80q22 34 29 79q7 42 7 136v839h242z" />
    <glyph glyph-name="uni1EEB" unicode="&#x1eeb;" horiz-adv-x="1219" 
d="M505 1005l-315 317l221 118l251 -345zM935 908v-151q62 38 62 97q0 46 -30 86q-12 17 -89 82l178 89q61 -43 88 -77q62 -79 62 -185q0 -96 -64 -178q-63 -81 -177 -128l-30 -12v-531h-233v48q-58 -45 -102 -61q-48 -17 -109 -17q-80 0 -155 32t-127 89
q-53 56 -76.5 133.5t-23.5 195.5v488h233v-473q0 -155 45 -204t122 -49q101 0 151 63q42 53 42 209v454h233z" />
    <glyph glyph-name="uni1EEC" unicode="&#x1eec;" horiz-adv-x="1419" 
d="M1166 1365v-148q58 34 58 95q0 44 -30 85q-12 17 -89 82l178 89q61 -43 88 -77q62 -77 62 -185q0 -96 -64 -178q-63 -81 -177 -128l-13 -5l-13 -5v-502q0 -111 -22 -186.5t-73 -139.5q-72 -93 -190 -145q-109 -47 -226 -47q-174 0 -311 94q-106 72 -153.5 172t-47.5 252
v877h242v-839q0 -85 8 -135q7 -44 29 -80q29 -48 96 -80q66 -32 136 -32t137 32q67 33 97 80q22 34 29 79q7 42 7 136v839h242zM790 1436h-211q3 64 8 90q4 20 28 53l20 28q19 28 19 35q0 13 -23 13q-27 0 -102 -25l-70 176q84 31 109 37q29 7 77 7q101 0 162 -49t61 -129
q0 -60 -38 -121l-32 -49q-9 -15 -9 -45q0 -11 1 -21z" />
    <glyph glyph-name="uni1EED" unicode="&#x1eed;" horiz-adv-x="1219" 
d="M935 908v-151q62 38 62 97q0 46 -30 86q-12 17 -89 82l178 89q61 -43 88 -77q62 -79 62 -185q0 -96 -64 -178q-63 -81 -177 -128l-30 -12v-531h-233v48q-58 -45 -102 -61q-48 -17 -109 -17q-80 0 -155 32t-127 89q-53 56 -76.5 133.5t-23.5 195.5v488h233v-473
q0 -155 45 -204t122 -49q101 0 151 63q42 53 42 209v454h233zM647 1015h-210q1 65 8 90q4 20 28 53l19 28q20 31 20 35q0 13 -23 13q-24 0 -102 -26l-70 177q75 28 110 37q27 7 76 7q101 0 162 -49t61 -129q0 -61 -39 -121l-31 -49q-9 -13 -9 -45v-21z" />
    <glyph glyph-name="uni1EEE" unicode="&#x1eee;" horiz-adv-x="1419" 
d="M1166 1365v-148q58 34 58 95q0 44 -30 85q-12 17 -89 82l178 89q61 -43 88 -77q62 -77 62 -185q0 -96 -64 -178q-63 -81 -177 -128l-13 -5l-13 -5v-502q0 -111 -22 -186.5t-73 -139.5q-72 -93 -190 -145q-109 -47 -226 -47q-174 0 -311 94q-106 72 -153.5 172t-47.5 252
v877h242v-839q0 -85 8 -135q7 -44 29 -80q29 -48 96 -80q66 -32 136 -32t137 32q67 33 97 80q22 34 29 79q7 42 7 136v839h242zM783 1771l195 -46q-8 -83 -21 -120q-22 -58 -70 -91t-112 -33q-65 0 -155 43q-54 25 -66 25q-9 0 -14 -8l-14 -72l-191 45q11 91 29 129
q55 115 177 115q51 0 159 -47q48 -22 62 -22q11 0 14 10q4 25 7 72z" />
    <glyph glyph-name="uni1EEF" unicode="&#x1eef;" horiz-adv-x="1219" 
d="M935 908v-151q62 38 62 97q0 46 -30 86q-12 17 -89 82l178 89q61 -43 88 -77q62 -79 62 -185q0 -96 -64 -178q-63 -81 -177 -128l-30 -12v-531h-233v48q-58 -45 -102 -61q-48 -17 -109 -17q-80 0 -155 32t-127 89q-53 56 -76.5 133.5t-23.5 195.5v488h233v-473
q0 -155 45 -204t122 -49q101 0 151 63q42 53 42 209v454h233zM649 1361l196 -46q-8 -84 -22 -120q-22 -58 -70 -91t-111 -33q-64 0 -156 43q-53 25 -66 25q-9 0 -14 -8q-4 -24 -13 -72l-192 45q11 88 30 129q55 115 176 115q51 0 159 -47q48 -22 63 -22q10 0 13 10
q4 25 7 72z" />
    <glyph glyph-name="uni1EF0" unicode="&#x1ef0;" horiz-adv-x="1419" 
d="M1166 1365v-148q58 34 58 95q0 44 -30 85q-12 17 -89 82l178 89q61 -43 88 -77q62 -77 62 -185q0 -96 -64 -178q-63 -81 -177 -128l-13 -5l-13 -5v-502q0 -111 -22 -186.5t-73 -139.5q-72 -93 -190 -145q-109 -47 -226 -47q-174 0 -311 94q-106 72 -153.5 172t-47.5 252
v877h242v-839q0 -85 8 -135q7 -44 29 -80q29 -48 96 -80q66 -32 136 -32t137 32q67 33 97 80q22 34 29 79q7 42 7 136v839h242zM657 -85q58 0 101 -43q42 -42 42 -100q0 -60 -42 -102q-44 -42 -104 -42q-61 0 -103 42q-43 42 -43 103q0 60 43 100q43 42 106 42z" />
    <glyph glyph-name="uni1EF1" unicode="&#x1ef1;" horiz-adv-x="1219" 
d="M935 908v-151q62 38 62 97q0 46 -30 86q-12 17 -89 82l178 89q61 -43 88 -77q62 -79 62 -185q0 -96 -64 -178q-63 -81 -177 -128l-30 -12v-531h-233v48q-58 -45 -102 -61q-48 -17 -109 -17q-80 0 -155 32t-127 89q-53 56 -76.5 133.5t-23.5 195.5v488h233v-473
q0 -155 45 -204t122 -49q101 0 151 63q42 53 42 209v454h233zM524 -85q59 0 102 -43q42 -42 42 -100q0 -60 -42 -102q-44 -42 -104 -42q-61 0 -103 42q-43 42 -43 103q0 60 43 100q43 42 105 42z" />
    <glyph glyph-name="Ygrave" unicode="&#x1ef2;" horiz-adv-x="1106" 
d="M560 1415l-315 316l221 119l251 -346zM432 0v565l-452 800h270l304 -553l303 553h269l-452 -800v-565h-242z" />
    <glyph glyph-name="ygrave" unicode="&#x1ef3;" horiz-adv-x="969" 
d="M492 1005l-315 317l221 118l251 -345zM125 -478l230 522l-374 864h253l246 -580l256 580h253l-618 -1386h-246z" />
    <glyph glyph-name="uni1EF4" unicode="&#x1ef4;" horiz-adv-x="1106" 
d="M432 0v565l-452 800h270l304 -553l303 553h269l-452 -800v-565h-242zM555 -85q59 0 102 -43q42 -42 42 -100q0 -60 -42 -102q-43 -42 -104 -42t-103 42q-43 42 -43 103q0 60 43 100q44 42 105 42z" />
    <glyph glyph-name="uni1EF5" unicode="&#x1ef5;" horiz-adv-x="969" 
d="M125 -478l230 522l-374 864h253l246 -580l256 580h253l-618 -1386h-246zM723 -85q58 0 101 -43q42 -42 42 -100q0 -60 -42 -102q-44 -42 -104 -42q-61 0 -103 42q-43 42 -43 103q0 60 43 100q43 42 106 42z" />
    <glyph glyph-name="uni1EF6" unicode="&#x1ef6;" horiz-adv-x="1106" 
d="M432 0v565l-452 800h270l304 -553l303 553h269l-452 -800v-565h-242zM679 1436h-210q1 65 8 90q4 20 28 53l20 28q19 29 19 35q0 13 -23 13q-27 0 -102 -25l-70 176q84 31 109 37q29 7 77 7q101 0 162 -49t61 -129q0 -60 -38 -121l-32 -49q-9 -14 -9 -45v-21z" />
    <glyph glyph-name="uni1EF7" unicode="&#x1ef7;" horiz-adv-x="969" 
d="M125 -478l230 522l-374 864h253l246 -580l256 580h253l-618 -1386h-246zM611 1015h-211q3 67 9 90q5 22 27 53l20 28q19 26 19 35q0 13 -23 13q-24 0 -102 -26l-70 177q77 28 111 37q27 7 75 7q101 0 162 -49t61 -129q0 -60 -38 -121l-32 -49q-9 -15 -9 -45q0 -11 1 -21z
" />
    <glyph glyph-name="uni1EF8" unicode="&#x1ef8;" horiz-adv-x="1106" 
d="M432 0v565l-452 800h270l304 -553l303 553h269l-452 -800v-565h-242zM680 1771l195 -46q-7 -83 -21 -120q-22 -58 -70.5 -91t-111.5 -33q-65 0 -155 43q-54 25 -66 25q-10 0 -15 -8q-4 -24 -13 -72l-191 45q11 91 29 129q55 115 177 115q52 0 158 -47q48 -22 63 -22
q10 0 13 10q3 22 8 72z" />
    <glyph glyph-name="uni1EF9" unicode="&#x1ef9;" horiz-adv-x="969" 
d="M125 -478l230 522l-374 864h253l246 -580l256 580h253l-618 -1386h-246zM611 1361l195 -46q-8 -83 -21 -120q-22 -58 -70 -91t-112 -33q-63 0 -155 43q-54 25 -66 25q-9 0 -14 -8q-5 -24 -14 -72l-191 45q11 91 29 129q55 115 177 115q51 0 159 -47q48 -22 63 -22
q10 0 13 10q4 25 7 72z" />
    <glyph glyph-name="uni2002" unicode="&#x2002;" horiz-adv-x="983" 
 />
    <glyph glyph-name="uni2003" unicode="&#x2003;" horiz-adv-x="2007" 
 />
    <glyph glyph-name="uni2004" unicode="&#x2004;" horiz-adv-x="642" 
 />
    <glyph glyph-name="uni2005" unicode="&#x2005;" horiz-adv-x="471" 
 />
    <glyph glyph-name="uni2006" unicode="&#x2006;" horiz-adv-x="96" 
 />
    <glyph glyph-name="uni2007" unicode="&#x2007;" horiz-adv-x="1098" 
 />
    <glyph glyph-name="uni2009" unicode="&#x2009;" horiz-adv-x="215" 
 />
    <glyph glyph-name="uni200A" unicode="&#x200a;" horiz-adv-x="27" 
 />
    <glyph glyph-name="uni2011" unicode="&#x2011;" horiz-adv-x="563" 
d="M55 365v213h454v-213h-454z" />
    <glyph glyph-name="figuredash" unicode="&#x2012;" horiz-adv-x="1200" 
d="M218 365v213h763v-213h-763z" />
    <glyph glyph-name="endash" unicode="&#x2013;" horiz-adv-x="1200" 
d="M218 365v213h763v-213h-763z" />
    <glyph glyph-name="emdash" unicode="&#x2014;" horiz-adv-x="1305" 
d="M55 365v213h1196v-213h-1196z" />
    <glyph glyph-name="afii00208" unicode="&#x2015;" horiz-adv-x="1305" 
d="M55 365v213h1196v-213h-1196z" />
    <glyph glyph-name="underscoredbl" unicode="&#x2017;" horiz-adv-x="1065" 
d="M-20 -297v188h1106v-188h-1106zM-20 -577v188h1106v-188h-1106z" />
    <glyph glyph-name="quoteleft" unicode="&#x2018;" horiz-adv-x="602" 
d="M507 1418l-197 -547l-214 78l240 538z" />
    <glyph glyph-name="quoteright" unicode="&#x2019;" horiz-adv-x="534" 
d="M48 939l197 548l214 -78l-240 -538z" />
    <glyph glyph-name="quotesinglbase" unicode="&#x201a;" horiz-adv-x="534" 
d="M48 -295l197 547l214 -77l-240 -538z" />
    <glyph glyph-name="quotereversed" unicode="&#x201b;" horiz-adv-x="534" 
d="M74 1409l214 78l197 -548l-171 -68z" />
    <glyph glyph-name="quotedblleft" unicode="&#x201c;" horiz-adv-x="902" 
d="M807 1418l-197 -547l-214 78l240 538zM507 1418l-197 -547l-214 78l240 538z" />
    <glyph glyph-name="quotedblright" unicode="&#x201d;" horiz-adv-x="902" 
d="M96 939l197 548l214 -78l-240 -538zM396 939l197 548l214 -78l-240 -538z" />
    <glyph glyph-name="quotedblbase" unicode="&#x201e;" horiz-adv-x="902" 
d="M96 -295l197 547l214 -77l-240 -538zM396 -295l197 547l214 -77l-240 -538z" />
    <glyph glyph-name="dagger" unicode="&#x2020;" horiz-adv-x="1135" 
d="M450 908v453h234v-453h290v-218h-290v-1067h-234v1067h-290v218h290z" />
    <glyph glyph-name="daggerdbl" unicode="&#x2021;" horiz-adv-x="1135" 
d="M974 690h-290v-395h290v-218h-290v-454h-234v454h-290v218h290v395h-290v218h290v453h234v-453h290v-218z" />
    <glyph glyph-name="bullet" unicode="&#x2022;" horiz-adv-x="1024" 
d="M517 1010q141 0 238 -108q84 -93 84 -219q0 -147 -108 -244q-95 -84 -219 -84q-146 0 -244 108q-84 93 -84 222q0 142 108 241q92 84 225 84z" />
    <glyph glyph-name="ellipsis" unicode="&#x2026;" horiz-adv-x="1577" 
d="M281 260q59 0 102 -42q42 -44 42 -101q0 -60 -42 -102q-43 -42 -104 -42t-103 42q-43 42 -43 103q0 59 43 101q44 41 105 41zM790 260q58 0 102 -42q42 -43 42 -101q0 -60 -42 -102q-44 -42 -104 -42q-61 0 -103 42q-43 42 -43 103q0 59 43 101q44 41 105 41zM1300 260
q58 0 102 -42q42 -43 42 -101q0 -60 -42 -102q-44 -42 -104 -42q-61 0 -103 42q-43 42 -43 103q0 59 43 101q44 41 105 41z" />
    <glyph glyph-name="perthousand" unicode="&#x2030;" horiz-adv-x="2592" 
d="M1420 827q334 0 334 -423q0 -422 -329 -422q-332 0 -332 428q0 175 61 278q82 139 266 139zM1424 672q-158 0 -158 -271q0 -264 158 -264q157 0 157 268q0 267 -157 267zM462 45l781 1350l131 -76l-781 -1350zM410 1383q333 0 333 -422t-329 -422q-332 0 -332 427
q0 175 61 278q82 139 267 139zM413 1228q-158 0 -158 -270q0 -264 158 -264q157 0 157 267t-157 267zM2178 827q333 0 333 -423q0 -422 -329 -422q-332 0 -332 428q0 175 61 278q82 139 267 139zM2181 672q-158 0 -158 -271q0 -264 158 -264q157 0 157 268q0 267 -157 267z
" />
    <glyph glyph-name="minute" unicode="&#x2032;" horiz-adv-x="414" 
d="M-89 940l196 545l211 -77l-238 -535z" />
    <glyph glyph-name="second" unicode="&#x2033;" horiz-adv-x="714" 
d="M-89 940l196 545l211 -77l-239 -535zM211 940l196 545l211 -77l-239 -535z" />
    <glyph glyph-name="guilsinglleft" unicode="&#x2039;" horiz-adv-x="649" 
d="M565 770l-248 -315l249 -308l-160 -126l-351 433l351 441z" />
    <glyph glyph-name="guilsinglright" unicode="&#x203a;" horiz-adv-x="649" 
d="M83 147l249 308l-249 315l159 125l352 -441l-352 -433z" />
    <glyph glyph-name="uni203E" unicode="&#x203e;" horiz-adv-x="1065" 
d="M-20 1529v212h1106v-212h-1106z" />
    <glyph glyph-name="slash.aalt" unicode="&#x2044;" horiz-adv-x="367" 
d="M-273 45l781 1350l132 -76l-781 -1350z" />
    <glyph glyph-name="zerosuperior" unicode="&#x2070;" 
d="M392 1658q334 0 334 -422t-329 -422q-332 0 -332 427q0 175 61 278q82 139 266 139zM396 1503q-158 0 -158 -271q0 -263 158 -263q157 0 157 267t-157 267z" />
    <glyph glyph-name="foursuperior" unicode="&#x2074;" 
d="M442 1669l140 -83l-290 -440h138v177h169v-177h95v-152h-95v-163h-169v163h-345v134z" />
    <glyph glyph-name="fivesuperior" unicode="&#x2075;" 
d="M366 1487l-21 -98q34 2 37 2q64 0 126.5 -27t103.5 -72q71 -79 71 -186q0 -131 -102 -218q-88 -74 -212 -74q-94 0 -159 41q-64 41 -132 141l137 90q34 -55 45 -68q40 -49 112 -49q60 0 101 38q40 37 40 95q0 59 -39.5 97.5t-100.5 38.5q-60 0 -91 -34l-17 -17l-131 27
l91 426h419v-153h-278z" />
    <glyph glyph-name="sixsuperior" unicode="&#x2076;" 
d="M156 1294l282 375l134 -94l-149 -198q89 -8 156 -52q119 -80 119 -220q0 -129 -100 -216q-86 -75 -204 -75q-133 0 -223 91q-82 82 -82 200q0 100 67 189zM393 1226q-58 0 -96.5 -36t-38.5 -90q0 -56 38.5 -93.5t96.5 -37.5t97 39q39 38 39 94q0 54 -38.5 89t-97.5 35z
" />
    <glyph glyph-name="sevensuperior" unicode="&#x2077;" 
d="M152 877l346 610h-368v153h575v-116l-404 -722z" />
    <glyph glyph-name="eightsuperior" unicode="&#x2078;" 
d="M201 1262q-72 69 -72 157q0 113 94 185q72 54 173 54q116 0 193 -71q74 -71 74 -169q0 -87 -71 -156q97 -78 97 -188q0 -124 -100 -199q-80 -61 -192 -61q-131 0 -217 81q-76 72 -76 179q0 110 97 188zM395 1182q-54 0 -88 -30t-34 -79q0 -48 34.5 -78t88.5 -30
q55 0 89.5 30.5t34.5 77.5q0 50 -34 79.5t-91 29.5zM396 1512q-47 0 -76.5 -27t-29.5 -69q0 -40 30 -65.5t77 -25.5q46 0 76 26t30 66q0 42 -30 68.5t-77 26.5z" />
    <glyph glyph-name="ninesuperior" unicode="&#x2079;" 
d="M636 1179l-282 -376l-134 94l149 198q-89 8 -156 52q-119 80 -119 221q0 129 100 216q86 74 204 74q133 0 223 -91q82 -82 82 -200q0 -100 -67 -188zM399 1503q-58 0 -97 -38t-39 -95q0 -54 38.5 -89t97.5 -35q58 0 96.5 36t38.5 90q0 56 -38.5 93.5t-96.5 37.5z" />
    <glyph glyph-name="zeroinferior" unicode="&#x2080;" 
d="M392 561q334 0 334 -422t-329 -422q-332 0 -332 427q0 175 61 278q82 139 266 139zM396 406q-158 0 -158 -271q0 -263 158 -263q157 0 157 267t-157 267z" />
    <glyph glyph-name="oneinferior" unicode="&#x2081;" 
d="M514 543v-808h-170v608l-95 -52l-82 134l215 118h132z" />
    <glyph glyph-name="twoinferior" unicode="&#x2082;" 
d="M683 -265h-560v128l295 314q79 82 79 148q0 37 -27 58.5t-73 21.5q-57 0 -80 -23q-22 -22 -48 -104l-157 42q17 71 35 103q73 138 253 138q118 0 191 -66q74 -68 74 -173q0 -120 -90 -214l-207 -219h315v-154z" />
    <glyph glyph-name="threeinferior" unicode="&#x2083;" 
d="M306 81v152h76q108 0 108 86q0 40 -27.5 64t-74.5 24q-40 0 -63 -17q-24 -17 -62 -74l-144 74q44 72 78 103q77 69 191 69q109 0 182 -58q88 -70 88 -181q0 -93 -67 -157q85 -75 85 -185q0 -130 -100 -203q-80 -61 -192 -61q-173 0 -249 133q-20 35 -39 116l165 41
q15 -58 25 -77q28 -57 100 -57q54 0 87 30t33 78q0 100 -124 100h-76z" />
    <glyph glyph-name="fourinferior" unicode="&#x2084;" 
d="M442 572l140 -83l-290 -439h138v176h169v-176h95v-152h-95v-163h-169v163h-345v134z" />
    <glyph glyph-name="fiveinferior" unicode="&#x2085;" 
d="M366 391l-21 -98q34 2 37 2q64 0 126.5 -27t103.5 -72q71 -80 71 -186q0 -132 -102 -219q-88 -74 -212 -74q-95 0 -159 40q-63 40 -132 142l137 90q34 -55 45 -68q40 -49 112 -49q60 0 101 38q40 37 40 95q0 59 -39.5 98t-100.5 39q-62 0 -91 -35q-7 -7 -17 -16l-131 26
l91 427h419v-153h-278z" />
    <glyph glyph-name="sixinferior" unicode="&#x2086;" 
d="M156 196l282 376l134 -94l-149 -198q89 -8 156 -52q119 -80 119 -220q0 -129 -100 -217q-86 -74 -204 -74q-133 0 -223 91q-82 82 -82 200q0 100 67 188zM393 129q-58 0 -96.5 -36t-38.5 -90q0 -56 38.5 -93.5t96.5 -37.5q57 0 97 38q39 39 39 95q0 54 -38.5 89t-97.5 35
z" />
    <glyph glyph-name="seveninferior" unicode="&#x2087;" 
d="M152 -219l346 610h-368v153h575v-116l-404 -722z" />
    <glyph glyph-name="eightinferior" unicode="&#x2088;" 
d="M201 166q-72 68 -72 156q0 113 94 185q72 54 173 54q117 0 193 -71q74 -71 74 -168q0 -88 -71 -156q97 -79 97 -189q0 -124 -100 -199q-80 -61 -192 -61q-131 0 -217 81q-76 72 -76 179q0 110 97 189zM395 85q-54 0 -88 -30t-34 -79q0 -48 34.5 -78t88.5 -30
q55 0 89.5 30.5t34.5 77.5q0 50 -34 79.5t-91 29.5zM396 415q-47 0 -76.5 -27t-29.5 -69q0 -40 30 -65.5t77 -25.5q46 0 76 26t30 66q0 42 -30 68.5t-77 26.5z" />
    <glyph glyph-name="nineinferior" unicode="&#x2089;" 
d="M636 82l-282 -376l-134 94l149 198q-89 8 -156 52q-119 80 -119 221q0 129 100 216q86 74 204 74q133 0 223 -91q82 -82 82 -200q0 -99 -67 -188zM399 406q-58 0 -97 -38t-39 -95q0 -54 38.5 -89t97.5 -35q58 0 96.5 36t38.5 90q0 56 -38.5 93.5t-96.5 37.5z" />
    <glyph glyph-name="franc" unicode="&#x20a3;" horiz-adv-x="1527" 
d="M942 1365v-224h-475v-337h365v-225h-365v-579h-242v1365h717zM1134 804v-59q79 65 177 65q32 0 86 -6v-209q-52 4 -83 4q-102 0 -141 -57q-39 -59 -39 -209v-333h-233v804h233z" />
    <glyph glyph-name="lira" unicode="&#x20a4;" horiz-adv-x="1158" 
d="M888 450h-346q1 -16 1 -37q0 -101 -57 -190h590v-223h-943v205q58 44 102 85q63 60 63 153v7h-165v198h132l-14 65h-118v198h88v33q0 157 65 261q60 96 172 147q93 43 199 43q259 0 397 -265l-194 -120q-53 89 -98 124q-47 35 -111 35q-92 0 -140.5 -58.5t-48.5 -170.5
q0 -18 1 -29h425v-198h-391l14 -65h377v-198z" />
    <glyph glyph-name="peseta" unicode="&#x20a7;" horiz-adv-x="1237" 
d="M1175 844h-119q-20 -89 -71 -161q-75 -103 -195 -141q-84 -26 -218 -26h-71v-516h-242v844h-109v191h109v330h313q405 7 484 -330h119v-191zM809 844h-308v-109h88q94 0 144 25t76 84zM501 1144v-109h308q-23 59 -73.5 84t-146.5 25h-88z" />
    <glyph glyph-name="uni20AB" unicode="&#x20ab;" horiz-adv-x="1136" 
d="M1123 1027h-118v-1027h-233v58q-115 -88 -244 -88q-212 0 -354 159q-123 137 -123 326q0 219 159 361q137 122 317 122q130 0 245 -88v177h-236v210h236v128h233v-128h118v-210zM528 726q-115 0 -187 -92q-54 -70 -54 -179q0 -129 73 -202q71 -71 172 -71q119 0 188 92
q53 73 53 182q0 124 -71 200q-67 70 -174 70zM63 -307v212h1048v-212h-1048z" />
    <glyph glyph-name="Euro" unicode="&#x20ac;" horiz-adv-x="1654" 
d="M200 911h138q28 74 58 126q95 168 263 263q166 95 362 95q150 0 270 -55q119 -55 240 -179l-92 -215q-78 81 -142 125q-137 95 -282 95q-133 0 -239.5 -65.5t-174.5 -189.5h823l-85 -198h-792q-1 -11 -1 -33q0 -21 1 -32h764l-84 -198h-624q37 -64 79 -108
q137 -143 340 -143q119 0 225 59q105 60 222 191v-314q-201 -165 -444 -165q-288 0 -493 187q-123 112 -193 293h-223l84 198h100v5v31v16v13h-184z" />
    <glyph glyph-name="uni20B4" unicode="&#x20b4;" horiz-adv-x="1273" 
d="M150 905h625q45 43 45 93q0 73 -53 123q-54 48 -137 48q-69 0 -113 -32q-47 -34 -107 -130l-198 123q65 105 113 150q124 115 303 115q191 0 316 -118q118 -109 118 -277q0 -48 -12 -95h63v-191h-200q-54 -38 -118 -66h318v-191h-661q-8 -27 -8 -52q0 -97 76 -160
q58 -48 137 -48q135 0 194 125q11 22 36 123l236 -61q-31 -130 -62 -186q-61 -108 -168 -170q-103 -58 -231 -58q-208 0 -345 141q-119 125 -119 295q0 27 3 51h-51v191h143q35 36 81 66h-224v191z" />
    <glyph glyph-name="uni2101" unicode="&#x2101;" horiz-adv-x="1909" 
d="M695 748h-319l-74 -192h-179l315 809h195l243 -624l-107 -185zM535 1169l-99 -267h199zM1747 693l22 -34l-140 -84q-1 2 -9.5 14t-13.5 20q-43 64 -107 64q-45 0 -73.5 -24.5t-28.5 -62.5q0 -47 88 -78l77 -28q211 -78 211 -235q0 -122 -98 -200q-81 -66 -194 -66
q-87 0 -156.5 41.5t-104.5 114.5q-12 23 -28 85l-5 20l167 42q8 -33 17 -66q25 -81 112 -81q49 0 83 31.5t34 76.5q0 30 -24.5 51t-85.5 44l-74 27q-190 70 -190 223q0 118 98 187q76 54 176 54q160 0 247 -136zM582 45l782 1350l131 -76l-781 -1350z" />
    <glyph glyph-name="afii61248" unicode="&#x2105;" horiz-adv-x="2147" 
d="M610 45l781 1350l132 -76l-781 -1350zM914 1226l-121 -112q-67 69 -112 93q-43 22 -111 22q-131 0 -211 -95q-62 -76 -62 -173q0 -118 85 -196q80 -72 189 -72q93 0 165 60q14 12 61 56l121 -112l-15 -15q-80 -77 -158 -111.5t-175 -34.5q-202 0 -334 142
q-113 122 -113 283q0 111 60 212q60 100 163 157q104 56 225 56q99 0 177 -35q75 -35 166 -125zM1580 829q193 0 328 -140q116 -122 116 -285q0 -186 -146 -314q-129 -111 -302 -111q-116 0 -222 60q-99 56 -157 152q-61 100 -61 219q0 180 150 311q124 108 294 108z
M1578 672q-122 0 -205 -95q-63 -73 -63 -178q0 -113 87 -191q79 -72 183 -72q120 0 203 92q67 73 67 176q0 114 -83 194q-79 74 -189 74z" />
    <glyph glyph-name="uni2117" unicode="&#x2117;" horiz-adv-x="1713" 
d="M852 557h-43v-335h-191v921h234q87 0 144 -17t101 -56q93 -84 93 -219q0 -136 -93 -220q-83 -74 -245 -74zM809 965v-231h55q72 0 105 27.5t33 88.5t-33 88t-105 27h-55zM869 1458q199 0 375 -104q180 -105 284 -284t104 -387q0 -207 -104 -388q-103 -179 -284 -283
q-179 -104 -387 -104q-206 0 -387 104q-179 102 -284 283q-104 182 -104 394q0 335 257 569q220 200 530 200zM847 1296q-158 0 -297 -82q-141 -85 -224 -225q-82 -140 -82 -306q0 -165 82 -307q83 -143 224 -224q142 -82 307 -82q164 0 306 82q144 82 225 224
q82 142 82 312q0 265 -203 450q-175 158 -420 158z" />
    <glyph glyph-name="trademark" unicode="&#x2122;" horiz-adv-x="1361" 
d="M542 1273h-157v-534h-113v534h-156v105h426v-105zM724 739h-113v639h107l210 -374l210 374h107v-639h-113v418l-160 -285h-88l-160 285v-418z" />
    <glyph glyph-name="Omega" unicode="&#x2126;" horiz-adv-x="1626" 
d="M906 0v312q83 26 113 39q108 51 175 139q83 110 83 246q0 186 -143 312q-135 120 -321 120q-217 0 -357 -153q-108 -119 -108 -279q0 -189 149 -315q55 -46 89 -62q36 -17 133 -46v-313h-584v225h231q-99 84 -140 141q-124 170 -124 371q0 176 97 330q97 152 264 241
q164 87 350 87q185 0 349 -87q167 -89 264 -241q97 -154 97 -330q0 -213 -138 -389q-39 -48 -127 -123h232v-225h-584z" />
    <glyph glyph-name="estimated" unicode="&#x212e;" horiz-adv-x="1518" 
d="M1395 615h-973v-209q41 -111 93 -158q85 -78 249 -78q215 0 329 145q29 37 69 125h211q-40 -126 -66 -175q-160 -295 -545 -295q-302 0 -474 196q-165 188 -165 508q0 339 182 532q179 189 462 189q234 0 400 -127q202 -154 224 -485q3 -66 4 -168zM422 799h693v175
q-89 221 -353 221q-126 0 -199 -48q-74 -48 -141 -175v-173z" />
    <glyph glyph-name="onethird" unicode="&#x2153;" horiz-adv-x="1707" 
d="M1194 346v152h76q108 0 108 86q0 40 -27.5 64t-74.5 24q-42 0 -64 -16q-24 -18 -61 -75l-144 74q48 76 78 103q76 69 191 69q109 0 182 -58q88 -70 88 -181q0 -91 -67 -157q85 -75 85 -185q0 -130 -100 -203q-80 -61 -192 -61q-173 0 -249 133q-18 33 -39 116l165 41
q15 -58 25 -77q28 -57 100 -57q54 0 87 30t33 78q0 100 -124 100h-76zM447 1365v-808h-170v608l-95 -52l-82 134l215 118h132zM314 45l781 1350l132 -76l-782 -1350z" />
    <glyph glyph-name="twothirds" unicode="&#x2154;" horiz-adv-x="1707" 
d="M660 557h-560v128l295 313q79 83 79 149q0 37 -27 58.5t-73 21.5q-80 0 -109 -69q-10 -26 -19 -58l-157 42q16 68 35 103q74 138 253 138q119 0 192 -66q73 -67 73 -173q0 -120 -90 -214l-207 -219h315v-154zM1192 346v152h75q109 0 109 86q0 40 -27.5 64t-74.5 24
q-40 0 -65 -17q-22 -17 -61 -74l-143 74q46 75 77 103q78 69 191 69q109 0 182 -58q89 -71 89 -181q0 -91 -67 -157q85 -75 85 -185q0 -130 -100 -203q-82 -61 -192 -61q-82 0 -148 35t-101 98q-19 31 -39 116l165 41q15 -58 25 -77q28 -57 100 -57q53 0 86.5 30t33.5 78
q0 100 -125 100h-75zM407 45l782 1350l131 -76l-781 -1350z" />
    <glyph glyph-name="onefifth" unicode="&#x2155;" horiz-adv-x="1707" 
d="M1228 656l-21 -98q34 2 38 2q64 0 126 -27t103 -72q71 -79 71 -186q0 -132 -102 -219q-88 -74 -211 -74q-96 0 -159 41q-66 42 -133 141l137 90q39 -59 46 -68q40 -49 111 -49q60 0 101 38q40 37 40 95q0 59 -39.5 98t-99.5 39t-92 -35q-9 -9 -17 -16l-130 26l91 427h418
v-153h-278zM448 1365v-808h-170v608l-95 -52l-82 134l215 118h132zM315 45l781 1350l132 -76l-782 -1350z" />
    <glyph glyph-name="twofifth" unicode="&#x2156;" horiz-adv-x="1707" 
d="M660 557h-560v128l295 313q79 83 79 149q0 37 -27 58.5t-73 21.5q-80 0 -109 -69q-10 -26 -19 -58l-157 42q16 68 35 103q74 138 253 138q119 0 192 -66q73 -67 73 -173q0 -120 -90 -214l-207 -219h315v-154zM1225 656l-21 -98q34 2 37 2q63 0 125.5 -27t104.5 -72
q71 -79 71 -186q0 -132 -102 -219q-88 -74 -212 -74q-94 0 -159 41q-66 41 -132 141l137 90q31 -51 45 -68q40 -49 112 -49q60 0 101 38q40 37 40 95q0 59 -39.5 98t-100.5 39q-59 0 -91 -35q-2 -2 -7.5 -7t-9.5 -9l-131 26l91 427h419v-153h-278zM415 45l782 1350l131 -76
l-781 -1350z" />
    <glyph glyph-name="threefifth" unicode="&#x2157;" horiz-adv-x="1707" 
d="M1226 656l-21 -98q34 2 38 2q64 0 126 -27t103 -72q71 -80 71 -186q0 -132 -102 -219q-88 -74 -211 -74q-96 0 -159 41q-66 42 -133 141l137 90q35 -56 46 -68q40 -49 111 -49q60 0 101 38q40 37 40 95q0 59 -39.5 98t-99.5 39t-92 -35q-9 -9 -17 -16l-130 26l91 427h418
v-153h-278zM295 903v152h76q108 0 108 86q0 40 -27.5 64t-74.5 24q-39 0 -64 -17q-22 -17 -61 -74l-144 74q45 72 78 102q76 69 191 69q109 0 182 -58q88 -69 88 -181q0 -92 -67 -156q85 -75 85 -185q0 -130 -100 -203q-80 -61 -192 -61q-173 0 -249 133q-20 35 -39 116
l165 41q16 -60 25 -77q29 -57 100 -57q54 0 87 30t33 78q0 100 -124 100h-76zM375 45l781 1350l132 -76l-782 -1350z" />
    <glyph glyph-name="fourfifth" unicode="&#x2158;" horiz-adv-x="1707" 
d="M455 1394l140 -83l-289 -439h137v176h169v-176h96v-152h-96v-163h-169v163h-344v134zM1221 656l-21 -98q34 2 38 2q64 0 126 -27t103 -72q71 -80 71 -186q0 -132 -102 -219q-88 -74 -211 -74q-96 0 -159 41q-66 42 -133 141l137 90q35 -56 46 -68q40 -49 111 -49
q60 0 101 38q40 37 40 95q0 59 -39.5 98t-99.5 39t-92 -35q-9 -9 -17 -16l-130 26l91 427h418v-153h-278zM400 45l781 1350l132 -76l-781 -1350z" />
    <glyph glyph-name="onesixth" unicode="&#x2159;" horiz-adv-x="1707" 
d="M1001 462l282 376l133 -94l-148 -199q88 -6 156 -51q119 -80 119 -221q0 -129 -100 -216q-85 -75 -204 -75q-133 0 -223 91q-82 82 -82 200q0 100 67 189zM1238 394q-58 0 -96.5 -36t-38.5 -90q0 -56 38.5 -93.5t96.5 -37.5t97 38t39 95q0 54 -38.5 89t-97.5 35z
M449 1365v-808h-170v608l-95 -52l-82 134l215 118h132zM343 45l781 1350l132 -76l-781 -1350z" />
    <glyph glyph-name="fivesixth" unicode="&#x215a;" horiz-adv-x="1707" 
d="M999 462l282 376l133 -94l-148 -199q88 -6 156 -51q119 -80 119 -221q0 -129 -100 -216q-85 -75 -204 -75q-133 0 -223 91q-82 82 -82 200q0 100 67 189zM1236 394q-58 0 -96.5 -36t-38.5 -90q0 -56 38.5 -93.5t95.5 -37.5t98 38q39 37 39 95q0 54 -38.5 89t-97.5 35z
M422 45l781 1350l132 -76l-782 -1350zM376 1212l-21 -98q34 2 37 2q63 0 125.5 -27t104.5 -72q71 -79 71 -186q0 -132 -102 -219q-89 -74 -212 -74q-94 0 -159 41q-64 41 -132 141l137 90q34 -55 45 -68q40 -49 112 -49q60 0 101 38q40 37 40 95q0 59 -39.5 98t-100.5 39
q-59 0 -91 -35q-4 -3 -17 -16l-131 26l91 427h419v-153h-278z" />
    <glyph glyph-name="oneeighth" unicode="&#x215b;" horiz-adv-x="1707" 
d="M1076 431q-72 69 -72 157q0 113 94 185q72 54 173 54q117 0 193 -71q74 -71 74 -169q0 -87 -71 -156q97 -78 97 -189q0 -124 -100 -199q-80 -61 -192 -61q-132 0 -217 81q-76 72 -76 179q0 111 97 189zM1270 351q-54 0 -88 -30.5t-34 -79.5q0 -47 34.5 -77.5t88.5 -30.5
q55 0 89.5 30.5t34.5 78.5q0 49 -34 79t-91 30zM1271 681q-47 0 -76.5 -27t-29.5 -69q0 -40 30 -65.5t77 -25.5q46 0 76 26t30 66q0 42 -30 68.5t-77 26.5zM447 1365v-808h-170v608l-95 -52l-82 134l215 118h132zM314 45l781 1350l132 -76l-782 -1350z" />
    <glyph glyph-name="threeeighths" unicode="&#x215c;" horiz-adv-x="1707" 
d="M295 903v152h76q108 0 108 86q0 40 -27.5 64t-74.5 24q-39 0 -64 -17q-22 -17 -61 -74l-144 74q45 72 78 102q76 69 191 69q109 0 182 -58q88 -69 88 -181q0 -92 -67 -156q85 -75 85 -185q0 -130 -100 -203q-80 -61 -192 -61q-173 0 -249 133q-20 35 -39 116l165 41
q16 -60 25 -77q29 -57 100 -57q54 0 87 30t33 78q0 100 -124 100h-76zM1056 431q-72 69 -72 157q0 113 95 185q71 54 172 54q117 0 193 -71q74 -71 74 -169q0 -87 -71 -156q97 -78 97 -189q0 -124 -100 -199q-80 -61 -192 -61q-131 0 -217 81q-76 72 -76 179q0 111 97 189z
M1250 351q-54 0 -88 -30.5t-34 -79.5q0 -48 34.5 -78t89.5 -30q54 0 88.5 30.5t34.5 78.5q0 49 -34 79t-91 30zM1251 681q-47 0 -76.5 -27t-29.5 -69q0 -40 30 -65.5t77 -25.5q46 0 76 26t30 66q0 42 -30 68.5t-77 26.5zM366 45l781 1350l132 -76l-781 -1350z" />
    <glyph glyph-name="fiveeighths" unicode="&#x215d;" horiz-adv-x="1707" 
d="M1055 431q-71 69 -71 157q0 113 94 185q70 54 173 54q116 0 192 -71q75 -71 75 -169q0 -87 -72 -156q97 -79 97 -189q0 -124 -100 -199q-80 -61 -193 -61q-130 0 -216 81q-76 72 -76 179q0 111 97 189zM1249 351q-55 0 -88.5 -30t-33.5 -80q0 -48 34 -78t89 -30
t89.5 30.5t34.5 78.5q0 49 -34.5 79t-90.5 30zM1250 681q-46 0 -75.5 -27t-29.5 -69q0 -40 30 -65.5t76 -25.5q47 0 77 26t30 66q0 42 -30.5 68.5t-77.5 26.5zM374 1212l-21 -98q34 2 37 2q63 0 125.5 -27t104.5 -72q71 -79 71 -186q0 -132 -102 -219q-89 -74 -212 -74
q-94 0 -159 41q-64 41 -132 141l137 90q34 -55 45 -68q40 -49 112 -49q60 0 101 38q40 37 40 95q0 59 -39.5 98t-100.5 39q-59 0 -91 -35q-4 -3 -17 -16l-131 26l91 427h419v-153h-278zM370 45l782 1350l131 -76l-781 -1350z" />
    <glyph glyph-name="seveneighths" unicode="&#x215e;" horiz-adv-x="1707" 
d="M163 602l346 610h-368v153h575v-116l-404 -722zM1051 431q-71 69 -71 157q0 113 94 185q72 54 173 54q117 0 193 -71q74 -71 74 -169q0 -87 -72 -156q97 -79 97 -189q0 -124 -100 -199q-80 -61 -192 -61q-131 0 -217 81q-76 72 -76 179q0 111 97 189zM1245 351
q-54 0 -88 -30.5t-34 -79.5q0 -48 34.5 -78t89.5 -30q54 0 88.5 30.5t34.5 78.5q0 49 -34 79t-91 30zM1247 681q-47 0 -76.5 -27t-29.5 -69q0 -40 30 -65.5t77 -25.5q46 0 76 26t30 66q0 42 -30 68.5t-77 26.5zM294 45l781 1350l132 -76l-781 -1350z" />
    <glyph glyph-name="partialdiff" unicode="&#x2202;" horiz-adv-x="1197" 
d="M706 920l-23 26q-116 115 -254 165q-61 22 -209 45l32 209q158 -20 236 -44q284 -81 439 -293q154 -211 154 -521q0 -277 -159 -416q-136 -121 -323 -121q-219 0 -360 158q-123 138 -123 326q0 220 159 362q137 122 314 122q60 0 117 -18zM595 726q-117 0 -189 -92
q-54 -70 -54 -179q0 -129 73 -202q71 -71 174 -71q123 0 193 93q54 71 54 180q0 128 -73 201q-69 70 -178 70z" />
    <glyph glyph-name="emptyset" unicode="&#x2205;" horiz-adv-x="1304" 
d="M498 167l-101 -199l-171 87l102 200q-73 63 -113 116q-99 137 -99 311q0 141 68 263q76 138 218 212q119 62 254 62q65 0 150 -22l98 194l171 -88l-100 -196q83 -72 121 -125q92 -137 92 -299q0 -150 -80 -281q-70 -114 -185 -181q-129 -75 -292 -75q-64 0 -133 21z
M887 933l-298 -586q47 -6 67 -6q146 0 249 111q90 96 90 229q0 144 -108 252zM419 434l296 584q-47 6 -67 6q-155 0 -258 -124q-80 -97 -80 -216q0 -137 109 -250z" />
    <glyph glyph-name="increment" unicode="&#x2206;" horiz-adv-x="1397" 
d="M823 1365l533 -1365h-1315l534 1365h248zM696 1044l-313 -817h630z" />
    <glyph glyph-name="product" unicode="&#x220f;" horiz-adv-x="1354" 
d="M903 1141h-452v-1141h-242v1141h-161v224h1258v-224h-161v-1141h-242v1141z" />
    <glyph glyph-name="summation" unicode="&#x2211;" horiz-adv-x="1370" 
d="M203 189l367 518l-328 469v189h911v-224l-611 2l308 -436l-336 -482h678v-225h-989v189z" />
    <glyph glyph-name="minus" unicode="&#x2212;" horiz-adv-x="1139" 
d="M119 744h901v-210h-901v210z" />
    <glyph glyph-name="fraction" unicode="&#x2215;" horiz-adv-x="367" 
d="M-273 45l781 1350l132 -76l-781 -1350z" />
    <glyph glyph-name="uni2218" unicode="&#x2218;" horiz-adv-x="1024" 
d="M517 1010q141 0 238 -108q84 -93 84 -219q0 -147 -108 -244q-95 -84 -219 -84q-146 0 -244 108q-84 93 -84 222q0 142 108 241q92 84 225 84zM509 871q-81 0 -138 -62q-48 -54 -48 -126q0 -85 62 -141q54 -48 127 -48q84 0 140 62q48 54 48 128q0 82 -62 139
q-52 48 -129 48z" />
    <glyph glyph-name="radical" unicode="&#x221a;" horiz-adv-x="1284" 
d="M48 861h344l165 -489l448 1324h641v-225h-461l-505 -1471h-248l-220 642h-164v219z" />
    <glyph glyph-name="infinity" unicode="&#x221e;" horiz-adv-x="1468" 
d="M737 519q-88 -97 -146 -131q-86 -52 -191 -52q-175 0 -276 125q-76 95 -76 233q0 158 102 255q104 98 251 98q95 0 169 -41t161 -141q69 81 127 119q97 63 211 63q181 0 281 -133q70 -92 70 -224q0 -167 -112 -267q-97 -88 -237 -88q-99 0 -175 43q-76 42 -159 141z
M860 692q53 -79 97 -111.5t98 -32.5q62 0 103 40.5t41 102.5q0 74 -55 113q-42 30 -92 30q-96 0 -192 -142zM608 691q-53 78 -97 110.5t-98 32.5q-62 0 -103 -40.5t-41 -102.5q0 -73 55 -112q42 -30 92 -30q98 0 192 142z" />
    <glyph glyph-name="integral" unicode="&#x222b;" horiz-adv-x="634" 
d="M586 1494v-211q-57 17 -82 17q-39 0 -55 -22.5t-16 -76.5v-1271q0 -151 -65.5 -230.5t-189.5 -79.5q-57 0 -130 17v210q51 -16 81 -16q39 0 55 22t16 77v1271q0 151 65.5 230.5t189.5 79.5q55 0 131 -17z" />
    <glyph glyph-name="similar" unicode="&#x223c;" horiz-adv-x="1203" 
d="M213 441l-157 102q36 79 60 117q56 93 114 130q74 47 159 47q84 0 246 -74q87 -41 117 -50q35 -11 64 -11q67 0 117 68q12 17 53 86l161 -95q-55 -113 -93 -159q-104 -129 -258 -129q-49 0 -103 19q-53 17 -200 83q-73 33 -118 33q-59 0 -110 -76q-19 -30 -52 -91z" />
    <glyph glyph-name="uni2243" unicode="&#x2243;" horiz-adv-x="1203" 
d="M213 605l-157 102q38 79 60 117q56 90 114 129q74 47 160 47q83 0 245 -74q87 -40 118 -50q33 -11 63 -11q67 0 117 68q12 17 53 86l161 -94q-56 -114 -93 -160q-104 -129 -256 -129q-51 0 -105 19q-53 17 -200 83q-72 33 -117 33q-60 0 -111 -76q-18 -26 -52 -90z
M67 560h1067v-208h-1067v208z" />
    <glyph glyph-name="approxequal" unicode="&#x2248;" horiz-adv-x="1203" 
d="M213 638l-157 103q38 79 60 117q56 90 114 129q74 47 160 47q83 0 245 -74q87 -40 118 -50q33 -11 63 -11q67 0 117 68q3 4 9.5 14.5t19.5 32t24 39.5l161 -95q-58 -115 -93 -160q-48 -60 -116 -94t-140 -34q-51 0 -105 19q-48 15 -200 83q-72 33 -117 33q-60 0 -111 -76
q-16 -22 -52 -91zM213 260l-157 102q38 80 60 117q56 93 114 130q74 47 160 47t246 -75q87 -41 117 -50q33 -11 64 -11q66 0 116 68q14 19 53 87l161 -95q-56 -113 -93 -160q-104 -129 -258 -129q-49 0 -103 19q-58 20 -200 84q-72 33 -117 33q-60 0 -111 -76
q-11 -16 -52 -91z" />
    <glyph glyph-name="notequal" unicode="&#x2260;" horiz-adv-x="1180" 
d="M56 908h558l128 257l181 -75l-91 -182h291v-210h-395l-58 -117h453v-210h-558l-128 -257l-181 74l91 183h-291v210h395l58 117h-453v210z" />
    <glyph glyph-name="lessequal" unicode="&#x2264;" horiz-adv-x="1180" 
d="M1074 485v-237l-969 435v186l969 441v-238l-663 -293zM1074 209v-209h-969v209h969z" />
    <glyph glyph-name="greaterequal" unicode="&#x2265;" horiz-adv-x="1180" 
d="M1074 683l-969 -435v237l663 294l-663 293v238l969 -441v-186zM1074 0h-969v209h969v-209z" />
    <glyph glyph-name="dotmath" unicode="&#x22c5;" horiz-adv-x="513" 
d="M259 826q59 0 102 -42q42 -44 42 -101q0 -60 -42 -102q-43 -42 -104 -42t-103 42q-43 42 -43 103q0 59 43 101q44 41 105 41z" />
    <glyph glyph-name="lozenge" unicode="&#x25ca;" horiz-adv-x="1342" 
d="M1224 683l-553 -764l-552 764l552 764zM671 300l274 383l-274 382l-273 -382z" />
    <glyph glyph-name="openbullet" unicode="&#x25e6;" horiz-adv-x="1024" 
d="M517 1010q141 0 238 -108q84 -93 84 -219q0 -147 -108 -244q-95 -84 -219 -84q-146 0 -244 108q-84 93 -84 222q0 142 108 241q92 84 225 84zM509 871q-81 0 -138 -62q-48 -54 -48 -126q0 -85 62 -141q54 -48 127 -48q84 0 140 62q48 54 48 128q0 82 -62 139
q-52 48 -129 48z" />
    <glyph glyph-name="glyph155" horiz-adv-x="471" 
 />
    <glyph glyph-name="glyph172" horiz-adv-x="1184" 
 />
    <glyph glyph-name="glyph210" horiz-adv-x="471" 
 />
    <glyph glyph-name="seven.denominator" 
d="M152 46l346 610h-368v153h575v-116l-404 -722z" />
    <glyph glyph-name="eight.denominator" 
d="M201 431q-72 69 -72 157q0 113 94 185q72 54 173 54q117 0 193 -71q74 -71 74 -169q0 -87 -71 -156q97 -78 97 -189q0 -124 -100 -199q-80 -61 -192 -61q-131 0 -217 81q-76 72 -76 179q0 111 97 189zM395 351q-54 0 -88 -30.5t-34 -79.5q0 -47 34.5 -77.5t88.5 -30.5
q55 0 89.5 30.5t34.5 78.5q0 49 -34 79t-91 30zM396 681q-47 0 -76.5 -27t-29.5 -69q0 -40 30 -65.5t77 -25.5q46 0 76 26t30 66q0 42 -30 68.5t-77 26.5z" />
    <glyph glyph-name="nine.denominator" 
d="M636 347l-282 -376l-134 95l149 198q-89 6 -156 51q-119 80 -119 221q0 131 100 216q86 75 204 75q133 0 223 -91q82 -82 82 -200q0 -100 -67 -189zM399 672q-58 0 -97 -38t-39 -95q0 -54 38.5 -89t97.5 -35q58 0 96.5 36t38.5 90q0 56 -38.5 93.5t-96.5 37.5z" />
    <glyph glyph-name="four.fitted" horiz-adv-x="1139" 
d="M655 1406l198 -122l-492 -779h288v307h241v-307h158v-221h-158v-284h-241v284h-574v205z" />
    <glyph glyph-name="three.fitted" horiz-adv-x="1139" 
d="M435 603v221h106q78 0 125 26q34 19 55 59t21 86q0 79 -52 126.5t-139 47.5q-68 0 -115 -32q-45 -32 -101 -120l-203 110q73 124 144 179q115 89 274 89q174 0 292 -96q139 -115 139 -298q0 -161 -123 -273q72 -61 104 -121q49 -88 49 -199q0 -213 -157 -336
q-130 -102 -310 -102q-214 0 -341 142q-43 47 -67 102q-25 54 -47 152l236 61q25 -103 54 -147q51 -82 169 -82q98 0 159 58t61 151q0 97 -58 146.5t-169 49.5h-106z" />
    <glyph glyph-name="zero.denominator" 
d="M392 827q334 0 334 -423q0 -422 -329 -422q-332 0 -332 428q0 175 61 278q82 139 266 139zM396 672q-158 0 -158 -271q0 -264 158 -264q157 0 157 268q0 267 -157 267z" />
    <glyph glyph-name="two.fitted" horiz-adv-x="1139" 
d="M1040 0h-892v193l487 540q136 149 136 273q0 73 -51 117t-135 44q-124 0 -174 -80q-23 -37 -53 -137l-224 62q30 132 85 208q124 175 372 175q187 0 305 -113q115 -109 115 -282q0 -197 -145 -357l-377 -418h551v-225z" />
    <glyph glyph-name="one.fitted" horiz-adv-x="1139" 
d="M253 223h248v852l-172 -98l-115 197l336 191h193v-1142h225v-223h-715v223z" />
    <glyph glyph-name="Dieresis" horiz-adv-x="975" 
d="M301 1763q59 0 102 -42q42 -43 42 -101q0 -60 -42 -102q-43 -42 -104 -42t-103 42q-43 42 -43 103q0 59 43 101q44 41 105 41zM679 1763q57 0 101 -42q42 -43 42 -101q0 -60 -42 -102q-44 -42 -104 -42q-61 0 -103 42q-43 42 -43 103q0 59 43 101q44 41 106 41z" />
    <glyph glyph-name="Dotaccent" horiz-adv-x="975" 
d="M489 1763q59 0 102 -42q42 -43 42 -101q0 -60 -42 -102q-43 -42 -104 -42t-103 42q-43 42 -43 103q0 59 43 101q44 41 105 41z" />
    <glyph glyph-name="Ring" horiz-adv-x="975" 
d="M486 1838q94 0 159 -64q65 -65 65 -155t-65 -155q-65 -64 -157 -64q-94 0 -158 64q-66 64 -66 158q0 88 66 152q65 64 156 64zM487 1725q-44 0 -75 -31t-31 -76q0 -43 31.5 -74t74.5 -31q44 0 75 31t31 75t-31 75t-75 31z" />
    <glyph glyph-name="Acute" horiz-adv-x="975" 
d="M588 1850l221 -119l-315 -316l-157 89z" />
    <glyph glyph-name="Grave" horiz-adv-x="975" 
d="M481 1415l-315 316l221 119l251 -346z" />
    <glyph glyph-name="five.fitted" horiz-adv-x="1139" 
d="M501 1142l-45 -219q51 8 85 8q106 0 205 -44t166 -121q113 -131 113 -309q0 -127 -63 -238q-67 -121 -187 -187q-113 -62 -254 -62q-147 0 -252 68q-108 68 -203 220l193 133q58 -93 84 -121q70 -73 185 -73q107 0 181 74t74 178q0 110 -71 184q-72 75 -182 75
q-99 0 -163 -62l-24 -25l-187 39l144 705h660v-223h-459z" />
    <glyph glyph-name="Caron" horiz-adv-x="975" 
d="M306 1834l181 -181l181 181l177 -88l-282 -310h-151l-283 310z" />
    <glyph glyph-name="Breve" horiz-adv-x="975" 
d="M176 1770l203 17q0 -7 0.5 -16.5t1 -15.5t0.5 -10q3 -59 28 -88q29 -33 74 -33q59 0 91 57q11 21 23 106l203 -17q-11 -92 -16 -115q-8 -30 -29 -66q-90 -164 -271 -164q-118 0 -201 72q-96 83 -104 199q-1 21 -3 74z" />
    <glyph glyph-name="Tilde" horiz-adv-x="975" 
d="M614 1771l195 -46q-7 -83 -21 -120q-22 -58 -70.5 -91t-111.5 -33q-65 0 -155 43q-54 25 -66 25q-9 0 -14 -8q-1 0 -14 -72l-191 45q11 91 29 129q55 115 177 115q51 0 159 -47q48 -22 62 -22q10 0 13 10q4 13 8 72z" />
    <glyph glyph-name="Hungarumlaut" horiz-adv-x="975" 
d="M649 1737l-321 -323l-131 92l251 345zM495 1498l256 353l196 -120l-315 -317z" />
    <glyph glyph-name="Cedilla" horiz-adv-x="975" 
d="M502 -46l213 -91l-259 -329l-168 85z" />
    <glyph glyph-name="Ogonek" horiz-adv-x="975" 
d="M674 0h233q-73 -94 -73 -132q0 -18 26 -18q34 0 100 25l70 -176q-90 -32 -108 -37q-28 -7 -73 -7q-98 0 -163 56t-65 141q0 68 53 148z" />
    <glyph glyph-name="Macron" horiz-adv-x="975" 
d="M168 1514v210h639v-210h-639z" />
    <glyph glyph-name="Commaaccent" horiz-adv-x="975" 
d="M283 -444l118 398l222 -67l-166 -386z" />
    <glyph glyph-name="Comma.high" horiz-adv-x="975" 
d="M529 1450l118 398l222 -67l-166 -386z" />
    <glyph glyph-name="Dieresis.alt" horiz-adv-x="975" 
d="M328 1763q58 0 102 -42q42 -43 42 -101q0 -60 -42 -102q-44 -42 -104 -42q-61 0 -103 42q-43 42 -43 103q0 59 43 101q44 41 105 41zM638 1763q58 0 101 -42q42 -43 42 -101q0 -60 -42 -102q-43 -42 -104 -42t-103 42q-43 42 -43 103q0 59 43 101q44 41 106 41z" />
    <glyph glyph-name="commaaccent" horiz-adv-x="975" 
d="M283 -444l118 398l222 -67l-166 -386z" />
    <glyph glyph-name="comma.high" horiz-adv-x="975" 
d="M529 1040l118 399l222 -68l-166 -385z" />
    <glyph glyph-name="dieresis.alt" horiz-adv-x="975" 
d="M328 1359q58 0 102 -42q42 -43 42 -101q0 -60 -42 -102q-44 -42 -104 -42q-61 0 -103 42q-43 42 -43 103q0 59 43 101q44 41 105 41zM638 1359q58 0 101 -42q42 -43 42 -101q0 -60 -42 -102q-43 -42 -104 -42t-103 42q-43 42 -43 103q0 59 43 101q44 41 106 41z" />
    <glyph glyph-name="commareversed" horiz-adv-x="975" 
d="M869 1383l-118 -398l-222 67l166 386z" />
    <glyph glyph-name="G.salt" horiz-adv-x="1493" 
d="M1127 354l1 171h-340v225h582v-479l-10 -14q-59 -75 -104 -112q-209 -175 -475 -175q-277 0 -483 188q-109 100 -171 238q-61 135 -61 284q0 192 96 358q95 167 263 262q167 95 362 95q222 0 397 -126q38 -27 142 -125l-171 -164q-89 89 -119 110q-109 76 -250 76
q-230 0 -366 -172q-108 -135 -108 -314q0 -126 58 -232q60 -113 169 -180q112 -69 242 -69q199 0 346 155z" />
    <glyph glyph-name="M.salt" horiz-adv-x="1707" 
d="M361 0h-245l139 1365h220l379 -785l378 785h220l139 -1365h-245l-90 916l-307 -631h-190l-308 629z" />
    <glyph glyph-name="y.salt" horiz-adv-x="969" 
d="M736 908h253l-540 -1207q-93 -209 -251 -209q-50 0 -133 27l37 222q57 -28 77 -28q30 0 65 78l111 253l-374 864h253l246 -580z" />
    <glyph glyph-name="parenleft.salt" horiz-adv-x="655" 
d="M337 1645l208 -98q-58 -150 -82 -242q-76 -291 -76 -622q0 -247 36 -445q36 -196 122 -420l-208 -98q-51 108 -67 152q-13 35 -36 125q-84 330 -84 686q0 395 100 743q22 80 87 219z" />
    <glyph glyph-name="parenright.salt" horiz-adv-x="655" 
d="M109 1547l209 98q72 -157 102 -277q84 -332 84 -686q0 -390 -99 -743q-23 -77 -87 -219l-209 98q55 142 82 242q76 288 76 622q0 247 -36 445q-36 194 -122 420z" />
    <glyph glyph-name="bracketleft.salt" horiz-adv-x="627" 
d="M558 1399h-179v-1433h179v-218h-415v1869h415v-218z" />
    <glyph glyph-name="bracketright.salt" horiz-adv-x="627" 
d="M248 -34v1433h-180v218h416v-1869h-416v218h180z" />
    </font>
</defs>
</svg>
