<?xml version="1.0" standalone="no"?>
<!DOCTYPE svg PUBLIC "-//W3C//DTD SVG 1.1//EN" "http://www.w3.org/Graphics/SVG/1.1/DTD/svg11.dtd" >
<svg xmlns="http://www.w3.org/2000/svg" xmlns:xlink="http://www.w3.org/1999/xlink" version="1.1">
<metadata>
Created by FontForge 20170731 at Thu Jan 14 12:16:44 2016
 By Aleksey,,,
(URW)++,Copyright 2015 by (URW)++ Design &#38; Development
</metadata>
<defs>
<font id="URWGeometric-Heavy" horiz-adv-x="792" >
  <font-face 
    font-family="URW Geometric Heavy"
    font-weight="900"
    font-stretch="normal"
    units-per-em="2048"
    panose-1="0 0 0 0 0 0 0 0 0 0"
    ascent="1496"
    descent="-552"
    x-height="908"
    cap-height="1365"
    bbox="-285 -593 2527 2206"
    underline-thickness="270"
    underline-position="-613"
    unicode-range="U+0020-FB04"
  />
<missing-glyph horiz-adv-x="447" 
d="M402 0h-357v1365h357v-1365zM90 45h267v1275h-267v-1275z" />
    <glyph glyph-name="afii61352" unicode="Nr&#x2e;" horiz-adv-x="2152" 
d="M2024 535h-535v200h535v-200zM434 0h-303v1365h253l631 -828v828h303v-1365h-253l-631 828v-828zM1760 1399q134 0 223 -98q75 -84 75 -198q0 -132 -97 -219q-86 -77 -205 -77q-138 0 -227 98q-75 84 -75 198q0 113 71 193q91 103 235 103zM1754 1226q-50 0 -82 -34.5
t-32 -88.5t32.5 -88.5t83.5 -34.5q52 0 84 34.5t32 89.5t-32.5 88.5t-85.5 33.5z" />
    <glyph glyph-name="ff" unicode="ff" horiz-adv-x="1111" 
d="M552 649h-147v-649h-291v649h-82v259h82v152q0 180 91 259q74 65 189 65q70 0 155 -19v-259q-51 19 -89 19q-55 0 -55 -71v-146h147v-259zM1099 649h-147v-649h-291v649h-82v259h82v152q0 180 91 259q74 65 189 65q70 0 155 -19v-259q-51 19 -89 19q-55 0 -55 -71v-146
h147v-259z" />
    <glyph glyph-name="fi" unicode="fi" horiz-adv-x="1034" 
d="M552 649h-147v-649h-291v649h-82v259h82v152q0 180 91 259q74 65 189 65q70 0 155 -19v-259q-51 19 -89 19q-55 0 -55 -71v-146h147v-259zM789 1388q79 0 131 -57q43 -46 43 -111q0 -74 -56 -124q-49 -45 -117 -45q-73 0 -123 50q-51 49 -51 121q0 70 56 121
q50 45 117 45zM644 908h291v-908h-291v908z" />
    <glyph glyph-name="fl" unicode="fl" horiz-adv-x="1036" 
d="M552 649h-147v-649h-291v649h-82v259h82v152q0 180 91 259q74 65 189 65q70 0 155 -19v-259q-51 19 -89 19q-55 0 -55 -71v-146h147v-259zM936 1365v-1365h-291v1365h291z" />
    <glyph glyph-name="ffi" unicode="ffi" horiz-adv-x="1581" 
d="M552 649h-147v-649h-291v649h-82v259h82v152q0 180 91 259q74 65 189 65q70 0 155 -19v-259q-51 19 -89 19q-55 0 -55 -71v-146h147v-259zM1099 649h-148v-649h-291v649h-81v259h81v152q0 180 91 259q74 65 189 65q71 0 156 -19v-259q-51 19 -90 19q-55 0 -55 -71v-146
h148v-259zM1336 1388q78 0 131 -57q43 -47 43 -111q0 -74 -56 -124q-50 -45 -117 -45q-73 0 -123 50q-51 49 -51 121q0 71 56 121q49 45 117 45zM1191 908h291v-908h-291v908z" />
    <glyph glyph-name="ffl" unicode="ffl" horiz-adv-x="1582" 
d="M552 649h-147v-649h-291v649h-82v259h82v152q0 180 91 259q74 65 189 65q70 0 155 -19v-259q-51 19 -89 19q-55 0 -55 -71v-146h147v-259zM1099 649h-148v-649h-291v649h-81v259h81v152q0 180 91 259q74 65 189 65q71 0 156 -19v-259q-51 19 -90 19q-55 0 -55 -71v-146
h148v-259zM1483 1365v-1365h-291v1365h291z" />
    <glyph glyph-name=".notdef" horiz-adv-x="447" 
d="M402 0h-357v1365h357v-1365zM90 45h267v1275h-267v-1275z" />
    <glyph glyph-name="glyph1" horiz-adv-x="0" 
 />
    <glyph glyph-name="glyph2" horiz-adv-x="447" 
 />
    <glyph glyph-name="space" unicode=" " horiz-adv-x="447" 
 />
    <glyph glyph-name="exclam" unicode="!" horiz-adv-x="651" 
d="M461 378h-271l-25 987h321zM326 305q78 0 130 -57q43 -46 43 -111q0 -73 -56 -123q-49 -45 -117 -45q-74 0 -123 50q-51 49 -51 121q0 70 56 121q50 44 118 44z" />
    <glyph glyph-name="quotedbl" unicode="&#x22;" horiz-adv-x="769" 
d="M353 1434l-30 -663h-237l-30 663h297zM712 1434l-30 -663h-237l-30 663h297z" />
    <glyph glyph-name="numbersign" unicode="#" horiz-adv-x="1221" 
d="M142 17l71 345h-143l46 223h143l39 189h-143l46 223h144l82 399l237 -54l-71 -345h167l82 399l238 -51l-73 -348h143l-46 -223h-143l-39 -189h143l-46 -223h-143l-83 -400l-236 55l71 345h-167l-83 -400zM507 585h167l39 189h-167z" />
    <glyph glyph-name="dollar" unicode="$" horiz-adv-x="1212" 
d="M104 391l297 79q2 -9 12 -49q42 -174 179 -174q83 0 134 58q43 49 43 110q0 34 -20 60q-31 41 -153 87l-118 45q-315 120 -315 380q0 137 84 244q82 105 222 146v193h298v-192q171 -48 294 -255l-251 -157q-44 69 -74 100q-49 52 -127 52q-70 0 -111 -47q-34 -40 -34 -86
q0 -71 137 -122l124 -47q156 -59 238 -138q110 -104 110 -261q0 -142 -82 -254q-83 -114 -224 -167v-208h-298v191q-302 71 -365 412z" />
    <glyph glyph-name="percent" unicode="%" horiz-adv-x="1835" 
d="M448 59l776 1340l163 -94l-776 -1340zM408 1384q346 0 346 -425q0 -424 -344 -424q-168 0 -254 109t-86 321q0 170 62 276q86 143 276 143zM411 1200q-133 0 -133 -232q0 -129 32.5 -189t102.5 -60q54 0 85 34q21 24 34 82q14 61 14 121q0 244 -135 244zM1419 829
q346 0 346 -425q0 -174 -62 -280q-84 -144 -279 -144q-343 0 -343 430q0 170 62 276q86 143 276 143zM1422 645q-53 0 -84 -34q-22 -25 -35.5 -83t-13.5 -128q0 -69 16 -127q16 -61 40 -82q30 -27 78 -27q55 0 86 34q21 24 34 82q14 62 14 123q0 242 -135 242z" />
    <glyph glyph-name="ampersand" unicode="&#x26;" horiz-adv-x="1408" 
d="M747 749l188 -217q28 63 60 155l279 -76q-3 -8 -11 -35.5t-14 -46.5q-38 -120 -105 -239l252 -290h-380l-63 75q-160 -109 -344 -109q-155 0 -286 72q-102 56 -161 160q-51 90 -51 189q0 161 121 279q52 51 132 109q-68 89 -95 151q-27 61 -27 130q0 151 111 253
q99 90 246 90q166 0 267 -113q85 -94 85 -216q0 -171 -204 -321zM583 938q67 51 87 77q21 29 21 62q0 38 -26 62.5t-66 24.5q-42 0 -69.5 -26t-27.5 -65q0 -27 15 -51q13 -24 66 -84zM765 298l-238 284q-120 -106 -120 -183q0 -65 52 -111q53 -48 143 -48q84 0 163 58z" />
    <glyph glyph-name="quotesingle" unicode="'" horiz-adv-x="410" 
d="M353 1434l-30 -663h-237l-30 663h297z" />
    <glyph glyph-name="parenleft" unicode="(" horiz-adv-x="695" 
d="M335 1545l262 -124q-53 -138 -81 -235q-81 -280 -81 -621q0 -369 97 -675q23 -71 65 -181l-262 -124q-51 113 -61 138q-61 147 -98 382q-38 239 -38 460q0 350 82 674q23 91 37 127q14 40 78 179z" />
    <glyph glyph-name="parenright" unicode=")" horiz-adv-x="695" 
d="M97 1421l261 124q57 -125 62 -138q45 -107 80 -283q56 -291 56 -559q0 -352 -82 -674q-20 -80 -37 -128q-21 -53 -79 -178l-261 124q53 138 81 235q81 280 81 621q0 369 -97 676q-21 64 -65 180z" />
    <glyph glyph-name="asterisk" unicode="*" horiz-adv-x="1059" 
d="M190 1417l209 -77l-9 223h278l-9 -223l209 78l86 -265l-215 -60l139 -175l-225 -163l-124 186l-124 -187l-225 164l139 175l-215 60z" />
    <glyph glyph-name="plus" unicode="+" horiz-adv-x="1139" 
d="M28 771h407v410h270v-410h406v-264h-406v-409h-270v409h-407v264z" />
    <glyph glyph-name="comma" unicode="," horiz-adv-x="579" 
d="M16 -311l215 599l267 -98l-262 -588z" />
    <glyph glyph-name="hyphen" unicode="-" horiz-adv-x="594" 
d="M43 338v268h509v-268h-509z" />
    <glyph glyph-name="period" unicode="." horiz-adv-x="544" 
d="M273 305q77 0 130 -57q43 -46 43 -111q0 -73 -56 -123q-50 -45 -117 -45q-74 0 -123 50q-51 49 -51 121q0 70 56 121q50 44 118 44z" />
    <glyph glyph-name="slash" unicode="/" horiz-adv-x="1172" 
d="M321 -38l-241 142l771 1299l241 -141z" />
    <glyph glyph-name="zero" unicode="0" horiz-adv-x="1199" 
d="M600 1399q312 0 447 -234q103 -181 103 -483q0 -301 -103 -482q-61 -106 -163 -164q-122 -70 -282 -70q-552 0 -552 726q0 297 103 473q137 234 447 234zM599 1122q-97 0 -154 -64q-39 -42 -65 -145q-25 -99 -25 -216q0 -258 80 -377q53 -77 163 -77q126 0 181 97
q66 115 66 344q0 207 -68 340q-50 98 -178 98z" />
    <glyph glyph-name="one" unicode="1" horiz-adv-x="704" 
d="M573 1365v-1365h-303v997l-143 -81l-146 246l361 203h231z" />
    <glyph glyph-name="two" unicode="2" horiz-adv-x="1032" 
d="M1010 0h-931v231l478 525q125 137 125 239q0 59 -39.5 93t-107.5 34q-84 0 -121 -40q-38 -39 -73 -163l-282 77q35 154 104 242q56 71 142 111q109 50 230 50q137 0 249 -60q92 -49 145 -144q53 -94 53 -208q0 -196 -151 -362l-315 -345h494v-280z" />
    <glyph glyph-name="three" unicode="3" horiz-adv-x="1022" 
d="M480 580h-122v264h122q164 0 164 138q0 66 -41 103.5t-113 37.5q-62 0 -101 -27q-39 -26 -106 -113l-248 135q65 108 129 164q130 117 324 117q138 0 253 -63q93 -52 149 -148q53 -92 53 -199q0 -150 -112 -261q141 -128 141 -311q0 -201 -144 -328q-140 -123 -343 -123
q-161 0 -286 84q-78 53 -122 127q-46 76 -77 204l288 76q32 -113 69 -161q41 -53 130 -53q90 0 139 55q43 47 43 121q0 82 -46.5 121.5t-142.5 39.5z" />
    <glyph glyph-name="four" unicode="4" horiz-adv-x="1074" 
d="M29 507l581 909l249 -152l-459 -719h208v229h301v-229h126v-277h-126v-268h-301v268h-579v239z" />
    <glyph glyph-name="five" unicode="5" horiz-adv-x="1122" 
d="M543 1085l-30 -141q20 2 37 2q239 0 387 -163q122 -134 122 -319q0 -218 -163 -366q-146 -132 -358 -132q-156 0 -270 71q-117 72 -218 227l245 169q60 -109 114 -149q53 -42 131 -42q102 0 163 70q54 60 54 146q0 102 -69 163q-59 53 -142 53q-95 0 -159 -76l-10 -10
l-233 48l151 729h701v-280h-453z" />
    <glyph glyph-name="six" unicode="6" horiz-adv-x="1127" 
d="M168 777l465 638l237 -172l-237 -326q159 -22 262 -107q167 -135 167 -352q0 -130 -66 -244q-66 -115 -180 -181q-115 -67 -254 -67q-228 0 -378 165q-126 139 -126 326q0 168 110 320zM560 650q-93 0 -152 -65q-50 -56 -50 -135q0 -97 67 -158q56 -50 135 -50
q91 0 149 67q53 61 53 146q0 83 -52 135q-60 60 -150 60z" />
    <glyph glyph-name="seven" unicode="7" horiz-adv-x="941" 
d="M297 -51l-264 137l548 999h-579v280h951v-208z" />
    <glyph glyph-name="eight" unicode="8" horiz-adv-x="1075" 
d="M209 729q-55 55 -78 99q-40 74 -40 162q0 175 137 297q124 112 310 112q211 0 342 -143q105 -116 105 -266q0 -76 -27 -136t-91 -125q159 -135 159 -318q0 -195 -144 -322q-140 -123 -344 -123q-145 0 -269 70q-104 59 -163 160q-56 98 -56 215q0 183 159 318zM535 587
q-93 0 -142 -55q-44 -50 -44 -119q0 -80 55 -129q49 -46 134 -46q94 0 146 57q43 47 43 119q0 78 -54 128q-49 45 -138 45zM536 1136q-70 0 -113.5 -42.5t-43.5 -110.5q0 -64 44.5 -105t115.5 -41q70 0 114 41.5t44 106.5q0 67 -44.5 109t-116.5 42z" />
    <glyph glyph-name="nine" unicode="9" horiz-adv-x="1132" 
d="M959 588l-465 -638l-236 172l236 326q-158 24 -262 107q-167 135 -167 351q0 131 66 245q66 115 180 181q115 67 254 67q228 0 378 -165q126 -138 126 -326q0 -168 -110 -320zM567 1123q-91 0 -149 -67q-53 -61 -53 -145q0 -83 52 -136q59 -60 150 -60q93 0 152 65
q50 56 50 136q0 96 -67 157q-56 50 -135 50z" />
    <glyph glyph-name="colon" unicode=":" horiz-adv-x="544" 
d="M273 305q77 0 130 -57q43 -46 43 -111q0 -73 -56 -123q-50 -45 -117 -45q-74 0 -123 50q-51 49 -51 121q0 70 56 121q50 44 118 44zM272 884q78 0 131 -57q43 -47 43 -111q0 -74 -56 -124q-50 -44 -117 -44q-73 0 -123 50q-51 50 -51 121q0 70 56 120q49 45 117 45z" />
    <glyph glyph-name="semicolon" unicode=";" horiz-adv-x="566" 
d="M16 -311l215 599l267 -98l-262 -588zM319 884q79 0 131 -57q43 -46 43 -111q0 -74 -56 -124q-50 -44 -117 -44q-73 0 -123 50q-51 50 -51 121q0 70 56 120q50 45 117 45z" />
    <glyph glyph-name="less" unicode="&#x3c;" horiz-adv-x="1211" 
d="M93 800l1024 481v-305l-627 -286l627 -287v-304l-1024 481v220z" />
    <glyph glyph-name="equal" unicode="=" horiz-adv-x="1139" 
d="M87 954h965v-265h-965v265zM87 590h965v-265h-965v265z" />
    <glyph glyph-name="greater" unicode="&#x3e;" horiz-adv-x="1211" 
d="M1117 579l-1024 -481v305l627 287l-627 287v303l1024 -481v-220z" />
    <glyph glyph-name="question" unicode="?" horiz-adv-x="916" 
d="M604 378h-298v122q0 102 27 160q27 56 108 124l81 67q91 76 91 153q0 54 -34.5 84t-96.5 30q-69 0 -112 -31q-44 -32 -111 -127l-223 179q58 94 118 147q128 113 323 113q221 0 339 -132q97 -109 97 -263q0 -98 -31 -163q-44 -90 -147 -185l-92 -84q-25 -23 -32 -38.5
t-7 -48.5v-107zM454 305q78 0 130 -57q43 -46 43 -111q0 -74 -55 -123q-50 -45 -119 -45q-78 0 -129 57q-44 49 -44 114q0 70 56 121q50 44 118 44z" />
    <glyph glyph-name="at" unicode="@" horiz-adv-x="1829" 
d="M1025 1096h291l-84 -652h3q105 0 172 75q75 81 75 247q0 147 -68 272q-118 217 -431 217q-207 0 -367 -89q-118 -64 -189 -190q-80 -140 -80 -311q0 -242 151 -393q161 -161 487 -161q112 0 205 15q94 15 259 60l74 -201q-21 -6 -40 -12t-29 -9t-12 -4q-213 -62 -468 -62
q-285 0 -500 115q-155 83 -248 251q-101 182 -101 399q0 230 109 420q101 174 265 267q211 118 479 118q233 0 400 -97q147 -85 233 -234q93 -161 93 -366q0 -219 -108 -359q-74 -96 -176.5 -139t-257.5 -43h-264q-87 0 -166.5 32.5t-131.5 90.5q-94 101 -94 270
q0 139 67 251q131 222 452 222zM914 443h92l56 440h-55q-145 0 -211 -75q-63 -70 -63 -181q0 -184 181 -184z" />
    <glyph glyph-name="A" unicode="A" horiz-adv-x="1330" 
d="M1027 0l-105 301h-516l-105 -301h-320l510 1365h347l510 -1365h-321zM503 582h322l-161 459z" />
    <glyph glyph-name="B" unicode="B" horiz-adv-x="1095" 
d="M533 0h-402v1365h340q202 0 315 -65q88 -50 140 -141q52 -88 52 -183q0 -136 -113 -244q175 -123 175 -321q0 -151 -105 -264q-73 -78 -167.5 -112.5t-234.5 -34.5zM425 1102v-284h68q96 0 134 20q67 37 67 123q0 77 -46 109t-155 32h-68zM425 577v-307h97q107 0 153 25
q73 40 73 128t-67 125q-52 29 -176 29h-80z" />
    <glyph glyph-name="C" unicode="C" horiz-adv-x="1381" 
d="M1339 1133l-216 -201q-69 75 -121 114q-101 71 -223 71q-186 0 -309 -139q-111 -124 -111 -296q0 -198 142 -325q121 -109 280 -109q98 0 177 43q80 42 171 145l216 -201q-100 -106 -188 -161q-169 -108 -373 -108q-202 0 -375 102q-162 94 -257 256q-98 167 -98 358
t97 357q98 167 262 261q171 99 372 99q159 0 291 -62q129 -62 263 -204z" />
    <glyph glyph-name="D" unicode="D" horiz-adv-x="1273" 
d="M131 0v1365h336q311 0 507 -152q245 -191 245 -529q0 -341 -245 -532q-38 -30 -72 -49q-190 -103 -435 -103h-336zM473 1084h-39v-803h39q110 0 201 33.5t145 94.5q96 107 96 272q0 239 -182 343q-105 60 -260 60z" />
    <glyph glyph-name="E" unicode="E" horiz-adv-x="1014" 
d="M131 1365h802v-278h-501v-256h446v-279h-446v-271h520v-281h-821v1365z" />
    <glyph glyph-name="F" unicode="F" horiz-adv-x="938" 
d="M131 1365h759v-279h-456v-254h416v-281h-416v-551h-303v1365z" />
    <glyph glyph-name="G" unicode="G" horiz-adv-x="1493" 
d="M756 501v277h680v-143q0 -218 -88 -369q-80 -137 -209 -210q-158 -90 -347 -90q-210 0 -384 102q-161 95 -256 256q-98 167 -98 358q0 192 97 358q98 166 261 260q172 99 378 99q158 0 287 -58q129 -59 273 -195l-216 -201q-71 71 -128 108q-98 64 -219 64
q-196 0 -317 -139q-111 -124 -111 -296q0 -196 141 -324q122 -110 290 -110q128 0 213 65.5t117 187.5h-364z" />
    <glyph glyph-name="H" unicode="H" horiz-adv-x="1339" 
d="M131 1365h303v-533h470v533h303v-1365h-303v551h-470v-551h-303v1365z" />
    <glyph glyph-name="I" unicode="I" horiz-adv-x="566" 
d="M131 1365h303v-1365h-303v1365z" />
    <glyph glyph-name="J" unicode="J" horiz-adv-x="883" 
d="M448 1365h303v-936q0 -96 -14 -163q-13 -63 -48 -125q-48 -81 -124 -124q-90 -51 -204 -51q-109 0 -200 44.5t-187 144.5l180 218q113 -125 193 -125q101 0 101 181v936z" />
    <glyph glyph-name="K" unicode="K" horiz-adv-x="1262" 
d="M1280 1365l-543 -580l523 -785h-358l-372 565l-96 -103v-462h-303v1365h303v-491l459 491h387z" />
    <glyph glyph-name="L" unicode="L" horiz-adv-x="913" 
d="M131 0v1365h303v-1084h481v-281h-784z" />
    <glyph glyph-name="M" unicode="M" horiz-adv-x="1636" 
d="M434 0h-303v1365h278l409 -713l409 713h277v-1365h-303v756l-275 -485h-217l-275 485v-756z" />
    <glyph glyph-name="N" unicode="N" horiz-adv-x="1450" 
d="M434 0h-303v1365h253l631 -828v828h303v-1365h-253l-631 828v-828z" />
    <glyph glyph-name="O" unicode="O" horiz-adv-x="1563" 
d="M782 1399q195 0 359 -95q173 -99 270 -264q99 -167 99 -358q0 -187 -95 -351q-94 -165 -263 -264q-173 -101 -376 -101q-191 0 -364 101q-169 99 -263 264q-95 166 -95 362q0 187 99 347q105 171 270 264q169 95 359 95zM779 1117q-181 0 -309 -141q-111 -123 -111 -301
q0 -113 57 -212q57 -100 159 -158q99 -57 207 -57t207 57q102 58 159 158t57 218q0 196 -143 327q-118 109 -283 109z" />
    <glyph glyph-name="P" unicode="P" horiz-adv-x="987" 
d="M468 475h-34v-475h-303v1365h337q189 0 299 -62q93 -53 149 -149q61 -103 61 -232q0 -179 -112 -304q-67 -76 -160 -109.5t-237 -33.5zM432 1088v-337h52q119 0 160 47q39 47 39 122q0 89 -47 128.5t-152 39.5h-52z" />
    <glyph glyph-name="Q" unicode="Q" horiz-adv-x="1558" 
d="M1238 -113l-151 147q-150 -68 -305 -68q-197 0 -370 101q-169 99 -263 264q-95 164 -95 351q0 192 99 358q97 166 270 264q169 95 359 95t359 -95q173 -98 270 -264q99 -168 99 -358q0 -209 -115 -385q-28 -43 -67 -85l122 -118zM856 258l-72 70l212 207l121 -117
q88 121 88 259q0 202 -143 331q-119 109 -280 109q-186 0 -312 -140q-111 -125 -111 -295q0 -196 143 -324q57 -50 128 -80t135 -30q34 0 91 10z" />
    <glyph glyph-name="R" unicode="R" horiz-adv-x="1164" 
d="M1144 0h-341l-265 478q-5 -1 -14 -1q-50 -2 -57 -2h-33v-475h-303v1365h336q208 0 325 -66q96 -55 155 -156q61 -103 61 -227q0 -174 -114 -296q-28 -32 -66 -57zM432 1088v-337h52q110 0 160 28q70 40 70 139q0 88 -55.5 129t-174.5 41h-52z" />
    <glyph glyph-name="S" unicode="S" horiz-adv-x="1085" 
d="M1007 1123l-251 -157q-47 73 -74 100q-49 52 -126 52q-70 0 -111 -47q-34 -40 -34 -86q0 -71 136 -122l124 -47q158 -60 238 -137q110 -105 110 -261q0 -195 -149 -329q-138 -123 -336 -123q-161 0 -286 86q-144 100 -198 339l297 79q5 -14 12 -48q43 -174 179 -174
q83 0 134 58q43 47 43 109q0 35 -20 61q-30 40 -152 87l-119 45q-314 120 -314 378q0 180 133 298q130 115 324 115q216 0 355 -157q43 -47 85 -119z" />
    <glyph glyph-name="T" unicode="T" horiz-adv-x="908" 
d="M-19 1365h945v-281h-321v-1084h-303v1084h-321v281z" />
    <glyph glyph-name="U" unicode="U" horiz-adv-x="1321" 
d="M131 1365h303v-835q0 -136 27 -183q23 -42 81 -71q55 -28 118 -28t119 28q56 29 81 71q26 47 26 183v835h303v-871q0 -173 -61 -276q-64 -108 -180 -176q-131 -76 -288 -76q-216 0 -371 135q-83 72 -121 166q-37 90 -37 227v871z" />
    <glyph glyph-name="V" unicode="V" horiz-adv-x="1223" 
d="M-19 1365h320l310 -940l311 940h319l-458 -1365h-345z" />
    <glyph glyph-name="W" unicode="W" horiz-adv-x="1797" 
d="M-19 1365h316l238 -807l239 807h248l240 -807l237 807h316l-411 -1365h-266l-240 808l-240 -808h-266z" />
    <glyph glyph-name="X" unicode="X" horiz-adv-x="1219" 
d="M1201 1365l-419 -654l456 -711h-349l-280 443l-282 -443h-346l456 709l-418 656h345l247 -388l247 388h343z" />
    <glyph glyph-name="Y" unicode="Y" horiz-adv-x="1157" 
d="M427 0v562l-459 803h340l271 -488l271 488h339l-459 -803v-562h-303z" />
    <glyph glyph-name="Z" unicode="Z" horiz-adv-x="1056" 
d="M1023 1365v-223l-607 -860h621v-282h-1022v224l617 861h-561v280h952z" />
    <glyph glyph-name="bracketleft" unicode="[" horiz-adv-x="668" 
d="M608 1506v-275h-173v-1331h173v-275h-470v1881h470z" />
    <glyph glyph-name="backslash" unicode="\" horiz-adv-x="1112" 
d="M80 1295l180 105l772 -1330l-181 -106z" />
    <glyph glyph-name="bracketright" unicode="]" horiz-adv-x="668" 
d="M233 1231h-173v275h470v-1881h-470v275h173v1331z" />
    <glyph glyph-name="asciicircum" unicode="^" horiz-adv-x="1209" 
d="M603 1106l-254 -433h-331l444 769h285l444 -769h-332z" />
    <glyph glyph-name="underscore" unicode="_" horiz-adv-x="1096" 
d="M-32 -342v270h1161v-270h-1161z" />
    <glyph glyph-name="grave" unicode="`" horiz-adv-x="975" 
d="M480 991l-352 329l269 134l279 -358z" />
    <glyph glyph-name="a" unicode="a" horiz-adv-x="1112" 
d="M1016 908v-908h-291v44q-109 -78 -227 -78q-116 0 -220 60q-107 62 -172 173q-67 115 -67 256q0 225 159 369q130 118 300 118q118 0 227 -78v44h291zM529 680q-84 0 -143 -62q-54 -58 -54 -167q0 -114 69 -174q55 -49 131 -49q87 0 142 61q54 59 54 167q0 117 -68 177
q-53 47 -131 47z" />
    <glyph glyph-name="b" unicode="b" horiz-adv-x="1112" 
d="M388 0h-291v1365h291v-502q109 79 227 79q199 0 335 -153q124 -139 124 -334q0 -225 -159 -371q-130 -118 -300 -118q-117 0 -227 78v-44zM578 680q-84 0 -139 -60q-54 -60 -54 -165q0 -120 68 -180q55 -47 128 -47q88 0 145 62q55 59 55 166q0 139 -96 196
q-47 28 -107 28z" />
    <glyph glyph-name="c" unicode="c" horiz-adv-x="935" 
d="M918 770l-179 -197q-64 64 -103 85q-41 22 -99 22q-94 0 -151 -62q-54 -58 -54 -163q0 -118 67 -178q55 -49 139 -49q61 0 105 25q48 27 101 89l179 -198q-72 -72 -129 -107q-116 -71 -257 -71q-230 0 -375 163q-123 138 -123 325q0 218 158 362q139 126 339 126
q109 0 196 -38q84 -39 186 -134z" />
    <glyph glyph-name="d" unicode="d" horiz-adv-x="1112" 
d="M1016 1365v-1365h-291v44q-109 -78 -227 -78q-116 0 -220 60q-107 62 -172 173q-67 115 -67 256q0 225 159 369q130 118 300 118q118 0 227 -79v502h291zM529 680q-84 0 -143 -62q-54 -58 -54 -166q0 -115 69 -175q55 -49 131 -49q87 0 142 61q54 59 54 167
q0 117 -68 177q-53 47 -131 47z" />
    <glyph glyph-name="e" unicode="e" horiz-adv-x="1011" 
d="M688 312l261 -101q-159 -245 -428 -245q-219 0 -357 155q-125 140 -125 334q0 222 158 366q131 121 313 121q205 0 340 -151q123 -137 123 -357q0 -28 -3 -75h-633q26 -73 68.5 -106t110.5 -33q113 0 172 92zM337 550h347q-24 74 -64.5 107t-108.5 33q-70 0 -111.5 -33.5
t-62.5 -106.5z" />
    <glyph glyph-name="f" unicode="f" horiz-adv-x="564" 
d="M552 649h-147v-649h-291v649h-82v259h82v152q0 180 91 259q74 65 189 65q70 0 155 -19v-259q-51 19 -89 19q-55 0 -55 -71v-146h147v-259z" />
    <glyph glyph-name="g" unicode="g" horiz-adv-x="1112" 
d="M724 -18v62q-112 -78 -227 -78q-197 0 -334 153q-125 140 -125 336q0 225 160 369q130 118 300 118q114 0 226 -78v44h292v-926q0 -233 -152 -370q-139 -124 -348 -124q-140 0 -249 58q-111 59 -221 190l198 186q12 -13 29 -35q58 -72 115.5 -104.5t127.5 -32.5
q101 0 156 61q52 58 52 171zM528 680q-84 0 -143 -62q-54 -58 -54 -166q0 -115 69 -175q55 -49 131 -49q87 0 142 61q54 59 54 167q0 117 -68 177q-53 47 -131 47z" />
    <glyph glyph-name="h" unicode="h" horiz-adv-x="1046" 
d="M388 1365v-494q91 71 200 71q133 0 234 -89q127 -112 127 -362v-491h-291v477q0 110 -23 154q-25 49 -103 49q-88 0 -119 -57q-25 -43 -25 -164v-459h-291v1365h291z" />
    <glyph glyph-name="i" unicode="i" horiz-adv-x="487" 
d="M243 1388q79 0 131 -57q43 -47 43 -111q0 -74 -56 -124q-49 -45 -117 -45q-73 0 -123 50q-51 49 -51 121q0 71 56 121q50 45 117 45zM98 908h291v-908h-291v908z" />
    <glyph glyph-name="j" unicode="j" horiz-adv-x="500" 
d="M111 908h291v-1085q0 -179 -91 -260q-74 -65 -185 -65q-74 0 -160 30v268q75 -29 110 -29q20 0 27.5 14.5t7.5 52.5v1074zM256 1388q78 0 131 -57q43 -47 43 -111q0 -74 -56 -124q-50 -45 -117 -45q-73 0 -123 50q-51 49 -51 121q0 71 56 121q49 45 117 45z" />
    <glyph glyph-name="k" unicode="k" horiz-adv-x="1024" 
d="M1039 908l-399 -386l413 -522h-363l-252 328l-50 -49v-279h-291v1365h291v-711l260 254h391z" />
    <glyph glyph-name="l" unicode="l" horiz-adv-x="489" 
d="M390 1365v-1365h-291v1365h291z" />
    <glyph glyph-name="m" unicode="m" horiz-adv-x="1548" 
d="M806 852q117 90 256 90q158 0 262 -95q69 -63 99 -146q29 -85 29 -215v-486h-291v471q0 119 -23 165q-24 44 -88 44q-75 0 -104 -53q-25 -46 -25 -173v-454h-291v471q0 117 -24 164q-22 45 -87 45q-77 0 -106 -53q-25 -46 -25 -173v-454h-291v908h289v-37
q53 40 95.5 55.5t98.5 15.5q116 0 226 -90z" />
    <glyph glyph-name="n" unicode="n" horiz-adv-x="1046" 
d="M388 908v-37q91 71 200 71q133 0 234 -89q127 -112 127 -362v-491h-291v477q0 110 -23 154q-25 49 -103 49q-88 0 -119 -57q-25 -43 -25 -163v-460h-291v908h291z" />
    <glyph glyph-name="o" unicode="o" horiz-adv-x="1065" 
d="M539 942q219 0 364 -162q123 -136 123 -325q0 -219 -159 -363q-139 -126 -335 -126q-224 0 -370 162q-123 138 -123 327q0 183 116 317q149 170 384 170zM531 680q-57 0 -103 -28q-96 -58 -96 -198q0 -117 68 -177q55 -49 133 -49q87 0 146 62q54 58 54 166
q0 116 -68 175q-55 49 -134 49z" />
    <glyph glyph-name="p" unicode="p" horiz-adv-x="1112" 
d="M97 -478v1386h291v-44q110 78 227 78t220 -60q107 -61 172 -173q67 -115 67 -256q0 -225 -159 -369q-130 -118 -300 -118q-117 0 -227 78v-522h-291zM581 680q-86 0 -141 -61q-55 -58 -55 -167q0 -117 68 -177q53 -47 130 -47q56 0 102 28q96 58 96 198q0 117 -69 177
q-55 49 -131 49z" />
    <glyph glyph-name="q" unicode="q" horiz-adv-x="1112" 
d="M725 908h291v-1386h-291v522q-109 -78 -227 -78q-116 0 -220 60q-108 62 -172 173q-67 115 -67 254q0 225 159 371q130 118 300 118q118 0 227 -78v44zM532 680q-86 0 -145 -62q-55 -58 -55 -167q0 -115 68 -174q56 -49 135 -49q83 0 139 60q54 60 54 165q0 118 -68 180
q-53 47 -128 47z" />
    <glyph glyph-name="r" unicode="r" horiz-adv-x="645" 
d="M388 908v-40q77 47 156 47q40 0 92 -9v-257q-59 8 -92 8q-92 0 -123 -45q-33 -46 -33 -172v-440h-291v908h291z" />
    <glyph glyph-name="s" unicode="s" horiz-adv-x="807" 
d="M28 239l250 89q58 -108 133 -108q66 0 66 58q0 19 -14 31t-56 29l-152 62q-79 33 -124 97t-45 145q0 128 98 214q100 86 244 86q218 0 338 -208l-235 -108q-45 66 -105 66q-61 0 -61 -45q0 -16 13 -26.5t52 -26.5l127 -48q211 -82 211 -255q0 -138 -106 -234
q-100 -91 -255 -91q-271 0 -379 273z" />
    <glyph glyph-name="t" unicode="t" horiz-adv-x="577" 
d="M526 649h-133v-332q0 -38 8 -52.5t27 -14.5q35 0 110 29v-269q-89 -29 -162 -29q-126 0 -201 83q-73 80 -73 241v344h-90v259h90v182l291 113v-295h133v-259z" />
    <glyph glyph-name="u" unicode="u" horiz-adv-x="1046" 
d="M658 0v36q-89 -70 -200 -70q-133 0 -234 89q-127 112 -127 362v491h291v-477q0 -110 23 -154q25 -49 103 -49q87 0 119 57q25 43 25 163v460h291v-908h-291z" />
    <glyph glyph-name="v" unicode="v" horiz-adv-x="967" 
d="M-31 908h308l207 -500l207 500h307l-385 -908h-259z" />
    <glyph glyph-name="w" unicode="w" horiz-adv-x="1339" 
d="M295 0l-326 908h305l145 -437l142 437h217l143 -437l145 437h304l-326 -908h-234l-141 428l-140 -428h-234z" />
    <glyph glyph-name="x" unicode="x" horiz-adv-x="1039" 
d="M1037 908l-341 -439l366 -469h-353l-189 246l-189 -246h-353l366 468l-342 440h353l166 -217l167 217h349z" />
    <glyph glyph-name="y" unicode="y" horiz-adv-x="973" 
d="M78 -478l235 527l-344 859h308l196 -503l224 503h307l-620 -1386h-306z" />
    <glyph glyph-name="z" unicode="z" horiz-adv-x="866" 
d="M60 908h769v-205l-394 -445h411v-258h-812v204l395 447h-369v257z" />
    <glyph glyph-name="braceleft" unicode="{" horiz-adv-x="672" 
d="M613 -100v-273q-107 -3 -129 -3q-153 0 -234 78q-83 80 -83 258v389q0 59 -16 75q-17 17 -91 33v229l49 12q34 9 46 28t12 65v379q0 178 83 258q80 79 231 79q33 0 132 -4v-273q-63 1 -105 1q-29 1 -36.5 -6t-7.5 -35v-413q0 -71 -14 -118t-49 -94q63 -81 63 -216v-409
q0 -28 8 -34t44 -6h97z" />
    <glyph glyph-name="bar" unicode="|" horiz-adv-x="1097" 
d="M406 -360v1851h284v-1851h-284z" />
    <glyph glyph-name="braceright" unicode="}" horiz-adv-x="672" 
d="M60 -373v273q25 1 61 1q17 0 36 -1h15q23 0 30 7.5t7 32.5v409q3 141 63 216q-28 37 -38 63q-25 57 -25 149v413q0 28 -7.5 35t-36.5 6q-43 0 -105 -1v273q99 4 132 4q151 0 231 -79q83 -80 83 -258v-379q0 -46 12 -65t46 -28l49 -12v-229q-74 -16 -91 -33
q-16 -16 -16 -75v-389q0 -178 -83 -258q-81 -78 -234 -78q-23 0 -129 3z" />
    <glyph glyph-name="asciitilde" unicode="~" horiz-adv-x="1477" 
d="M359 1096l-201 130q75 153 118 205q99 122 249 122q104 0 259 -76q117 -58 170 -58q32 0 50 12q26 17 39 36q20 27 73 115l203 -119q-77 -158 -131 -214q-49 -51 -115 -81.5t-127 -30.5t-127 22q-69 23 -198 81q-65 31 -109 31q-35 0 -64 -32q-25 -28 -89 -143z" />
    <glyph glyph-name="nbspace" unicode="&#xa0;" horiz-adv-x="447" 
 />
    <glyph glyph-name="exclamdown" unicode="&#xa1;" horiz-adv-x="651" 
d="M165 -377l25 988h271l25 -988h-321zM325 1019q79 0 131 -57q43 -47 43 -111q0 -74 -56 -124q-50 -44 -119 -44q-72 0 -122 50t-50 120q0 71 56 122q50 44 117 44z" />
    <glyph glyph-name="cent" unicode="&#xa2;" horiz-adv-x="1123" 
d="M737 211v-211h-298v221q-97 31 -173 100q-158 144 -158 362q0 159 90 284q91 125 241 176v222h298v-212q128 -34 250 -155l-180 -197q-61 62 -103 84q-44 23 -99 23q-94 0 -151 -62q-54 -58 -54 -164q0 -117 67 -177q56 -49 138 -49q60 0 107 26t101 88l179 -197
q-120 -125 -255 -162z" />
    <glyph glyph-name="sterling" unicode="&#xa3;" horiz-adv-x="1172" 
d="M518 821h402v-264h-347q14 -89 14 -140q0 -67 -37 -142h552v-275h-981v236q9 8 26.5 22t20.5 16q62 48 87.5 87.5t25.5 86.5q0 40 -13 109h-147v264h92q-7 63 -7 117q0 227 139 348q133 113 318 113q210 0 338 -146q43 -49 92 -128l-244 -153q-40 63 -76 100
q-51 51 -119 51q-148 0 -148 -190q0 -49 12 -112z" />
    <glyph glyph-name="currency" unicode="&#xa4;" horiz-adv-x="1590" 
d="M333 1328l186 -188q146 77 276 77t276 -77l185 188l178 -172l-190 -193q75 -148 75 -280q0 -131 -75 -279l189 -191l-173 -177l-188 190q-146 -78 -277 -78t-278 78l-187 -190l-174 177l189 191q-75 148 -75 279t75 280l-190 193zM790 954q-105 0 -177 -77
q-65 -71 -65 -197q0 -134 83 -208q68 -61 163 -61q110 0 181 77q66 72 66 197q0 136 -82 209q-68 60 -169 60z" />
    <glyph glyph-name="yen" unicode="&#xa5;" horiz-adv-x="1362" 
d="M226 656h249l-28 50h-221v209h102l-258 450h340l268 -483h6l268 483h339l-257 -450h101v-209h-221l-28 -50h249v-209h-303v-447h-303v447h-303v209z" />
    <glyph glyph-name="brokenbar" unicode="&#xa6;" horiz-adv-x="1097" 
d="M406 795v696h284v-696h-284zM406 -360v696h284v-696h-284z" />
    <glyph glyph-name="section" unicode="&#xa7;" horiz-adv-x="1202" 
d="M1003 130q65 -92 65 -215q0 -188 -134 -310q-128 -113 -341 -113q-334 0 -516 326l258 162q73 -115 117 -155q57 -51 151 -51q85 0 127 48q35 40 35 93q0 43 -32 72q-42 39 -153 81l-121 46q-322 121 -322 385q0 150 93 258q-71 95 -71 222q0 181 136 302
q133 118 335 118q146 0 253 -63q106 -63 199 -204l-256 -162q-21 30 -53 67q-42 48 -73 65q-31 16 -81 16q-80 0 -122 -50q-36 -44 -36 -93q0 -71 146 -127l127 -48q163 -63 245 -140q112 -106 112 -266q0 -140 -88 -264zM602 545l-121 47l-7 -9l-13 -13q-27 -28 -27 -71
q0 -29 18 -53q28 -37 132 -76l150 -57l23 -9q34 53 34 91q0 45 -38 77q-38 31 -151 73z" />
    <glyph glyph-name="dieresis" unicode="&#xa8;" horiz-adv-x="975" 
d="M681 1376q73 0 121 -53q40 -43 40 -103q0 -65 -47 -110q-47 -46 -115 -46q-66 0 -113 47t-47 112q0 66 52 112q47 41 109 41zM295 1376q71 0 121 -53q40 -43 40 -103q0 -69 -52 -115q-47 -41 -109 -41q-68 0 -114 46q-47 47 -47 113q0 61 48 108q46 45 113 45z" />
    <glyph glyph-name="copyright" unicode="&#xa9;" horiz-adv-x="1706" 
d="M1268 977l-168 -156q-64 73 -113 101t-111 28q-114 0 -190 -85q-68 -77 -68 -183q0 -122 87 -200q74 -67 172 -67q65 0 111 27q47 28 117 103l167 -155q-2 -2 -10 -9.5t-14 -13.5q-79 -80 -140 -113q-106 -58 -229 -58q-223 0 -370 163q-125 140 -125 323q0 129 66 243
q66 113 178 177q115 67 252 67q113 0 199 -42q85 -42 189 -150zM863 1466q204 0 381 -105q183 -108 287 -287q105 -178 105 -390t-105 -393q-104 -180 -287 -286q-182 -105 -391 -105t-391 105q-181 103 -287 286q-105 181 -105 389t105 394q135 237 398 340q132 52 290 52z
M847 1274q-153 0 -289 -79q-138 -80 -217 -216t-79 -296t79 -296q80 -137 217 -216q136 -79 295 -79t295 79q137 79 217 216q79 137 79 299q0 258 -196 436q-167 152 -401 152z" />
    <glyph glyph-name="ordfeminine" unicode="&#xaa;" horiz-adv-x="710" 
d="M653 1376v-545h-200v17q-64 -41 -129 -41q-127 0 -214 97q-74 82 -74 195q0 135 99 225q83 76 190 76q66 0 128 -41v17h200zM348 1222q-50 0 -81 -33.5t-31 -88.5q0 -53 30 -84.5t81 -31.5q49 0 78.5 33t29.5 89q0 52 -29.5 84t-77.5 32z" />
    <glyph glyph-name="guillemotleft" unicode="&#xab;" horiz-adv-x="1093" 
d="M1022 775l-252 -319l252 -312l-198 -157l-380 467l379 477zM620 774l-251 -319l252 -312l-198 -157l-380 468l379 476z" />
    <glyph glyph-name="logicalnot" unicode="&#xac;" horiz-adv-x="1437" 
d="M1333 771v-673h-281v405h-948v268h1229z" />
    <glyph glyph-name="uni00AD" unicode="&#xad;" horiz-adv-x="594" 
d="M43 338v268h509v-268h-509z" />
    <glyph glyph-name="registered" unicode="&#xae;" horiz-adv-x="1706" 
d="M865 1465q201 0 379 -105q183 -108 287 -287q105 -180 105 -390q0 -211 -105 -392q-104 -180 -287 -286q-182 -105 -391 -105t-391 105q-184 106 -287 286q-105 183 -105 398q0 338 260 574q220 202 535 202zM1222 222h-207l-172 310q-17 -1 -46 -1h-14v-309h-231v921
h254q140 0 219 -45q67 -39 108 -108q42 -71 42 -157q0 -132 -113 -233l196 -348q186 176 186 431q0 159 -79 295q-80 137 -217 216q-136 79 -295 79t-295 -79q-137 -79 -217 -216q-79 -136 -79 -296q0 -159 79 -295q79 -137 216 -216t296 -79q208 0 369 130zM782 929v-185
h35q71 0 102 21t31 69q0 51 -31 73t-102 22h-35z" />
    <glyph glyph-name="overscore" unicode="&#xaf;" horiz-adv-x="975" 
d="M143 1090v240h688v-240h-688z" />
    <glyph glyph-name="degree" unicode="&#xb0;" horiz-adv-x="664" 
d="M405 1525q126 0 216 -99q75 -82 75 -196q0 -132 -98 -221q-85 -76 -198 -76q-131 0 -220 98q-76 83 -76 198q0 127 87 209q90 87 214 87zM399 1334q-42 0 -73 -31t-31 -73q0 -44 31 -75t74 -31q44 0 74.5 31t30.5 75q0 43 -31 73.5t-75 30.5z" />
    <glyph glyph-name="plusminus" unicode="&#xb1;" horiz-adv-x="1139" 
d="M28 958h407v383h270v-383h406v-264h-406v-384h-270v384h-407v264zM28 264h1083v-264h-1083v264z" />
    <glyph glyph-name="twosuperior" unicode="&#xb2;" 
d="M696 831h-584v151l291 305q71 74 71 129q0 61 -76 61q-47 0 -66 -22q-20 -23 -41 -98l-193 51q23 97 64 151q35 47 98.5 74t137.5 27q144 0 220 -85q61 -67 61 -164q0 -119 -94 -216l-169 -178h280v-186z" />
    <glyph glyph-name="threesuperior" unicode="&#xb3;" 
d="M298 1165v176h86q86 0 86 68q0 69 -77 69q-37 0 -59 -15q-25 -18 -65 -70l-170 89q41 64 78 100q82 79 213 79q142 0 222 -89q62 -70 62 -160q0 -82 -62 -150q44 -46 61.5 -85t17.5 -93q0 -118 -87 -195q-89 -77 -217 -77q-246 0 -306 260l196 49q23 -77 44 -100
q22 -25 67 -25q44 0 70.5 24.5t26.5 64.5q0 80 -101 80h-86z" />
    <glyph glyph-name="acute" unicode="&#xb4;" horiz-adv-x="975" 
d="M579 1454l268 -134l-351 -329l-197 105z" />
    <glyph glyph-name="mu" unicode="&#xb5;" horiz-adv-x="1046" 
d="M388 -1v-477h-291v1386h291v-479q0 -108 23 -152q25 -49 103 -49q87 0 119 57q25 43 25 163v460h291v-908h-291v36q-42 -40 -74 -55t-76 -15q-63 0 -120 33z" />
    <glyph glyph-name="paragraph" unicode="&#xb6;" horiz-adv-x="1320" 
d="M786 1121v-1599h-253v877q-92 16 -148 39q-55 22 -111 72q-170 146 -170 370q0 218 158 361q136 124 328 124h660v-244h-126v-1599h-253v1599h-85z" />
    <glyph glyph-name="middot" unicode="&#xb7;" horiz-adv-x="544" 
d="M272 852q78 0 131 -57q43 -47 43 -111q0 -74 -56 -124q-50 -45 -119 -45q-77 0 -129 57q-43 47 -43 114q0 71 56 121q49 45 117 45z" />
    <glyph glyph-name="cedilla" unicode="&#xb8;" horiz-adv-x="975" 
d="M489 -32l262 -105l-290 -343l-211 98z" />
    <glyph glyph-name="onesuperior" unicode="&#xb9;" 
d="M532 1640v-809h-206v565l-78 -42l-100 162l230 124h154z" />
    <glyph glyph-name="ordmasculine" unicode="&#xba;" horiz-adv-x="695" 
d="M353 1399q138 0 231 -101q75 -82 75 -195q0 -130 -98 -217q-88 -79 -213 -79q-145 0 -237 101q-75 82 -75 197q0 126 98 215q88 79 219 79zM348 1222q-50 0 -80.5 -32.5t-30.5 -86.5t30.5 -86.5t80.5 -32.5t80 33t30 88q0 53 -30.5 85t-79.5 32z" />
    <glyph glyph-name="guillemotright" unicode="&#xbb;" horiz-adv-x="1093" 
d="M472 143l252 312l-251 319l198 156l379 -476l-379 -468zM71 144l252 312l-251 319l198 156l379 -477l-380 -467z" />
    <glyph glyph-name="onequarter" unicode="&#xbc;" horiz-adv-x="1707" 
d="M1253 843l171 -100l-270 -405h90v131h205v-131h75v-184h-75v-154h-205v154h-348v153zM308 59l775 1340l164 -94l-776 -1340zM472 1364v-808h-206v564l-78 -42l-100 162l230 124h154z" />
    <glyph glyph-name="onehalf" unicode="&#xbd;" horiz-adv-x="1707" 
d="M305 59l775 1340l164 -94l-776 -1340zM469 1364v-808h-206v564l-78 -42l-100 162l230 124h154zM1581 0h-584v150l291 306q71 74 71 129q0 61 -76 61q-47 0 -66 -22q-20 -23 -41 -98l-193 51q23 97 64 151q35 47 98.5 74t137.5 27q144 0 220 -85q61 -67 61 -164
q0 -119 -94 -216l-169 -178h280v-186z" />
    <glyph glyph-name="threequarters" unicode="&#xbe;" horiz-adv-x="1707" 
d="M1328 843l171 -100l-269 -405h89v131h205v-131h75v-184h-75v-154h-205v154h-348v153zM428 59l775 1340l164 -94l-776 -1340zM293 889v176h86q86 0 86 67q0 69 -77 69q-37 0 -59 -14q-23 -16 -65 -70l-170 89q39 62 78 99q82 79 213 79q142 0 222 -89q62 -68 62 -159
q0 -83 -62 -150q44 -46 61.5 -85t17.5 -93q0 -118 -87 -195q-89 -77 -217 -77q-246 0 -306 260l196 49q23 -77 44 -100q22 -25 67 -25q44 0 70.5 24t26.5 65q0 80 -101 80h-86z" />
    <glyph glyph-name="questiondown" unicode="&#xbf;" horiz-adv-x="916" 
d="M345 611h300v-122q0 -102 -27 -159q-28 -58 -109 -125l-81 -68q-92 -77 -92 -152q0 -54 35 -84t97 -30q69 0 112 31q44 32 111 126l223 -178q-56 -92 -117 -148q-128 -113 -324 -113q-222 0 -340 132q-97 109 -97 263q0 97 32 163q44 91 147 186l91 84q25 23 32 38.5
t7 48.5v107zM496 1019q74 0 124 -49q50 -50 50 -122q0 -71 -56 -121q-50 -44 -118 -44q-78 0 -130 57q-43 46 -43 111q0 73 56 123q49 45 117 45z" />
    <glyph glyph-name="Agrave" unicode="&#xc0;" horiz-adv-x="1330" 
d="M1027 0l-105 301h-516l-105 -301h-320l510 1365h347l510 -1365h-321zM503 582h322l-161 459zM651 1420l-352 328l269 134l280 -358z" />
    <glyph glyph-name="Aacute" unicode="&#xc1;" horiz-adv-x="1330" 
d="M756 1882l268 -134l-351 -328l-197 104zM1027 0l-105 301h-516l-105 -301h-320l510 1365h347l510 -1365h-321zM503 582h322l-161 459z" />
    <glyph glyph-name="Acircumflex" unicode="&#xc2;" horiz-adv-x="1330" 
d="M1027 0l-105 301h-516l-105 -301h-320l510 1365h347l510 -1365h-321zM503 582h322l-161 459zM665 1580l-177 -159l-222 102l312 318h173l312 -318l-221 -102z" />
    <glyph glyph-name="Atilde" unicode="&#xc3;" horiz-adv-x="1330" 
d="M1027 0l-105 301h-516l-105 -301h-320l510 1365h347l510 -1365h-321zM503 582h322l-161 459zM770 1805l242 -52q-9 -118 -43 -172q-26 -43 -76 -68.5t-109 -25.5q-79 0 -166 41q-23 12 -38 12q-10 0 -14.5 -12.5t-11.5 -57.5l-236 52q10 111 49 173q26 41 74 67t99 26
q83 0 175 -47q20 -11 33 -11q10 0 14 13.5t8 61.5z" />
    <glyph glyph-name="Adieresis" unicode="&#xc4;" horiz-adv-x="1330" 
d="M1027 0l-105 301h-516l-105 -301h-320l510 1365h347l510 -1365h-321zM503 582h322l-161 459zM858 1793q73 0 121 -53q40 -43 40 -103q0 -69 -52 -115q-47 -41 -109 -41q-68 0 -114 46q-47 47 -47 112q0 63 48 109q47 45 113 45zM472 1793q73 0 121 -53q40 -43 40 -103
q0 -69 -52 -115q-47 -41 -109 -41q-68 0 -114 46q-47 47 -47 112q0 63 48 109q47 45 113 45z" />
    <glyph glyph-name="Aring" unicode="&#xc5;" horiz-adv-x="1330" 
d="M664 1863q111 0 186 -82q62 -70 62 -162q0 -108 -81 -180q-70 -64 -166 -64q-102 0 -175 71q-73 72 -73 177q0 102 81 177q69 63 166 63zM664 1725q-44 0 -74.5 -31.5t-30.5 -75.5q0 -43 31 -74t74 -31q44 0 75 31t31 75t-31 75t-75 31zM1027 0l-105 301h-516l-105 -301
h-320l510 1365h347l510 -1365h-321zM503 582h322l-161 459z" />
    <glyph glyph-name="AE" unicode="&#xc6;" horiz-adv-x="1743" 
d="M860 0v301h-383l-156 -301h-340l723 1365h958v-278h-501v-256h445v-279h-445v-271h520v-281h-821zM624 582h236v440h-7z" />
    <glyph glyph-name="Ccedilla" unicode="&#xc7;" horiz-adv-x="1381" 
d="M1339 1133l-216 -201q-69 75 -121 114q-101 71 -223 71q-186 0 -309 -139q-111 -124 -111 -296q0 -198 142 -325q121 -109 280 -109q98 0 177 43q80 42 171 145l216 -201q-100 -106 -188 -161q-169 -108 -373 -108q-202 0 -375 102q-162 94 -257 256q-98 167 -98 358
t97 357q98 167 262 261q171 99 372 99q159 0 291 -62q129 -62 263 -204zM691 -32l262 -105l-291 -343l-211 98z" />
    <glyph glyph-name="Egrave" unicode="&#xc8;" horiz-adv-x="1014" 
d="M131 1365h802v-278h-501v-256h446v-279h-446v-271h520v-281h-821v1365zM545 1420l-352 328l269 134l280 -358z" />
    <glyph glyph-name="Eacute" unicode="&#xc9;" horiz-adv-x="1014" 
d="M131 1365h802v-278h-501v-256h446v-279h-446v-271h520v-281h-821v1365zM622 1882l269 -134l-352 -328l-197 104z" />
    <glyph glyph-name="Ecircumflex" unicode="&#xca;" horiz-adv-x="1014" 
d="M131 1365h802v-278h-501v-256h446v-279h-446v-271h520v-281h-821v1365zM542 1580l-177 -159l-221 102l312 318h172l312 -318l-221 -102z" />
    <glyph glyph-name="Edieresis" unicode="&#xcb;" horiz-adv-x="1014" 
d="M131 1365h802v-278h-501v-256h446v-279h-446v-271h520v-281h-821v1365zM735 1793q73 0 121 -53q40 -43 40 -103q0 -65 -47 -110q-46 -46 -115 -46q-67 0 -113 46q-47 47 -47 113q0 62 48 108q46 45 113 45zM349 1793q73 0 121 -53q40 -43 40 -103q0 -69 -52 -115
q-47 -41 -109 -41q-68 0 -114 46q-47 47 -47 112q0 63 48 109q47 45 113 45z" />
    <glyph glyph-name="Igrave" unicode="&#xcc;" horiz-adv-x="566" 
d="M131 1365h303v-1365h-303v1365zM252 1420l-352 328l269 134l279 -358z" />
    <glyph glyph-name="Iacute" unicode="&#xcd;" horiz-adv-x="566" 
d="M131 1365h303v-1365h-303v1365zM382 1882l268 -134l-351 -328l-197 104z" />
    <glyph glyph-name="Icircumflex" unicode="&#xce;" horiz-adv-x="566" 
d="M132 1365h303v-1365h-303v1365zM283 1580l-177 -159l-221 102l312 318h173l311 -318l-221 -102z" />
    <glyph glyph-name="Idieresis" unicode="&#xcf;" horiz-adv-x="566" 
d="M132 1365h303v-1365h-303v1365zM106 1793q73 0 121 -53q40 -43 40 -103q0 -69 -52 -115q-47 -41 -109 -41q-68 0 -115 46q-46 46 -46 112q0 62 47 109q48 45 114 45zM461 1793q73 0 121 -53q40 -43 40 -103q0 -69 -52 -115q-47 -41 -110 -41q-67 0 -113 46
q-47 47 -47 113q0 62 48 108q46 45 113 45z" />
    <glyph glyph-name="Eth" unicode="&#xd0;" horiz-adv-x="1298" 
d="M33 869h124v496h336q311 0 507 -152q245 -191 245 -530q0 -340 -245 -531q-38 -30 -72 -49q-190 -103 -435 -103h-336v592h-124v277zM460 1084v-215h292v-277h-292v-311h40q108 0 199.5 33.5t146.5 93.5q95 107 95 273q0 238 -182 342q-106 61 -259 61h-40z" />
    <glyph glyph-name="Ntilde" unicode="&#xd1;" horiz-adv-x="1450" 
d="M434 0h-303v1365h253l631 -828v828h303v-1365h-253l-631 828v-828zM844 1805l242 -52q-9 -118 -43 -172q-26 -43 -76 -68.5t-108 -25.5q-81 0 -166 41q-24 12 -38 12q-10 0 -15 -13t-12 -57l-236 52q10 111 49 173q27 42 75 67.5t99 25.5q82 0 174 -47q22 -11 33 -11
t14.5 12.5t7.5 62.5z" />
    <glyph glyph-name="Ograve" unicode="&#xd2;" horiz-adv-x="1563" 
d="M771 1420l-352 328l269 134l280 -358zM782 1399q195 0 359 -95q173 -99 270 -264q99 -167 99 -358q0 -187 -95 -351q-94 -165 -263 -264q-173 -101 -376 -101q-191 0 -364 101q-169 99 -263 264q-95 166 -95 362q0 187 99 347q105 171 270 264q169 95 359 95zM779 1117
q-181 0 -309 -141q-111 -123 -111 -301q0 -113 57 -212q57 -100 159 -158q99 -57 207 -57t207 57q102 58 159 158t57 218q0 196 -143 327q-118 109 -283 109z" />
    <glyph glyph-name="Oacute" unicode="&#xd3;" horiz-adv-x="1563" 
d="M782 1399q195 0 359 -95q173 -99 270 -264q99 -167 99 -358q0 -187 -95 -351q-94 -165 -263 -264q-173 -101 -376 -101q-191 0 -364 101q-169 99 -263 264q-95 166 -95 362q0 187 99 347q105 171 270 264q169 95 359 95zM779 1117q-181 0 -309 -141q-111 -123 -111 -301
q0 -113 57 -212q57 -100 159 -158q99 -57 207 -57t207 57q102 58 159 158t57 218q0 196 -143 327q-118 109 -283 109zM877 1882l269 -134l-352 -328l-196 104z" />
    <glyph glyph-name="Ocircumflex" unicode="&#xd4;" horiz-adv-x="1563" 
d="M782 1399q195 0 359 -95q173 -99 270 -264q99 -167 99 -358q0 -187 -95 -351q-94 -165 -263 -264q-173 -101 -376 -101q-191 0 -364 101q-169 99 -263 264q-95 166 -95 362q0 187 99 347q105 171 270 264q169 95 359 95zM779 1117q-181 0 -309 -141q-111 -123 -111 -301
q0 -113 57 -212q57 -100 159 -158q99 -57 207 -57t207 57q102 58 159 158t57 218q0 196 -143 327q-118 109 -283 109zM782 1580l-177 -159l-221 102l312 318h172l312 -318l-221 -102z" />
    <glyph glyph-name="Otilde" unicode="&#xd5;" horiz-adv-x="1563" 
d="M782 1399q195 0 359 -95q173 -99 270 -264q99 -167 99 -358q0 -187 -95 -351q-94 -165 -263 -264q-173 -101 -376 -101q-191 0 -364 101q-169 99 -263 264q-95 166 -95 362q0 187 99 347q105 171 270 264q169 95 359 95zM779 1117q-181 0 -309 -141q-111 -123 -111 -301
q0 -113 57 -212q57 -100 159 -158q99 -57 207 -57t207 57q102 58 159 158t57 218q0 196 -143 327q-118 109 -283 109zM887 1805l242 -52q-9 -116 -43 -172q-26 -43 -76 -68.5t-108 -25.5q-79 0 -166 41q-24 12 -38 12q-10 0 -14.5 -11.5t-12.5 -58.5l-236 52q10 111 49 173
q27 42 74.5 67.5t99.5 25.5q82 0 174 -47q22 -11 33 -11t14.5 13t7.5 62z" />
    <glyph glyph-name="Odieresis" unicode="&#xd6;" horiz-adv-x="1563" 
d="M782 1399q195 0 359 -95q173 -99 270 -264q99 -167 99 -358q0 -187 -95 -351q-94 -165 -263 -264q-173 -101 -376 -101q-191 0 -364 101q-169 99 -263 264q-95 166 -95 362q0 187 99 347q105 171 270 264q169 95 359 95zM779 1117q-181 0 -309 -141q-111 -123 -111 -301
q0 -113 57 -212q57 -100 159 -158q99 -57 207 -57t207 57q102 58 159 158t57 218q0 196 -143 327q-118 109 -283 109zM975 1793q73 0 121 -53q40 -43 40 -103q0 -65 -47 -110q-47 -46 -115 -46q-67 0 -113 46q-47 47 -47 113q0 62 48 108q46 45 113 45zM589 1793
q73 0 121 -53q40 -43 40 -103q0 -69 -52 -115q-47 -41 -109 -41q-68 0 -114 46q-47 47 -47 112q0 63 48 109q47 45 113 45z" />
    <glyph glyph-name="multiply" unicode="&#xd7;" horiz-adv-x="1139" 
d="M92 350l289 289l-289 289l188 188l289 -289l289 289l188 -188l-289 -289l289 -289l-188 -188l-289 289l-289 -289z" />
    <glyph glyph-name="Oslash" unicode="&#xd8;" horiz-adv-x="1578" 
d="M1334 1372l166 -160l-119 -116q136 -187 136 -413q0 -186 -95 -352q-94 -165 -263 -264q-173 -101 -370 -101q-115 0 -228 37t-201 103l-117 -113l-165 160l119 115q-136 190 -136 412q0 187 95 353q100 174 274 271q169 95 362 95q223 0 426 -140zM1162 885l-590 -573
q103 -64 217 -64q109 0 206 57q102 58 160 158q57 99 57 218q0 107 -50 204zM415 480l592 574q-101 63 -218 63q-187 0 -312 -140q-111 -125 -111 -296q0 -110 49 -201z" />
    <glyph glyph-name="Ugrave" unicode="&#xd9;" horiz-adv-x="1321" 
d="M131 1365h303v-835q0 -136 27 -183q23 -42 81 -71q55 -28 118 -28t119 28q56 29 81 71q26 47 26 183v835h303v-871q0 -173 -61 -276q-64 -108 -180 -176q-131 -76 -288 -76q-216 0 -371 135q-83 72 -121 166q-37 90 -37 227v871zM648 1420l-352 328l269 134l280 -358z
" />
    <glyph glyph-name="Uacute" unicode="&#xda;" horiz-adv-x="1321" 
d="M131 1365h303v-835q0 -136 27 -183q23 -42 81 -71q55 -28 118 -28t119 28q56 29 81 71q26 47 26 183v835h303v-871q0 -173 -61 -276q-64 -108 -180 -176q-131 -76 -288 -76q-216 0 -371 135q-83 72 -121 166q-37 90 -37 227v871zM755 1882l269 -134l-352 -328l-197 104z
" />
    <glyph glyph-name="Ucircumflex" unicode="&#xdb;" horiz-adv-x="1321" 
d="M131 1365h303v-835q0 -136 27 -183q23 -42 81 -71q55 -28 118 -28t119 28q56 29 81 71q26 47 26 183v835h303v-871q0 -173 -61 -276q-64 -108 -180 -176q-131 -76 -288 -76q-216 0 -371 135q-83 72 -121 166q-37 90 -37 227v871zM660 1580l-177 -159l-221 102l312 318
h172l312 -318l-221 -102z" />
    <glyph glyph-name="Udieresis" unicode="&#xdc;" horiz-adv-x="1321" 
d="M131 1365h303v-835q0 -136 27 -183q23 -42 81 -71q55 -28 118 -28t119 28q56 29 81 71q26 47 26 183v835h303v-871q0 -173 -61 -276q-64 -108 -180 -176q-131 -76 -288 -76q-216 0 -371 135q-83 72 -121 166q-37 90 -37 227v871zM853 1793q73 0 121 -53q40 -43 40 -103
q0 -69 -52 -115q-47 -41 -109 -41q-68 0 -114 46q-47 47 -47 112q0 63 48 109q46 45 113 45zM467 1793q73 0 121 -53q40 -43 40 -103q0 -65 -47 -110q-46 -46 -115 -46q-67 0 -113 46q-47 47 -47 113q0 62 48 108q46 45 113 45z" />
    <glyph glyph-name="Yacute" unicode="&#xdd;" horiz-adv-x="1157" 
d="M427 0v562l-459 803h340l271 -488l271 488h339l-459 -803v-562h-303zM674 1882l268 -134l-351 -328l-197 104z" />
    <glyph glyph-name="Thorn" unicode="&#xde;" horiz-adv-x="987" 
d="M434 1365v-166h34q190 0 299 -61q93 -53 149 -149q61 -104 61 -233q0 -179 -112 -304q-67 -76 -160 -109t-237 -33h-34v-310h-303v1365h303zM484 922h-52v-337h52q119 0 160 47q39 46 39 122q0 89 -47 128.5t-152 39.5z" />
    <glyph glyph-name="germandbls" unicode="&#xdf;" horiz-adv-x="1094" 
d="M545 0h-98v264h104q99 0 149 59q43 49 43 116q0 158 -197 158h-59v260h59q56 0 77 27q30 38 30 106q0 151 -133 151q-62 0 -97 -40t-35 -111v-990h-291v990q0 236 198 352q97 57 216 57q126 0 231 -57q91 -49 144 -142q52 -92 52 -206q0 -118 -78 -224q174 -128 174 -337
q0 -189 -137 -314q-131 -119 -352 -119z" />
    <glyph glyph-name="agrave" unicode="&#xe0;" horiz-adv-x="1112" 
d="M1016 908v-908h-291v44q-109 -78 -227 -78q-116 0 -220 60q-107 62 -172 173q-67 115 -67 256q0 225 159 369q130 118 300 118q118 0 227 -78v44h291zM529 680q-84 0 -143 -62q-54 -58 -54 -167q0 -114 69 -174q55 -49 131 -49q87 0 142 61q54 59 54 167q0 117 -68 177
q-53 47 -131 47zM517 993l-350 328l267 133l278 -357z" />
    <glyph glyph-name="aacute" unicode="&#xe1;" horiz-adv-x="1112" 
d="M635 1455l268 -134l-351 -329l-197 105zM1016 908v-908h-291v44q-109 -78 -227 -78q-116 0 -220 60q-107 62 -172 173q-67 115 -67 256q0 225 159 369q130 118 300 118q118 0 227 -78v44h291zM529 680q-84 0 -143 -62q-54 -58 -54 -167q0 -114 69 -174q55 -49 131 -49
q87 0 142 61q54 59 54 167q0 117 -68 177q-53 47 -131 47z" />
    <glyph glyph-name="acircumflex" unicode="&#xe2;" horiz-adv-x="1112" 
d="M1016 908v-908h-291v44q-109 -78 -227 -78q-116 0 -220 60q-107 62 -172 173q-67 115 -67 256q0 225 159 369q130 118 300 118q118 0 227 -78v44h291zM529 680q-84 0 -143 -62q-54 -58 -54 -167q0 -114 69 -174q55 -49 131 -49q87 0 142 61q54 59 54 167q0 117 -68 177
q-53 47 -131 47zM925 1096l-220 -101l-177 167l-177 -167l-220 101l311 317h172z" />
    <glyph glyph-name="atilde" unicode="&#xe3;" horiz-adv-x="1112" 
d="M1016 908v-908h-291v44q-109 -78 -227 -78q-116 0 -220 60q-107 62 -172 173q-67 115 -67 256q0 225 159 369q130 118 300 118q118 0 227 -78v44h291zM529 680q-84 0 -143 -62q-54 -58 -54 -167q0 -114 69 -174q55 -49 131 -49q87 0 142 61q54 59 54 167q0 117 -68 177
q-53 47 -131 47zM633 1377l242 -52q-9 -118 -43 -172q-26 -43 -76 -68.5t-109 -25.5q-80 0 -165 41q-24 12 -39 12q-9 0 -14 -12.5t-12 -56.5l-236 51q10 111 49 173q26 41 74 67t100 26q82 0 174 -47q22 -11 33 -11t14.5 13t7.5 62z" />
    <glyph glyph-name="adieresis" unicode="&#xe4;" horiz-adv-x="1112" 
d="M1016 908v-908h-291v44q-109 -78 -227 -78q-116 0 -220 60q-107 62 -172 173q-67 115 -67 256q0 225 159 369q130 118 300 118q118 0 227 -78v44h291zM529 680q-84 0 -143 -62q-54 -58 -54 -167q0 -114 69 -174q55 -49 131 -49q87 0 142 61q54 59 54 167q0 117 -68 177
q-53 47 -131 47zM738 1376q71 0 121 -53q40 -43 40 -103q0 -69 -52 -115q-47 -41 -109 -41q-68 0 -114 46q-47 47 -47 113q0 61 48 108q47 45 113 45zM352 1376q68 0 114 -45q47 -47 47 -111q0 -69 -52 -115q-47 -41 -109 -41q-68 0 -114 46q-47 47 -47 112q0 67 52 113
q47 41 109 41z" />
    <glyph glyph-name="aring" unicode="&#xe5;" horiz-adv-x="1112" 
d="M551 1454q111 0 186 -82q62 -70 62 -162q0 -108 -81 -180q-70 -64 -168 -64q-110 0 -183 82q-63 71 -63 166q0 101 81 176q68 64 166 64zM551 1316q-44 0 -74.5 -31.5t-30.5 -76.5q0 -41 32 -73q31 -31 73 -31q44 0 75 31t31 75t-31 75t-75 31zM1016 908v-908h-291v44
q-109 -78 -227 -78q-116 0 -220 60q-107 62 -172 173q-67 115 -67 256q0 225 159 369q130 118 300 118q118 0 227 -78v44h291zM529 680q-84 0 -143 -62q-54 -58 -54 -167q0 -114 69 -174q55 -49 131 -49q87 0 142 61q54 59 54 167q0 117 -68 177q-53 47 -131 47z" />
    <glyph glyph-name="ae" unicode="&#xe6;" horiz-adv-x="1610" 
d="M809 832q131 111 296 111q208 0 343 -151q123 -138 123 -355q0 -8 -2 -78h-633q26 -73 68.5 -106t110.5 -33q111 0 171 92l262 -101q-159 -245 -432 -245q-174 0 -301 106q-118 -106 -331 -106q-172 0 -287 67q-159 90 -159 254q0 150 133 228q109 64 285 64h168
q-39 112 -151 112q-128 0 -273 -91l-152 189q121 84 218 119q100 35 219 35q210 0 324 -111zM936 550h347q-19 62 -49 94q-47 47 -125 47q-135 0 -173 -141zM638 316v71h-156q-157 0 -157 -84q0 -35 26 -55q41 -33 129 -33q158 0 158 101z" />
    <glyph glyph-name="ccedilla" unicode="&#xe7;" horiz-adv-x="935" 
d="M441 -32l262 -105l-291 -343l-211 98zM918 770l-179 -197q-59 61 -102 84q-44 23 -100 23q-94 0 -151 -62q-54 -58 -54 -164q0 -117 67 -177q55 -49 138 -49q60 0 107 26t100 88l179 -198q-169 -178 -387 -178q-229 0 -374 163q-123 138 -123 325q0 218 158 361
q139 127 338 127q111 0 201.5 -40.5t181.5 -131.5z" />
    <glyph glyph-name="egrave" unicode="&#xe8;" horiz-adv-x="1011" 
d="M505 991l-351 329l268 134l280 -358zM688 312l261 -101q-159 -245 -428 -245q-219 0 -357 155q-125 140 -125 334q0 222 158 366q131 121 313 121q205 0 340 -151q123 -137 123 -357q0 -28 -3 -75h-633q26 -73 68.5 -106t110.5 -33q113 0 172 92zM337 550h347
q-24 74 -64.5 107t-108.5 33q-70 0 -111.5 -33.5t-62.5 -106.5z" />
    <glyph glyph-name="eacute" unicode="&#xe9;" horiz-adv-x="1011" 
d="M590 1454l268 -134l-352 -329l-196 105zM688 312l261 -101q-159 -245 -428 -245q-219 0 -357 155q-125 140 -125 334q0 222 158 366q131 121 313 121q205 0 340 -151q123 -137 123 -357q0 -28 -3 -75h-633q26 -73 68.5 -106t110.5 -33q113 0 172 92zM337 550h347
q-24 74 -64.5 107t-108.5 33q-70 0 -111.5 -33.5t-62.5 -106.5z" />
    <glyph glyph-name="ecircumflex" unicode="&#xea;" horiz-adv-x="1011" 
d="M688 312l261 -101q-159 -245 -428 -245q-219 0 -357 155q-125 140 -125 334q0 222 158 366q131 121 313 121q205 0 340 -151q123 -137 123 -357q0 -28 -3 -75h-633q26 -73 68.5 -106t110.5 -33q113 0 172 92zM337 550h347q-24 74 -64.5 107t-108.5 33q-70 0 -111.5 -33.5
t-62.5 -106.5zM902 1096l-220 -101l-177 167l-177 -167l-220 101l311 317h172z" />
    <glyph glyph-name="edieresis" unicode="&#xeb;" horiz-adv-x="1011" 
d="M688 312l261 -101q-159 -245 -428 -245q-219 0 -357 155q-125 140 -125 334q0 222 158 366q131 121 313 121q205 0 340 -151q123 -137 123 -357q0 -28 -3 -75h-633q26 -73 68.5 -106t110.5 -33q113 0 172 92zM337 550h347q-24 74 -64.5 107t-108.5 33q-70 0 -111.5 -33.5
t-62.5 -106.5zM699 1376q71 0 121 -53q40 -43 40 -103q0 -69 -52 -115q-47 -41 -109 -41q-68 0 -114 46q-47 47 -47 112q0 67 52 113q47 41 109 41zM313 1376q73 0 121 -53q40 -43 40 -103q0 -69 -52 -115q-47 -41 -109 -41q-68 0 -114 46q-47 47 -47 112q0 62 48 109
q46 45 113 45z" />
    <glyph glyph-name="igrave" unicode="&#xec;" horiz-adv-x="487" 
d="M221 991l-352 329l269 134l279 -358zM98 908h291v-908h-291v908z" />
    <glyph glyph-name="iacute" unicode="&#xed;" horiz-adv-x="487" 
d="M350 1454l268 -134l-351 -329l-197 105zM98 908h291v-908h-291v908z" />
    <glyph glyph-name="icircumflex" unicode="&#xee;" horiz-adv-x="487" 
d="M98 908h291v-908h-291v908zM640 1096l-219 -101l-177 167l-177 -167l-220 101l311 317h172z" />
    <glyph glyph-name="idieresis" unicode="&#xef;" horiz-adv-x="487" 
d="M98 908h291v-908h-291v908zM420 1376q71 0 121 -53q40 -43 40 -103q0 -69 -52 -115q-47 -41 -109 -41q-68 0 -114 46q-47 47 -47 112q0 67 52 113q47 41 109 41zM65 1376q71 0 121 -53q40 -43 40 -103q0 -69 -52 -115q-47 -41 -109 -41q-69 0 -115 46t-46 113
q0 61 47 108q48 45 114 45z" />
    <glyph glyph-name="eth" unicode="&#xf0;" horiz-adv-x="1068" 
d="M948 1343l-188 -96q110 -135 165 -258q104 -232 104 -474q0 -287 -166 -428q-142 -121 -331 -121q-224 0 -370 162q-123 138 -123 326q0 220 159 362q140 126 329 126q67 0 142 -20l-3 6q-90 128 -151 194l-199 -101l-191 171l143 72q-85 31 -180 59l141 206
q176 -46 328 -121l212 105zM531 680q-57 0 -103 -28q-96 -58 -96 -198q0 -117 68 -177q55 -49 133 -49q87 0 146 62q54 58 54 166q0 116 -68 175q-55 49 -134 49z" />
    <glyph glyph-name="ntilde" unicode="&#xf1;" horiz-adv-x="1046" 
d="M388 908v-37q91 71 200 71q133 0 234 -89q127 -112 127 -362v-491h-291v477q0 110 -23 154q-25 49 -103 49q-88 0 -119 -57q-25 -43 -25 -163v-460h-291v908h291zM635 1377l242 -52q-9 -118 -43 -172q-26 -43 -76 -68.5t-109 -25.5q-80 0 -165 41q-24 12 -39 12
q-9 0 -14 -12.5t-12 -56.5l-236 51q10 111 49 173q27 42 75 67.5t99 25.5q82 0 174 -47q22 -11 33 -11t14.5 13t7.5 62z" />
    <glyph glyph-name="ograve" unicode="&#xf2;" horiz-adv-x="1065" 
d="M522 993l-350 328l266 133l279 -357zM541 942q217 0 362 -162q123 -136 123 -325q0 -219 -159 -363q-139 -126 -334 -126q-225 0 -371 162q-123 138 -123 330q0 212 159 358q138 126 343 126zM529 680q-84 0 -143 -62q-54 -58 -54 -167q0 -114 68 -174q55 -49 133 -49
q87 0 146 62q54 58 54 166q0 116 -68 175q-55 49 -136 49z" />
    <glyph glyph-name="oacute" unicode="&#xf3;" horiz-adv-x="1065" 
d="M627 1454l267 -133l-351 -328l-195 104zM541 942q217 0 362 -162q123 -136 123 -325q0 -219 -159 -363q-139 -126 -334 -126q-225 0 -371 162q-123 138 -123 330q0 212 159 358q138 126 343 126zM529 680q-84 0 -143 -62q-54 -58 -54 -167q0 -114 68 -174q55 -49 133 -49
q87 0 146 62q54 58 54 166q0 116 -68 175q-55 49 -136 49z" />
    <glyph glyph-name="ocircumflex" unicode="&#xf4;" horiz-adv-x="1065" 
d="M929 1096l-219 -101l-177 167l-178 -167l-219 101l311 317h172zM541 942q217 0 362 -162q123 -136 123 -325q0 -219 -159 -363q-139 -126 -334 -126q-225 0 -371 162q-123 138 -123 330q0 212 159 358q138 126 343 126zM529 680q-84 0 -143 -62q-54 -58 -54 -167
q0 -114 68 -174q55 -49 133 -49q87 0 146 62q54 58 54 166q0 116 -68 175q-55 49 -136 49z" />
    <glyph glyph-name="otilde" unicode="&#xf5;" horiz-adv-x="1065" 
d="M638 1377l242 -52q-9 -118 -43 -172q-26 -43 -76 -68.5t-109 -25.5q-81 0 -166 41q-22 12 -38 12q-10 0 -14.5 -12.5t-11.5 -56.5l-236 51q10 111 49 173q26 41 74 67t99 26q83 0 175 -47q20 -11 33 -11q10 0 14 14t8 61zM541 942q217 0 362 -162q123 -136 123 -325
q0 -219 -159 -363q-139 -126 -334 -126q-225 0 -371 162q-123 138 -123 330q0 212 159 358q138 126 343 126zM529 680q-84 0 -143 -62q-54 -58 -54 -167q0 -114 68 -174q55 -49 133 -49q87 0 146 62q54 58 54 166q0 116 -68 175q-55 49 -136 49z" />
    <glyph glyph-name="odieresis" unicode="&#xf6;" horiz-adv-x="1065" 
d="M541 942q217 0 362 -162q123 -136 123 -325q0 -219 -159 -363q-139 -126 -334 -126q-225 0 -371 162q-123 138 -123 330q0 212 159 358q138 126 343 126zM529 680q-84 0 -143 -62q-54 -58 -54 -167q0 -114 68 -174q55 -49 133 -49q87 0 146 62q54 58 54 166
q0 116 -68 175q-55 49 -136 49zM725 1376q73 0 121 -53q40 -43 40 -103q0 -69 -52 -115q-47 -41 -109 -41q-68 0 -114 46q-47 47 -47 112q0 62 48 109q46 45 113 45zM339 1376q71 0 121 -53q40 -43 40 -103q0 -69 -52 -115q-47 -41 -109 -41q-68 0 -114 46q-47 47 -47 112
q0 62 48 109q47 45 113 45z" />
    <glyph glyph-name="divide" unicode="&#xf7;" horiz-adv-x="1139" 
d="M62 771h1014v-265h-1014v265zM572 1186q76 0 129 -59q46 -50 46 -118q0 -79 -59 -132q-50 -46 -119 -46q-78 0 -131 59q-46 50 -46 118q0 74 52 126t128 52zM572 447q75 0 129 -59q46 -49 46 -118q0 -79 -59 -132q-50 -46 -119 -46q-78 0 -131 59q-46 50 -46 120
q0 76 59 130q49 46 121 46z" />
    <glyph glyph-name="oslash" unicode="&#xf8;" horiz-adv-x="1092" 
d="M52 131l72 67q-72 118 -72 255q0 221 159 363q139 126 335 126q163 0 285 -88l65 61l143 -138l-71 -66q71 -122 71 -256q0 -219 -159 -363q-139 -126 -337 -126q-152 0 -283 88l-65 -61zM348 405l280 261q-45 17 -84 17q-87 0 -146 -62q-55 -59 -55 -167q0 -27 5 -49z
M743 503l-279 -260q39 -18 81 -18q90 0 148 64q56 61 56 171q0 24 -6 43z" />
    <glyph glyph-name="ugrave" unicode="&#xf9;" horiz-adv-x="1046" 
d="M516 991l-352 329l269 134l280 -358zM658 0v36q-89 -70 -200 -70q-133 0 -234 89q-127 112 -127 362v491h291v-477q0 -110 23 -154q25 -49 103 -49q87 0 119 57q25 43 25 163v460h291v-908h-291z" />
    <glyph glyph-name="uacute" unicode="&#xfa;" horiz-adv-x="1046" 
d="M607 1454l269 -134l-352 -329l-197 105zM658 0v36q-89 -70 -200 -70q-133 0 -234 89q-127 112 -127 362v491h291v-477q0 -110 23 -154q25 -49 103 -49q87 0 119 57q25 43 25 163v460h291v-908h-291z" />
    <glyph glyph-name="ucircumflex" unicode="&#xfb;" horiz-adv-x="1046" 
d="M658 0v36q-89 -70 -200 -70q-133 0 -234 89q-127 112 -127 362v491h291v-477q0 -110 23 -154q25 -49 103 -49q87 0 119 57q25 43 25 163v460h291v-908h-291zM920 1096l-220 -101l-177 167l-177 -167l-220 101l311 317h172z" />
    <glyph glyph-name="udieresis" unicode="&#xfc;" horiz-adv-x="1046" 
d="M658 0v36q-89 -70 -200 -70q-133 0 -234 89q-127 112 -127 362v491h291v-477q0 -110 23 -154q25 -49 103 -49q87 0 119 57q25 43 25 163v460h291v-908h-291zM716 1376q73 0 121 -53q40 -43 40 -103q0 -69 -52 -115q-47 -41 -109 -41q-68 0 -114 46q-47 47 -47 112
q0 62 48 109q47 45 113 45zM330 1376q71 0 121 -53q40 -43 40 -103q0 -69 -52 -115q-47 -41 -109 -41q-68 0 -114 46q-47 47 -47 113t52 112q47 41 109 41z" />
    <glyph glyph-name="yacute" unicode="&#xfd;" horiz-adv-x="973" 
d="M78 -478l235 527l-344 859h308l196 -503l224 503h307l-620 -1386h-306zM576 1454l268 -134l-352 -329l-196 105z" />
    <glyph glyph-name="thorn" unicode="&#xfe;" horiz-adv-x="1115" 
d="M99 -478v1843h291v-502q109 79 227 79q197 0 334 -153q125 -140 125 -336q0 -225 -159 -369q-130 -118 -300 -118q-117 0 -227 78v-522h-291zM583 680q-86 0 -141 -61q-55 -58 -55 -167q0 -117 68 -177q53 -47 130 -47q56 0 102 28q96 58 96 198q0 117 -69 177
q-55 49 -131 49z" />
    <glyph glyph-name="ydieresis" unicode="&#xff;" horiz-adv-x="973" 
d="M78 -478l235 527l-344 859h308l196 -503l224 503h307l-620 -1386h-306zM680 1376q71 0 121 -53q40 -43 40 -103q0 -69 -52 -115q-47 -41 -109 -41q-68 0 -114 46q-47 47 -47 113t52 112q47 41 109 41zM294 1376q71 0 121 -53q40 -43 40 -103q0 -69 -52 -115
q-47 -41 -109 -41q-68 0 -114 46q-47 47 -47 112q0 67 52 113q47 41 109 41z" />
    <glyph glyph-name="Amacron" unicode="&#x100;" horiz-adv-x="1330" 
d="M1027 0l-105 301h-516l-105 -301h-320l510 1365h347l510 -1365h-321zM503 582h322l-161 459zM321 1517v240h688v-240h-688z" />
    <glyph glyph-name="amacron" unicode="&#x101;" horiz-adv-x="1112" 
d="M1016 908v-908h-291v44q-109 -78 -227 -78q-116 0 -220 60q-107 62 -172 173q-67 115 -67 256q0 225 159 369q130 118 300 118q118 0 227 -78v44h291zM529 680q-84 0 -143 -62q-54 -58 -54 -167q0 -114 69 -174q55 -49 131 -49q87 0 142 61q54 59 54 167q0 117 -68 177
q-53 47 -131 47zM208 1090v240h688v-240h-688z" />
    <glyph glyph-name="Abreve" unicode="&#x102;" horiz-adv-x="1330" 
d="M1027 0l-105 301h-516l-105 -301h-320l510 1365h347l510 -1365h-321zM503 582h322l-161 459zM327 1799l251 19q5 -103 20 -123q19 -28 61 -28q46 0 66 35q14 27 26 115l252 -19q-11 -94 -17 -123q-6 -25 -24 -59q-40 -80 -114 -130q-82 -53 -188 -53q-156 0 -253 105
q-69 75 -77 169q-2 23 -3 92z" />
    <glyph glyph-name="abreve" unicode="&#x103;" horiz-adv-x="1112" 
d="M1016 908v-908h-291v44q-109 -78 -227 -78q-116 0 -220 60q-107 62 -172 173q-67 115 -67 256q0 225 159 369q130 118 300 118q118 0 227 -78v44h291zM529 680q-84 0 -143 -62q-54 -58 -54 -167q0 -114 69 -174q55 -49 131 -49q87 0 142 61q54 59 54 167q0 117 -68 177
q-53 47 -131 47zM196 1370l251 19q5 -108 21 -130q20 -27 60 -27q49 0 72 47q7 16 20 110l252 -19q-11 -94 -17 -123q-6 -25 -24 -59q-40 -82 -114 -130q-82 -53 -188 -53q-155 0 -252 105q-71 76 -78 168q-1 21 -3 92z" />
    <glyph glyph-name="Aogonek" unicode="&#x104;" horiz-adv-x="1330" 
d="M838 1365l510 -1365q-58 -74 -58 -109q0 -14 16 -14q28 0 74 24l87 -205q-144 -50 -212 -50q-131 0 -202 77q-51 57 -51 133q0 65 55 144h-30l-105 301h-516l-105 -301h-320l510 1365h347zM503 582h322l-161 459z" />
    <glyph glyph-name="aogonek" unicode="&#x105;" horiz-adv-x="1112" 
d="M1016 908v-908l-1 -2q-57 -73 -57 -107q0 -14 16 -14q28 0 74 24l87 -205q-144 -50 -212 -50q-131 0 -202 77q-51 57 -51 133q0 65 55 144v44q-109 -78 -227 -78q-116 0 -220 60q-107 62 -172 173q-67 115 -67 256q0 225 159 369q130 118 300 118q118 0 227 -78v44h291z
M530 680q-56 0 -102 -28q-96 -58 -96 -197q0 -118 69 -178q55 -49 131 -49q87 0 142 61q54 59 54 167q0 117 -68 177q-53 47 -130 47z" />
    <glyph glyph-name="Cacute" unicode="&#x106;" horiz-adv-x="1381" 
d="M1339 1133l-216 -201q-69 75 -121 114q-101 71 -223 71q-186 0 -309 -139q-111 -124 -111 -296q0 -198 142 -325q121 -109 280 -109q98 0 177 43q80 42 171 145l216 -201q-100 -106 -188 -161q-169 -108 -373 -108q-202 0 -375 102q-162 94 -257 256q-98 167 -98 358
t97 357q98 167 262 261q171 99 372 99q159 0 291 -62q129 -62 263 -204zM873 1882l268 -134l-351 -328l-197 104z" />
    <glyph glyph-name="cacute" unicode="&#x107;" horiz-adv-x="935" 
d="M599 1454l268 -134l-351 -329l-197 105zM918 770l-179 -197q-59 61 -102 84q-44 23 -100 23q-94 0 -151 -62q-54 -58 -54 -164q0 -117 67 -177q55 -49 138 -49q60 0 107 26t100 88l179 -198q-169 -178 -387 -178q-229 0 -374 163q-123 138 -123 325q0 218 158 361
q139 127 338 127q111 0 201.5 -40.5t181.5 -131.5z" />
    <glyph glyph-name="Ccircumflex" unicode="&#x108;" horiz-adv-x="1381" 
d="M1339 1133l-216 -201q-69 75 -121 114q-101 71 -223 71q-186 0 -309 -139q-111 -124 -111 -296q0 -198 142 -325q121 -109 280 -109q98 0 177 43q80 42 171 145l216 -201q-100 -106 -188 -161q-169 -108 -373 -108q-202 0 -375 102q-162 94 -257 256q-98 167 -98 358
t97 357q98 167 262 261q171 99 372 99q159 0 291 -62q129 -62 263 -204zM760 1580l-177 -159l-221 102l312 318h172l312 -318l-221 -102z" />
    <glyph glyph-name="ccircumflex" unicode="&#x109;" horiz-adv-x="935" 
d="M918 770l-179 -197q-64 64 -103 85q-41 22 -99 22q-94 0 -151 -62q-54 -58 -54 -163q0 -118 67 -178q55 -49 139 -49q61 0 105 25q48 27 101 89l179 -198q-72 -72 -129 -107q-116 -71 -257 -71q-230 0 -375 163q-123 138 -123 325q0 218 158 362q139 126 339 126
q109 0 196 -38q84 -39 186 -134zM906 1096l-220 -101l-177 167l-177 -167l-220 101l311 317h172z" />
    <glyph glyph-name="Cdotaccent" unicode="&#x10a;" horiz-adv-x="1381" 
d="M1339 1133l-216 -201q-69 75 -121 114q-101 71 -223 71q-186 0 -309 -139q-111 -124 -111 -296q0 -198 142 -325q121 -109 280 -109q98 0 177 43q80 42 171 145l216 -201q-100 -106 -188 -161q-169 -108 -373 -108q-202 0 -375 102q-162 94 -257 256q-98 167 -98 358
t97 357q98 167 262 261q171 99 372 99q159 0 291 -62q129 -62 263 -204zM777 1805q79 0 131 -57q43 -46 43 -111q0 -74 -56 -124q-50 -44 -119 -44q-76 0 -129 57q-43 47 -43 114q0 70 56 120q50 45 117 45z" />
    <glyph glyph-name="cdotaccent" unicode="&#x10b;" horiz-adv-x="935" 
d="M918 770l-179 -197q-59 61 -102 84q-44 23 -100 23q-94 0 -151 -62q-54 -58 -54 -164q0 -117 67 -177q55 -49 138 -49q60 0 107 26t100 88l179 -198q-169 -178 -387 -178q-229 0 -374 163q-123 138 -123 325q0 218 158 361q139 127 338 127q111 0 201.5 -40.5
t181.5 -131.5zM515 1389q79 0 131 -57q43 -47 43 -112q0 -73 -56 -123q-50 -45 -119 -45q-76 0 -129 57q-43 47 -43 114q0 71 56 121q50 45 117 45z" />
    <glyph glyph-name="Ccaron" unicode="&#x10c;" horiz-adv-x="1381" 
d="M1339 1133l-216 -201q-69 75 -121 114q-101 71 -223 71q-186 0 -309 -139q-111 -124 -111 -296q0 -198 142 -325q121 -109 280 -109q98 0 177 43q80 42 171 145l216 -201q-100 -106 -188 -161q-169 -108 -373 -108q-202 0 -375 102q-162 94 -257 256q-98 167 -98 358
t97 357q98 167 262 261q171 99 372 99q159 0 291 -62q129 -62 263 -204zM362 1746l221 102l177 -159l177 159l221 -102l-312 -318h-172z" />
    <glyph glyph-name="ccaron" unicode="&#x10d;" horiz-adv-x="932" 
d="M918 770l-179 -197q-59 61 -102 84q-44 23 -100 23q-94 0 -151 -62q-54 -58 -54 -164q0 -117 67 -177q55 -49 138 -49q60 0 107 26t100 88l179 -198q-169 -178 -387 -178q-229 0 -374 163q-123 138 -123 325q0 218 158 361q139 127 338 127q111 0 201.5 -40.5
t181.5 -131.5zM509 1270l177 167l220 -101l-311 -317h-172l-311 317l220 101z" />
    <glyph glyph-name="Dcaron" unicode="&#x10e;" horiz-adv-x="1273" 
d="M131 0v1365h336q311 0 507 -152q245 -191 245 -529q0 -341 -245 -532q-38 -30 -72 -49q-190 -103 -435 -103h-336zM473 1084h-39v-803h39q110 0 201 33.5t145 94.5q96 107 96 272q0 239 -182 343q-105 60 -260 60zM199 1746l221 102l177 -159l177 159l221 -102l-311 -318
h-173z" />
    <glyph glyph-name="dcaron" unicode="&#x10f;" horiz-adv-x="1426" 
d="M1016 1365v-1365h-291v44q-109 -78 -227 -78q-116 0 -220 60q-107 62 -172 173q-67 115 -67 256q0 225 159 369q130 118 300 118q118 0 227 -79v502h291zM529 680q-84 0 -143 -62q-54 -58 -54 -166q0 -115 69 -175q55 -49 131 -49q87 0 142 61q54 59 54 167
q0 117 -68 177q-53 47 -131 47zM1066 1037l132 414l272 -76l-186 -401z" />
    <glyph glyph-name="Dcroat" unicode="&#x110;" horiz-adv-x="1298" 
d="M33 869h124v496h336q311 0 507 -152q245 -191 245 -530q0 -340 -245 -531q-38 -30 -72 -49q-190 -103 -435 -103h-336v592h-124v277zM460 1084v-215h292v-277h-292v-311h40q108 0 199.5 33.5t146.5 93.5q95 107 95 273q0 238 -182 342q-106 61 -259 61h-40z" />
    <glyph glyph-name="dslash" unicode="&#x111;" horiz-adv-x="1121" 
d="M725 863v143h-219v251h219v108h291v-108h110v-251h-110v-1006h-291v44q-109 -78 -227 -78q-116 0 -220 60q-108 62 -172 173q-67 115 -67 255q0 225 159 369q130 118 300 118q118 0 227 -78zM529 680q-84 0 -143 -62q-54 -58 -54 -166q0 -115 69 -175q55 -49 131 -49
q87 0 142 61q54 59 54 167q0 117 -68 177q-53 47 -131 47z" />
    <glyph glyph-name="Emacron" unicode="&#x112;" horiz-adv-x="1014" 
d="M131 1365h802v-278h-501v-256h446v-279h-446v-271h520v-281h-821v1365zM198 1517v240h688v-240h-688z" />
    <glyph glyph-name="emacron" unicode="&#x113;" horiz-adv-x="1011" 
d="M688 312l261 -101q-159 -245 -428 -245q-219 0 -357 155q-125 140 -125 334q0 222 158 366q131 121 313 121q205 0 340 -151q123 -137 123 -357q0 -28 -3 -75h-633q26 -73 68.5 -106t110.5 -33q113 0 172 92zM337 550h347q-24 74 -64.5 107t-108.5 33q-70 0 -111.5 -33.5
t-62.5 -106.5zM161 1090v240h689v-240h-689z" />
    <glyph glyph-name="Ebreve" unicode="&#x114;" horiz-adv-x="1013" 
d="M131 1365h802v-278h-501v-256h446v-279h-446v-271h520v-281h-821v1365zM203 1799l252 19q5 -103 20 -123q19 -28 61 -28q46 0 66 35q12 23 26 115l252 -19q-14 -100 -18 -123t-23 -59q-40 -80 -114 -130q-82 -53 -188 -53q-155 0 -253 105q-69 75 -77 169q-3 45 -4 92z
" />
    <glyph glyph-name="ebreve" unicode="&#x115;" horiz-adv-x="1011" 
d="M688 312l261 -101q-159 -245 -428 -245q-219 0 -357 155q-125 140 -125 334q0 222 158 366q131 121 313 121q205 0 340 -151q123 -137 123 -357q0 -28 -3 -75h-633q26 -73 68.5 -106t110.5 -33q113 0 172 92zM337 550h347q-24 74 -64.5 107t-108.5 33q-70 0 -111.5 -33.5
t-62.5 -106.5zM168 1370l251 19q5 -108 21 -130q20 -27 60 -27q49 0 72 47q8 14 21 110l251 -19q-11 -94 -17 -123q-6 -25 -24 -59q-40 -82 -114 -130q-82 -53 -188 -53q-155 0 -252 105q-71 76 -78 168q-1 21 -3 92z" />
    <glyph glyph-name="Edotaccent" unicode="&#x116;" horiz-adv-x="1014" 
d="M131 1365h802v-278h-501v-256h446v-279h-446v-271h520v-281h-821v1365zM541 1805q79 0 131 -57q43 -46 43 -111q0 -74 -56 -124q-50 -44 -117 -44q-73 0 -123 50q-51 49 -51 121q0 70 56 120q50 45 117 45z" />
    <glyph glyph-name="edotaccent" unicode="&#x117;" horiz-adv-x="1011" 
d="M688 312l261 -101q-159 -245 -428 -245q-219 0 -357 155q-125 140 -125 334q0 222 158 366q131 121 313 121q205 0 340 -151q123 -137 123 -357q0 -28 -3 -75h-633q26 -73 68.5 -106t110.5 -33q113 0 172 92zM337 550h347q-24 74 -64.5 107t-108.5 33q-70 0 -111.5 -33.5
t-62.5 -106.5zM504 1389q78 0 131 -57q43 -47 43 -111q0 -74 -56 -124q-50 -45 -119 -45q-77 0 -129 57q-43 47 -43 114q0 70 56 121q49 45 117 45z" />
    <glyph glyph-name="Eogonek" unicode="&#x118;" horiz-adv-x="1014" 
d="M952 281v-281q-3 -3 -4 -6q-54 -67 -54 -103q0 -14 15 -14q29 0 75 24l87 -205q-144 -50 -212 -50q-131 0 -202 77q-51 57 -51 133q0 65 55 144h-530v1365h802v-278h-501v-256h446v-279h-446v-271h520z" />
    <glyph glyph-name="eogonek" unicode="&#x119;" horiz-adv-x="1011" 
d="M648 -17q-45 -61 -45 -93q0 -14 15 -14q29 0 75 25l87 -205q-94 -33 -130 -42q-38 -9 -82 -9q-132 0 -202 78q-51 57 -51 131q0 66 48 136q-94 31 -167 98q-157 144 -157 366q0 223 158 367q131 121 313 121q205 0 340 -151q123 -137 123 -357q0 -28 -3 -75h-633
q26 -73 68.5 -106t110.5 -33q113 0 172 92l261 -101q-120 -186 -301 -228zM337 550h347q-24 74 -64.5 107t-108.5 33q-70 0 -111.5 -33.5t-62.5 -106.5z" />
    <glyph glyph-name="Ecaron" unicode="&#x11a;" horiz-adv-x="1014" 
d="M131 1365h802v-278h-501v-256h446v-279h-446v-271h520v-281h-821v1365zM144 1746l221 102l177 -159l177 159l221 -102l-311 -318h-173z" />
    <glyph glyph-name="ecaron" unicode="&#x11b;" horiz-adv-x="1011" 
d="M688 312l261 -101q-159 -245 -428 -245q-219 0 -357 155q-125 140 -125 334q0 222 158 366q131 121 313 121q205 0 340 -151q123 -137 123 -357q0 -28 -3 -75h-633q26 -73 68.5 -106t110.5 -33q113 0 172 92zM337 550h347q-24 74 -64.5 107t-108.5 33q-70 0 -111.5 -33.5
t-62.5 -106.5zM505 1270l177 167l220 -101l-311 -317h-172l-311 317l220 101z" />
    <glyph glyph-name="Gcircumflex" unicode="&#x11c;" horiz-adv-x="1493" 
d="M756 501v277h680v-143q0 -218 -88 -369q-80 -137 -209 -210q-158 -90 -347 -90q-210 0 -384 102q-161 95 -256 256q-98 167 -98 358q0 192 97 358q98 166 261 260q172 99 378 99q158 0 287 -58q129 -59 273 -195l-216 -201q-71 71 -128 108q-98 64 -219 64
q-196 0 -317 -139q-111 -124 -111 -296q0 -196 141 -324q122 -110 290 -110q128 0 213 65.5t117 187.5h-364zM758 1580l-177 -159l-221 102l312 318h173l311 -318l-221 -102z" />
    <glyph glyph-name="gcircumflex" unicode="&#x11d;" horiz-adv-x="1112" 
d="M724 -18v62q-112 -78 -227 -78q-197 0 -334 153q-125 140 -125 336q0 225 160 369q130 118 300 118q114 0 226 -78v44h292v-926q0 -233 -152 -370q-139 -124 -348 -124q-140 0 -249 58q-111 59 -221 190l198 186q12 -13 29 -35q58 -72 115.5 -104.5t127.5 -32.5
q101 0 156 61q52 58 52 171zM528 680q-84 0 -143 -62q-54 -58 -54 -166q0 -115 69 -175q55 -49 131 -49q87 0 142 61q54 59 54 167q0 117 -68 177q-53 47 -131 47zM924 1096l-219 -101l-178 167l-177 -167l-219 101l311 317h172z" />
    <glyph glyph-name="Gbreve" unicode="&#x11e;" horiz-adv-x="1493" 
d="M756 501v277h680v-143q0 -218 -88 -369q-80 -137 -209 -210q-158 -90 -347 -90q-210 0 -384 102q-161 95 -256 256q-98 167 -98 358q0 192 97 358q98 166 261 260q172 99 378 99q158 0 287 -58q129 -59 273 -195l-216 -201q-71 71 -128 108q-98 64 -219 64
q-196 0 -317 -139q-111 -124 -111 -296q0 -196 141 -324q122 -110 290 -110q128 0 213 65.5t117 187.5h-364zM460 1799l251 19q4 -103 20 -123q21 -28 62 -28q45 0 65 35q14 24 27 115l251 -19q-10 -91 -17 -121q-6 -25 -23 -61q-40 -79 -115 -130q-82 -53 -188 -53
q-155 0 -252 105q-71 77 -78 169q-1 21 -3 92z" />
    <glyph glyph-name="gbreve" unicode="&#x11f;" horiz-adv-x="1112" 
d="M724 -18v62q-112 -78 -227 -78q-197 0 -334 153q-125 140 -125 336q0 225 160 369q130 118 300 118q114 0 226 -78v44h292v-926q0 -233 -152 -370q-139 -124 -348 -124q-140 0 -249 58q-111 59 -221 190l198 186q12 -13 29 -35q58 -72 115.5 -104.5t127.5 -32.5
q101 0 156 61q52 58 52 171zM528 680q-84 0 -143 -62q-54 -58 -54 -166q0 -115 69 -175q55 -49 131 -49q87 0 142 61q54 59 54 167q0 117 -68 177q-53 47 -131 47zM196 1370l251 19q5 -108 21 -130q20 -27 60 -27q49 0 72 47q6 14 21 110l251 -19q-11 -94 -17 -123
q-6 -25 -24 -59q-40 -82 -114 -130q-82 -53 -188 -53q-155 0 -252 105q-71 76 -78 168q-1 21 -3 92z" />
    <glyph glyph-name="Gdotaccent" unicode="&#x120;" horiz-adv-x="1493" 
d="M756 501v277h680v-143q0 -218 -88 -369q-80 -137 -209 -210q-158 -90 -347 -90q-210 0 -384 102q-161 95 -256 256q-98 167 -98 358q0 192 97 358q98 166 261 260q172 99 378 99q158 0 287 -58q129 -59 273 -195l-216 -201q-71 71 -128 108q-98 64 -219 64
q-196 0 -317 -139q-111 -124 -111 -296q0 -196 141 -324q122 -110 290 -110q128 0 213 65.5t117 187.5h-364zM792 1805q78 0 131 -57q43 -46 43 -111q0 -74 -56 -124q-50 -44 -117 -44q-73 0 -123 50q-51 49 -51 121q0 70 56 120q49 45 117 45z" />
    <glyph glyph-name="gdotaccent" unicode="&#x121;" horiz-adv-x="1112" 
d="M724 -18v62q-112 -78 -227 -78q-197 0 -334 153q-125 140 -125 336q0 225 160 369q130 118 300 118q114 0 226 -78v44h292v-926q0 -233 -152 -370q-139 -124 -348 -124q-140 0 -249 58q-111 59 -221 190l198 186q12 -13 29 -35q58 -72 115.5 -104.5t127.5 -32.5
q101 0 156 61q52 58 52 171zM528 680q-84 0 -143 -62q-54 -58 -54 -166q0 -115 69 -175q55 -49 131 -49q87 0 142 61q54 59 54 167q0 117 -68 177q-53 47 -131 47zM528 1389q78 0 131 -57q43 -47 43 -111q0 -74 -56 -124q-50 -45 -119 -45q-77 0 -129 57q-43 47 -43 114
q0 70 56 121q49 45 117 45z" />
    <glyph glyph-name="Gcommaaccent" unicode="&#x122;" horiz-adv-x="1493" 
d="M756 501v277h680v-143q0 -218 -88 -369q-80 -137 -209 -210q-158 -90 -347 -90q-210 0 -384 102q-161 95 -256 256q-98 167 -98 358q0 192 97 358q98 166 261 260q172 99 378 99q158 0 287 -58q129 -59 273 -195l-216 -201q-71 71 -128 108q-98 64 -219 64
q-196 0 -317 -139q-111 -124 -111 -296q0 -196 141 -324q122 -110 290 -110q128 0 213 65.5t117 187.5h-364zM544 -447l132 414l272 -77l-186 -401z" />
    <glyph glyph-name="gcommaaccent" unicode="&#x123;" horiz-adv-x="1112" 
d="M724 -18v62q-112 -78 -227 -78q-197 0 -334 153q-125 140 -125 336q0 225 160 369q130 118 300 118q114 0 226 -78v44h292v-926q0 -233 -152 -370q-139 -124 -348 -124q-140 0 -249 58q-111 59 -221 190l198 186q12 -13 29 -35q58 -72 115.5 -104.5t127.5 -32.5
q101 0 156 61q52 58 52 171zM528 680q-84 0 -143 -62q-54 -58 -54 -166q0 -115 69 -175q55 -49 131 -49q87 0 142 61q54 59 54 167q0 117 -68 177q-53 47 -131 47zM782 1386l-132 -414l-272 77l186 401z" />
    <glyph glyph-name="Hcircumflex" unicode="&#x124;" horiz-adv-x="1339" 
d="M131 1365h303v-533h470v533h303v-1365h-303v551h-470v-551h-303v1365zM669 1580l-177 -159l-221 102l312 318h172l312 -318l-221 -102z" />
    <glyph glyph-name="hcircumflex" unicode="&#x125;" horiz-adv-x="1046" 
d="M388 1365v-494q91 71 200 71q133 0 234 -89q127 -112 127 -362v-491h-291v477q0 110 -23 154q-25 49 -103 49q-88 0 -119 -57q-25 -43 -25 -164v-459h-291v1365h291zM525 1580l-177 -159l-221 102l312 318h173l312 -318l-221 -102z" />
    <glyph glyph-name="Hbar" unicode="&#x126;" horiz-adv-x="1328" 
d="M430 1258h469v107h303v-107h112v-251h-112v-1007h-303v551h-469v-551h-303v1007h-112v251h112v107h303v-107zM899 832v175h-469v-175h469z" />
    <glyph glyph-name="hbar" unicode="&#x127;" horiz-adv-x="1033" 
d="M84 0v1006h-110v251h110v108h291v-108h221v-251h-221v-135q88 70 200 70q134 0 235 -89q127 -112 127 -361v-491h-291v477q0 111 -24 154q-25 49 -102 49q-88 0 -120 -57q-25 -43 -25 -164v-459h-291z" />
    <glyph glyph-name="Itilde" unicode="&#x128;" horiz-adv-x="566" 
d="M132 1365h303v-1365h-303v1365zM388 1805l242 -52q-9 -118 -43 -172q-25 -43 -75 -68.5t-109 -25.5q-79 0 -166 41q-24 12 -38 12q-10 0 -14.5 -12t-12.5 -58l-236 52q10 112 49 172q27 42 75 68t99 26q83 0 174 -47q22 -11 33 -11t15 13t7 62z" />
    <glyph glyph-name="itilde" unicode="&#x129;" horiz-adv-x="487" 
d="M97 908h291v-908h-291v908zM348 1377l242 -52q-9 -118 -43 -172q-25 -43 -75.5 -68.5t-108.5 -25.5q-81 0 -166 41q-24 12 -38 12q-10 0 -14.5 -11.5t-12.5 -57.5l-236 51q10 111 49 173q27 41 75 67t99 26q82 0 174 -47q22 -11 33 -11t15 13.5t7 61.5z" />
    <glyph glyph-name="Imacron" unicode="&#x12a;" horiz-adv-x="566" 
d="M132 1365h303v-1365h-303v1365zM-61 1517v240h688v-240h-688z" />
    <glyph glyph-name="imacron" unicode="&#x12b;" horiz-adv-x="487" 
d="M97 908h291v-908h-291v908zM-101 1090v240h688v-240h-688z" />
    <glyph glyph-name="Ibreve" unicode="&#x12c;" horiz-adv-x="566" 
d="M132 1365h303v-1365h-303v1365zM-55 1799l251 19q4 -101 20 -123q21 -28 62 -28q45 0 65 35q14 24 27 115l251 -19q-11 -94 -17 -123q-4 -23 -23 -59q-42 -81 -115 -130q-82 -53 -188 -53q-154 0 -252 105q-71 77 -78 169q-1 21 -3 92z" />
    <glyph glyph-name="ibreve" unicode="&#x12d;" horiz-adv-x="487" 
d="M97 908h291v-908h-291v908zM-95 1370l251 19q5 -108 21 -130q19 -27 60 -27q50 0 73 47q7 16 20 110l251 -19q-11 -94 -17 -123q-6 -23 -23 -59q-42 -82 -115 -130q-82 -53 -188 -53q-154 0 -252 105q-70 75 -78 168q-1 21 -3 92z" />
    <glyph glyph-name="Iogonek" unicode="&#x12e;" horiz-adv-x="566" 
d="M434 1365v-1365q-58 -74 -58 -110q0 -14 16 -14q28 0 74 25l87 -205q-90 -32 -130 -42q-38 -9 -82 -9q-131 0 -202 78q-51 57 -51 132q0 66 55 145h-12v1365h303z" />
    <glyph glyph-name="iogonek" unicode="&#x12f;" horiz-adv-x="487" 
d="M389 908v-908l-1 -2q-57 -73 -57 -107q0 -14 16 -14q27 0 74 24l87 -205q-145 -50 -212 -50q-131 0 -202 77q-51 57 -51 132q0 69 55 145v908h291zM243 1388q79 0 131 -57q43 -47 43 -112q0 -73 -56 -123q-49 -45 -117 -45q-73 0 -123 50q-51 49 -51 121q0 71 56 121
q50 45 117 45z" />
    <glyph glyph-name="Idot" unicode="&#x130;" horiz-adv-x="566" 
d="M132 1365h303v-1365h-303v1365zM283 1805q79 0 131 -57q43 -47 43 -111q0 -74 -56 -124q-50 -44 -117 -44q-73 0 -123 50q-51 49 -51 121q0 70 56 120q50 45 117 45z" />
    <glyph glyph-name="dotlessi" unicode="&#x131;" horiz-adv-x="487" 
d="M98 908h291v-908h-291v908z" />
    <glyph glyph-name="IJ" unicode="&#x132;" horiz-adv-x="1428" 
d="M131 1365h303v-1365h-303v1365zM1023 1365h273v-939q0 -103 -13 -162q-14 -66 -47 -123q-44 -78 -122 -122q-87 -51 -198 -51q-104 0 -191 43q-89 44 -186 142l167 196q114 -126 203 -126q46 0 75 32q39 43 39 171v939z" />
    <glyph glyph-name="ij" unicode="&#x133;" horiz-adv-x="980" 
d="M243 1388q79 0 131 -57q43 -47 43 -111q0 -74 -56 -124q-49 -45 -117 -45q-73 0 -123 50q-51 49 -51 121q0 71 56 121q50 45 117 45zM98 908h291v-908h-291v908zM591 908h291v-1085q0 -179 -91 -260q-74 -65 -185 -65q-74 0 -160 30v268q75 -29 110 -29q20 0 27.5 14.5
t7.5 52.5v1074zM736 1388q78 0 131 -57q43 -47 43 -111q0 -74 -56 -124q-50 -45 -117 -45q-73 0 -123 50q-51 49 -51 121q0 71 56 121q49 45 117 45z" />
    <glyph glyph-name="Jcircumflex" unicode="&#x134;" horiz-adv-x="883" 
d="M448 1365h303v-936q0 -96 -14 -163q-13 -63 -48 -125q-48 -81 -124 -124q-90 -51 -204 -51q-109 0 -200 44.5t-187 144.5l180 218q113 -125 193 -125q101 0 101 181v936zM530 1580l-177 -159l-221 102l312 318h172l312 -318l-221 -102z" />
    <glyph glyph-name="jcircumflex" unicode="&#x135;" horiz-adv-x="500" 
d="M110 908h291v-1085q0 -179 -91 -260q-74 -65 -185 -65q-73 0 -159 30v268q75 -29 109 -29q20 0 27.5 14.5t7.5 52.5v1074zM625 1096l-219 -101l-177 167l-177 -167l-220 101l311 317h172z" />
    <glyph glyph-name="Kcommaaccent" unicode="&#x136;" horiz-adv-x="1262" 
d="M1280 1365l-543 -580l523 -785h-358l-372 565l-96 -103v-462h-303v1365h303v-491l459 491h387zM449 -447l132 414l272 -77l-186 -401z" />
    <glyph glyph-name="kcommaaccent" unicode="&#x137;" horiz-adv-x="1024" 
d="M1039 908l-399 -386l413 -522h-363l-252 328l-50 -49v-279h-291v1365h291v-711l260 254h391zM308 -447l132 414l271 -77l-185 -401z" />
    <glyph glyph-name="kgreenlandic" unicode="&#x138;" horiz-adv-x="1024" 
d="M1039 908l-399 -386l413 -522h-363l-252 328l-50 -49v-279h-291v908h291v-254l260 254h391z" />
    <glyph glyph-name="Lacute" unicode="&#x139;" horiz-adv-x="909" 
d="M132 0v1365h303v-1084h481v-281h-784zM395 1882l268 -134l-351 -328l-197 104z" />
    <glyph glyph-name="lacute" unicode="&#x13a;" horiz-adv-x="489" 
d="M351 1887l268 -134l-351 -328l-197 104zM390 1365v-1365h-291v1365h291z" />
    <glyph glyph-name="Lcommaaccent" unicode="&#x13b;" horiz-adv-x="913" 
d="M131 0v1365h303v-1084h481v-281h-784zM328 -447l132 414l272 -77l-186 -401z" />
    <glyph glyph-name="lcommaaccent" unicode="&#x13c;" horiz-adv-x="489" 
d="M390 1365v-1365h-291v1365h291zM14 -447l132 414l272 -77l-186 -401z" />
    <glyph glyph-name="Lcaron" unicode="&#x13d;" horiz-adv-x="913" 
d="M131 0v1365h303v-1084h481v-281h-784zM514 1029l131 414l272 -76l-186 -401z" />
    <glyph glyph-name="lcaron" unicode="&#x13e;" horiz-adv-x="800" 
d="M390 1365v-1365h-291v1365h291zM440 1037l132 414l272 -76l-186 -401z" />
    <glyph glyph-name="Ldot" unicode="&#x13f;" horiz-adv-x="913" 
d="M131 0v1365h303v-1084h481v-281h-784zM720 852q78 0 131 -57q43 -47 43 -111q0 -74 -56 -124q-50 -45 -119 -45q-77 0 -129 57q-43 47 -43 114q0 70 56 121q49 45 117 45z" />
    <glyph glyph-name="ldot" unicode="&#x140;" horiz-adv-x="821" 
d="M654 852q78 0 131 -57q43 -47 43 -111q0 -74 -56 -124q-50 -45 -119 -45q-77 0 -129 57q-43 47 -43 114q0 70 56 121q49 45 117 45zM390 1365v-1365h-291v1365h291z" />
    <glyph glyph-name="Lslash" unicode="&#x141;" horiz-adv-x="941" 
d="M463 1365v-421l212 129v-288l-212 -129v-375h481v-281h-784v474l-134 -81v288l134 81v603h303z" />
    <glyph glyph-name="lslash" unicode="&#x142;" horiz-adv-x="573" 
d="M141 0v485l-122 -76v291l122 76v589h291v-409l123 77v-291l-123 -76v-666h-291z" />
    <glyph glyph-name="Nacute" unicode="&#x143;" horiz-adv-x="1450" 
d="M434 0h-303v1365h253l631 -828v828h303v-1365h-253l-631 828v-828zM869 1882l269 -134l-352 -328l-197 104z" />
    <glyph glyph-name="nacute" unicode="&#x144;" horiz-adv-x="1046" 
d="M641 1454l269 -134l-352 -329l-197 105zM388 908v-37q91 71 200 71q133 0 234 -89q127 -112 127 -362v-491h-291v477q0 110 -23 154q-25 49 -103 49q-88 0 -119 -57q-25 -43 -25 -163v-460h-291v908h291z" />
    <glyph glyph-name="Ncommaaccent" unicode="&#x145;" horiz-adv-x="1450" 
d="M434 0h-303v1365h253l631 -828v828h303v-1365h-253l-631 828v-828zM524 -447l132 414l271 -77l-185 -401z" />
    <glyph glyph-name="ncommaaccent" unicode="&#x146;" horiz-adv-x="1046" 
d="M388 908v-37q91 71 200 71q133 0 234 -89q127 -112 127 -362v-491h-291v477q0 110 -23 154q-25 49 -103 49q-88 0 -119 -57q-25 -43 -25 -163v-460h-291v908h291zM322 -447l132 414l272 -77l-186 -401z" />
    <glyph glyph-name="Ncaron" unicode="&#x147;" horiz-adv-x="1450" 
d="M434 0h-303v1365h253l631 -828v828h303v-1365h-253l-631 828v-828zM361 1746l221 102l177 -159l177 159l221 -102l-312 -318h-172z" />
    <glyph glyph-name="ncaron" unicode="&#x148;" horiz-adv-x="1046" 
d="M388 908v-37q91 71 200 71q133 0 234 -89q127 -112 127 -362v-491h-291v477q0 110 -23 154q-25 49 -103 49q-88 0 -119 -57q-25 -43 -25 -163v-460h-291v908h291zM533 1270l177 167l220 -101l-311 -317h-172l-310 317l219 101z" />
    <glyph glyph-name="napostrophe" unicode="&#x149;" horiz-adv-x="1258" 
d="M-32 871l212 549l260 -87l-259 -541zM600 908v-37q91 71 200 71q133 0 234 -89q127 -112 127 -362v-491h-291v477q0 110 -23 154q-25 49 -103 49q-39 0 -72 -15.5t-47 -41.5q-25 -43 -25 -163v-460h-291v908h291z" />
    <glyph glyph-name="Eng" unicode="&#x14a;" horiz-adv-x="1450" 
d="M1015 1365h303v-1365q-3 -115 -47 -195q-28 -55 -88 -87q-62 -34 -141 -34q-74 0 -160 30v268q75 -29 109 -29q20 0 28 14.5t8 52.5v30l-593 778v-828h-303v1365h253l631 -828v828z" />
    <glyph glyph-name="eng" unicode="&#x14b;" horiz-adv-x="1046" 
d="M388 908v-37q92 71 200 71q155 0 260 -115q52 -55 73 -120q19 -65 27 -186q10 -167 10 -339q0 -147 -11 -235q-12 -81 -41 -138q-30 -57 -89 -89q-66 -36 -144 -36q-73 0 -159 30v268q75 -29 109 -29q19 0 27 15t8 51v351v107q0 110 -23 154q-25 49 -102 49
q-89 0 -120 -57q-25 -43 -25 -163v-460h-291v908h291z" />
    <glyph glyph-name="Omacron" unicode="&#x14c;" horiz-adv-x="1563" 
d="M782 1399q195 0 359 -95q173 -99 270 -264q99 -167 99 -358q0 -187 -95 -351q-94 -165 -263 -264q-173 -101 -376 -101q-191 0 -364 101q-169 99 -263 264q-95 166 -95 362q0 187 99 347q105 171 270 264q169 95 359 95zM779 1117q-181 0 -309 -141q-111 -123 -111 -301
q0 -113 57 -212q57 -100 159 -158q99 -57 207 -57t207 57q102 58 159 158t57 218q0 196 -143 327q-118 109 -283 109zM438 1517v240h688v-240h-688z" />
    <glyph glyph-name="omacron" unicode="&#x14d;" horiz-adv-x="1065" 
d="M539 942q219 0 364 -162q123 -136 123 -325q0 -219 -159 -363q-139 -126 -335 -126q-224 0 -370 162q-123 138 -123 327q0 183 116 317q149 170 384 170zM531 680q-57 0 -103 -28q-96 -58 -96 -198q0 -117 68 -177q55 -49 133 -49q87 0 146 62q54 58 54 166
q0 116 -68 175q-55 49 -134 49zM189 1090v240h688v-240h-688z" />
    <glyph glyph-name="Obreve" unicode="&#x14e;" horiz-adv-x="1563" 
d="M782 1399q195 0 359 -95q173 -99 270 -264q99 -167 99 -358q0 -187 -95 -351q-94 -165 -263 -264q-173 -101 -376 -101q-191 0 -364 101q-169 99 -263 264q-95 166 -95 362q0 187 99 347q105 171 270 264q169 95 359 95zM779 1117q-181 0 -309 -141q-111 -123 -111 -301
q0 -113 57 -212q57 -100 159 -158q99 -57 207 -57t207 57q102 58 159 158t57 218q0 196 -143 327q-118 109 -283 109zM444 1799l251 19q4 -101 20 -123q21 -28 62 -28q45 0 65 35q14 24 27 115l251 -19q-11 -94 -17 -123q-6 -25 -24 -59q-40 -80 -114 -130q-82 -53 -188 -53
q-155 0 -252 105q-71 77 -78 169q-1 21 -3 92z" />
    <glyph glyph-name="obreve" unicode="&#x14f;" horiz-adv-x="1065" 
d="M539 942q219 0 364 -162q123 -136 123 -325q0 -219 -159 -363q-139 -126 -335 -126q-224 0 -370 162q-123 138 -123 327q0 183 116 317q149 170 384 170zM531 680q-57 0 -103 -28q-96 -58 -96 -198q0 -117 68 -177q55 -49 133 -49q87 0 146 62q54 58 54 166
q0 116 -68 175q-55 49 -134 49zM195 1370l251 19q5 -108 21 -130q19 -27 60 -27q49 0 72 47q7 16 20 110l252 -19q-13 -100 -18 -123q-4 -23 -23 -59q-40 -82 -114 -130q-82 -53 -188 -53q-156 0 -253 105q-69 75 -77 168q-1 21 -3 92z" />
    <glyph glyph-name="Ohungarumlaut" unicode="&#x150;" horiz-adv-x="1563" 
d="M760 1878l226 -118l84 118l235 -127l-350 -327l-147 85l133 187l-293 -273l-166 99zM782 1399q195 0 359 -95q173 -99 270 -264q99 -167 99 -358q0 -187 -95 -351q-94 -165 -263 -264q-173 -101 -376 -101q-191 0 -364 101q-169 99 -263 264q-95 166 -95 362
q0 187 99 347q105 171 270 264q169 95 359 95zM779 1117q-181 0 -309 -141q-111 -123 -111 -301q0 -113 57 -212q57 -100 159 -158q99 -57 207 -57t207 57q102 58 159 158t57 218q0 196 -143 327q-118 109 -283 109z" />
    <glyph glyph-name="ohungarumlaut" unicode="&#x151;" horiz-adv-x="1098" 
d="M515 1445l225 -118l84 118l235 -126l-350 -327l-147 84l133 188l-293 -273l-165 99zM541 942q217 0 362 -162q123 -136 123 -325q0 -219 -159 -363q-139 -126 -334 -126q-225 0 -371 162q-123 138 -123 330q0 212 159 358q138 126 343 126zM529 680q-84 0 -143 -62
q-54 -58 -54 -167q0 -114 68 -174q55 -49 133 -49q87 0 146 62q54 58 54 166q0 116 -68 175q-55 49 -136 49z" />
    <glyph glyph-name="OE" unicode="&#x152;" horiz-adv-x="2087" 
d="M2026 281v-281h-821v104q-195 -138 -414 -138q-204 0 -379 101q-167 98 -263 264q-95 164 -95 351q0 190 99 358t270 264q170 95 367 95q112 0 211 -32q97 -31 204 -105v103h802v-278h-501v-256h446v-279h-446v-271h520zM779 1117q-181 0 -309 -140q-111 -125 -111 -301
q0 -92 39 -176.5t109 -145.5q121 -106 275 -106q108 0 207 57q102 58 159 158q57 101 57 219q0 196 -143 327q-118 108 -283 108z" />
    <glyph glyph-name="oe" unicode="&#x153;" horiz-adv-x="1705" 
d="M877 806q135 136 325 136q207 0 342 -151q123 -138 123 -354q0 -25 -3 -78h-633q26 -73 68.5 -106t110.5 -33q113 0 172 92l261 -101q-158 -245 -431 -245q-196 0 -335 136q-143 -136 -341 -136q-228 0 -374 162q-123 138 -123 327q0 219 159 361q140 126 337 126
q200 0 342 -136zM1032 550h347q-25 74 -65.5 107t-108.5 33q-70 0 -111.5 -33.5t-61.5 -106.5zM529 680q-84 0 -143 -62q-54 -58 -54 -167q0 -114 68 -174q55 -49 133 -49q87 0 146 62q54 58 54 166q0 116 -68 175q-55 49 -136 49z" />
    <glyph glyph-name="Racute" unicode="&#x154;" horiz-adv-x="1164" 
d="M1144 0h-341l-265 478q-5 -1 -14 -1q-50 -2 -57 -2h-33v-475h-303v1365h336q208 0 325 -66q96 -55 155 -156q61 -103 61 -227q0 -174 -114 -296q-28 -32 -66 -57zM432 1088v-337h52q110 0 160 28q70 40 70 139q0 88 -55.5 129t-174.5 41h-52zM638 1882l269 -134
l-352 -328l-197 104z" />
    <glyph glyph-name="racute" unicode="&#x155;" horiz-adv-x="645" 
d="M407 1454l269 -134l-352 -329l-197 105zM388 908v-40q77 47 156 47q40 0 92 -9v-257q-59 8 -92 8q-92 0 -123 -45q-33 -46 -33 -172v-440h-291v908h291z" />
    <glyph glyph-name="Rcommaaccent" unicode="&#x156;" horiz-adv-x="1164" 
d="M1144 0h-341l-265 478q-5 -1 -14 -1q-50 -2 -57 -2h-33v-475h-303v1365h336q208 0 325 -66q96 -55 155 -156q61 -103 61 -227q0 -174 -114 -296q-28 -32 -66 -57zM432 1088v-337h52q110 0 160 28q70 40 70 139q0 88 -55.5 129t-174.5 41h-52zM388 -447l132 414l272 -77
l-186 -401z" />
    <glyph glyph-name="rcommaaccent" unicode="&#x157;" horiz-adv-x="645" 
d="M388 908v-40q77 47 156 47q40 0 92 -9v-257q-59 8 -92 8q-92 0 -123 -45q-33 -46 -33 -172v-440h-291v908h291zM-3 -447l132 414l272 -77l-186 -401z" />
    <glyph glyph-name="Rcaron" unicode="&#x158;" horiz-adv-x="1164" 
d="M1144 0h-341l-265 478q-5 -1 -14 -1q-50 -2 -57 -2h-33v-475h-303v1365h336q208 0 325 -66q96 -55 155 -156q61 -103 61 -227q0 -174 -114 -296q-28 -32 -66 -57zM432 1088v-337h52q110 0 160 28q70 40 70 139q0 88 -55.5 129t-174.5 41h-52zM141 1746l221 102l177 -159
l177 159l221 -102l-311 -318h-173z" />
    <glyph glyph-name="rcaron" unicode="&#x159;" horiz-adv-x="643" 
d="M388 908v-40q77 47 156 47q38 0 92 -9v-257q-59 8 -92 8q-92 0 -123 -45q-33 -46 -33 -172v-440h-291v908h291zM368 1270l177 167l219 -101l-310 -317h-172l-311 317l220 101z" />
    <glyph glyph-name="Sacute" unicode="&#x15a;" horiz-adv-x="1085" 
d="M1007 1123l-251 -157q-47 73 -74 100q-49 52 -126 52q-70 0 -111 -47q-34 -40 -34 -86q0 -71 136 -122l124 -47q158 -60 238 -137q110 -105 110 -261q0 -195 -149 -329q-138 -123 -336 -123q-161 0 -286 86q-144 100 -198 339l297 79q5 -14 12 -48q43 -174 179 -174
q83 0 134 58q43 47 43 109q0 35 -20 61q-30 40 -152 87l-119 45q-314 120 -314 378q0 180 133 298q130 115 324 115q216 0 355 -157q43 -47 85 -119zM676 1882l269 -134l-352 -328l-196 104z" />
    <glyph glyph-name="sacute" unicode="&#x15b;" horiz-adv-x="807" 
d="M505 1454l269 -134l-352 -329l-197 105zM28 239l250 89q58 -108 133 -108q66 0 66 58q0 19 -14 31t-56 29l-152 62q-79 33 -124 97t-45 145q0 128 98 214q100 86 244 86q218 0 338 -208l-235 -108q-45 66 -105 66q-61 0 -61 -45q0 -16 13 -26.5t52 -26.5l127 -48
q211 -82 211 -255q0 -138 -106 -234q-100 -91 -255 -91q-271 0 -379 273z" />
    <glyph glyph-name="Scircumflex" unicode="&#x15c;" horiz-adv-x="1085" 
d="M1007 1123l-251 -157q-47 73 -74 100q-49 52 -126 52q-70 0 -111 -47q-34 -40 -34 -86q0 -71 136 -122l124 -47q158 -60 238 -137q110 -105 110 -261q0 -195 -149 -329q-138 -123 -336 -123q-161 0 -286 86q-144 100 -198 339l297 79q5 -14 12 -48q43 -174 179 -174
q83 0 134 58q43 47 43 109q0 35 -20 61q-30 40 -152 87l-119 45q-314 120 -314 378q0 180 133 298q130 115 324 115q216 0 355 -157q43 -47 85 -119zM536 1580l-177 -159l-221 102l312 318h172l312 -318l-221 -102z" />
    <glyph glyph-name="scircumflex" unicode="&#x15d;" horiz-adv-x="814" 
d="M30 239l250 89q58 -108 133 -108q66 0 66 58q0 19 -14 31t-56 29l-152 62q-80 33 -124.5 97t-44.5 145q0 128 98 214q100 86 244 86q217 0 337 -208l-234 -108q-45 66 -105 66q-61 0 -61 -45q0 -16 13.5 -27t51.5 -26l127 -48q211 -82 211 -255q0 -138 -106 -234
q-100 -91 -255 -91q-272 0 -379 273zM809 1096l-219 -101l-177 167l-177 -167l-220 101l311 317h172z" />
    <glyph glyph-name="Scedilla" unicode="&#x15e;" horiz-adv-x="1085" 
d="M530 -34l258 -102l-291 -344l-211 98l238 348q-178 3 -308 110q-116 97 -166 315l297 79q5 -14 12 -48q42 -174 179 -174q83 0 134 58q43 47 43 109q0 35 -20 61q-30 40 -152 87l-119 45q-314 120 -314 378q0 180 133 298q130 115 324 115q216 0 355 -157q43 -47 85 -119
l-251 -157q-47 73 -74 100q-49 52 -126 52q-70 0 -111 -47q-34 -40 -34 -86q0 -71 136 -122l124 -47q155 -59 238 -137q110 -105 110 -261q0 -190 -141 -321q-142 -131 -348 -131z" />
    <glyph glyph-name="scedilla" unicode="&#x15f;" horiz-adv-x="807" 
d="M28 239l250 89q58 -108 133 -108q66 0 66 58q0 19 -14 31t-56 29l-152 62q-79 33 -124 97t-45 145q0 128 98 214q100 86 244 86q218 0 338 -208l-235 -108q-45 66 -105 66q-61 0 -61 -45q0 -16 13 -26.5t52 -26.5l127 -48q211 -82 211 -255q0 -138 -106 -234
q-100 -91 -255 -91q-271 0 -379 273zM384 -32l262 -105l-290 -343l-211 98z" />
    <glyph glyph-name="Scaron" unicode="&#x160;" horiz-adv-x="1085" 
d="M1007 1123l-251 -157q-47 73 -74 100q-49 52 -126 52q-70 0 -111 -47q-34 -40 -34 -86q0 -71 136 -122l124 -47q158 -60 238 -137q110 -105 110 -261q0 -195 -149 -329q-138 -123 -336 -123q-161 0 -286 86q-144 100 -198 339l297 79q5 -14 12 -48q43 -174 179 -174
q83 0 134 58q43 47 43 109q0 35 -20 61q-30 40 -152 87l-119 45q-314 120 -314 378q0 180 133 298q130 115 324 115q216 0 355 -157q43 -47 85 -119zM138 1746l221 102l177 -159l177 159l221 -102l-312 -318h-172z" />
    <glyph glyph-name="scaron" unicode="&#x161;" horiz-adv-x="814" 
d="M30 239l250 89q58 -108 133 -108q66 0 66 58q0 19 -14 31t-56 29l-152 62q-80 33 -124.5 97t-44.5 145q0 128 98 214q100 86 244 86q217 0 337 -208l-234 -108q-45 66 -105 66q-61 0 -61 -45q0 -16 13.5 -27t51.5 -26l127 -48q211 -82 211 -255q0 -138 -106 -234
q-100 -91 -255 -91q-272 0 -379 273zM413 1270l177 167l219 -101l-310 -317h-172l-311 317l220 101z" />
    <glyph glyph-name="Tcommaaccent" unicode="&#x162;" horiz-adv-x="908" 
d="M-19 1365h945v-281h-321v-1084h-303v1084h-321v281zM242 -447l132 414l272 -77l-186 -401z" />
    <glyph glyph-name="tcommaaccent" unicode="&#x163;" horiz-adv-x="577" 
d="M526 649h-133v-332q0 -38 8 -52.5t27 -14.5q35 0 110 29v-269q-89 -29 -162 -29q-126 0 -201 83q-73 80 -73 241v344h-90v259h90v182l291 113v-295h133v-259zM74 -447l132 414l272 -77l-186 -401z" />
    <glyph glyph-name="Tcaron" unicode="&#x164;" horiz-adv-x="908" 
d="M-19 1365h945v-281h-321v-1084h-303v1084h-321v281zM55 1746l222 102l177 -159l177 159l221 -102l-312 -318h-173z" />
    <glyph glyph-name="tcaron" unicode="&#x165;" horiz-adv-x="804" 
d="M526 649h-133v-332q0 -38 8 -52.5t27 -14.5q35 0 110 29v-269q-89 -29 -162 -29q-126 0 -201 83q-73 80 -73 241v344h-90v259h90v182l291 113v-295h133v-259zM444 1037l131 414l272 -76l-186 -401z" />
    <glyph glyph-name="Tbar" unicode="&#x166;" horiz-adv-x="908" 
d="M302 0v647h-198v261h198v176h-321v281h945v-281h-321v-176h198v-261h-198v-647h-303z" />
    <glyph glyph-name="tbar" unicode="&#x167;" horiz-adv-x="577" 
d="M12 908h90v182l291 113v-295h133v-214h-133v-64h133v-214h-133v-100q0 -38 7.5 -52.5t27.5 -14.5q37 0 110 29v-268q-89 -29 -162 -29q-127 0 -201 83q-73 80 -73 241v111h-90v214h90v64h-90v214z" />
    <glyph glyph-name="Utilde" unicode="&#x168;" horiz-adv-x="1321" 
d="M131 1365h303v-835q0 -136 27 -183q23 -42 81 -71q55 -28 118 -28t119 28q56 29 81 71q26 47 26 183v835h303v-871q0 -173 -61 -276q-64 -108 -180 -176q-131 -76 -288 -76q-216 0 -371 135q-83 72 -121 166q-37 90 -37 227v871zM765 1805l242 -52q-7 -113 -43 -172
q-26 -43 -76 -68.5t-108 -25.5q-79 0 -166 41q-24 12 -38 12q-10 0 -14.5 -11.5t-12.5 -58.5l-236 52q10 111 49 173q27 42 75 67.5t99 25.5q82 0 174 -47q22 -11 33 -11t15 13.5t7 61.5z" />
    <glyph glyph-name="utilde" unicode="&#x169;" horiz-adv-x="1046" 
d="M658 0v36q-89 -70 -200 -70q-133 0 -234 89q-127 112 -127 362v491h291v-477q0 -110 23 -154q25 -49 103 -49q87 0 119 57q25 43 25 163v460h291v-908h-291zM628 1377l242 -52q-9 -118 -43 -172q-25 -43 -75 -68.5t-109 -25.5q-81 0 -166 41q-24 12 -38 12
q-10 0 -14.5 -11.5t-12.5 -57.5l-236 51q10 111 49 173q27 41 75 67t99 26q83 0 175 -47q20 -11 33 -11q10 0 14 14t7 61z" />
    <glyph glyph-name="Umacron" unicode="&#x16a;" horiz-adv-x="1321" 
d="M131 1365h303v-835q0 -136 27 -183q23 -42 81 -71q55 -28 118 -28t119 28q56 29 81 71q26 47 26 183v835h303v-871q0 -173 -61 -276q-64 -108 -180 -176q-131 -76 -288 -76q-216 0 -371 135q-83 72 -121 166q-37 90 -37 227v871zM316 1517v240h688v-240h-688z" />
    <glyph glyph-name="umacron" unicode="&#x16b;" horiz-adv-x="1046" 
d="M658 0v36q-89 -70 -200 -70q-133 0 -234 89q-127 112 -127 362v491h291v-477q0 -110 23 -154q25 -49 103 -49q87 0 119 57q25 43 25 163v460h291v-908h-291zM179 1090v240h688v-240h-688z" />
    <glyph glyph-name="Ubreve" unicode="&#x16c;" horiz-adv-x="1321" 
d="M131 1365h303v-835q0 -136 27 -183q23 -42 81 -71q55 -28 118 -28t119 28q56 29 81 71q26 47 26 183v835h303v-871q0 -173 -61 -276q-64 -108 -180 -176q-131 -76 -288 -76q-216 0 -371 135q-83 72 -121 166q-37 90 -37 227v871zM322 1799l251 19q4 -101 20 -123
q21 -28 62 -28q45 0 65 35q14 24 27 115l251 -19q-11 -94 -17 -123q-4 -23 -23 -59q-42 -81 -115 -130q-82 -53 -188 -53q-155 0 -252 105q-71 77 -78 169q-1 21 -3 92z" />
    <glyph glyph-name="ubreve" unicode="&#x16d;" horiz-adv-x="1046" 
d="M658 0v36q-89 -70 -200 -70q-133 0 -234 89q-127 112 -127 362v491h291v-477q0 -110 23 -154q25 -49 103 -49q87 0 119 57q25 43 25 163v460h291v-908h-291zM188 1370l251 19q4 -107 21 -130q20 -27 60 -27q49 0 72 47q6 12 21 110l251 -19q-11 -94 -17 -123
q-6 -25 -24 -59q-40 -82 -114 -130q-82 -53 -188 -53q-155 0 -252 105q-71 76 -78 168q-2 23 -3 92z" />
    <glyph glyph-name="Uring" unicode="&#x16e;" horiz-adv-x="1321" 
d="M659 1881q112 0 187 -82q62 -68 62 -161q0 -108 -81 -181q-71 -63 -166 -63q-103 0 -176 71q-73 72 -73 176q0 102 82 177q69 63 165 63zM659 1743q-44 0 -74.5 -31t-30.5 -76q0 -41 32 -73q31 -31 74 -31q44 0 75 31t31 74q0 45 -31 75.5t-76 30.5zM131 1365h303v-835
q0 -136 27 -183q23 -42 81 -71q55 -28 118 -28t119 28q56 29 81 71q26 47 26 183v835h303v-871q0 -173 -61 -276q-64 -108 -180 -176q-131 -76 -288 -76q-216 0 -371 135q-83 72 -121 166q-37 90 -37 227v871z" />
    <glyph glyph-name="uring" unicode="&#x16f;" horiz-adv-x="1046" 
d="M658 0v36q-89 -70 -200 -70q-133 0 -234 89q-127 112 -127 362v491h291v-477q0 -110 23 -154q25 -49 103 -49q87 0 119 57q25 43 25 163v460h291v-908h-291zM522 1454q112 0 187 -82q62 -70 62 -162q0 -108 -81 -180q-70 -64 -169 -64q-110 0 -183 82q-63 71 -63 166
q0 103 82 176q68 64 165 64zM522 1316q-44 0 -74.5 -31.5t-30.5 -76.5q0 -41 32 -73q31 -31 74 -31q44 0 75 31t31 75t-31 75t-76 31z" />
    <glyph glyph-name="Uhungarumlaut" unicode="&#x170;" horiz-adv-x="1330" 
d="M632 1878l225 -118l84 118l235 -127l-350 -327l-147 85l133 187l-292 -273l-166 99zM131 1365h303v-835q0 -136 27 -183q23 -42 81 -71q55 -28 118 -28t119 28q56 29 81 71q26 47 26 183v835h303v-871q0 -173 -61 -276q-64 -108 -180 -176q-131 -76 -288 -76
q-216 0 -371 135q-83 72 -121 166q-37 90 -37 227v871z" />
    <glyph glyph-name="uhungarumlaut" unicode="&#x171;" horiz-adv-x="1046" 
d="M470 1445l225 -118l84 118l236 -126l-351 -327l-147 84l133 188l-292 -273l-166 99zM658 0v36q-89 -70 -200 -70q-133 0 -234 89q-127 112 -127 362v491h291v-477q0 -110 23 -154q25 -49 103 -49q87 0 119 57q25 43 25 163v460h291v-908h-291z" />
    <glyph glyph-name="Uogonek" unicode="&#x172;" horiz-adv-x="1321" 
d="M803 -17q-45 -63 -45 -93q0 -14 16 -14q27 0 73 25l88 -205q-94 -33 -130 -42q-37 -9 -82 -9q-131 0 -202 78q-51 57 -51 132q0 59 45 130q-121 28 -216 107q-87 72 -124 157q-44 105 -44 245v871h303v-835q0 -138 27 -184q24 -41 81 -70q55 -28 118 -28q62 0 118 28
q57 29 82 71q26 47 26 183v835h303v-871q10 -395 -386 -511z" />
    <glyph glyph-name="uogonek" unicode="&#x173;" horiz-adv-x="1046" 
d="M949 908v-908q-58 -74 -58 -109q0 -14 16 -14q27 0 74 24l87 -205q-144 -50 -212 -50q-131 0 -202 77q-51 57 -51 133q0 64 55 144v36q-89 -70 -200 -70q-133 0 -234 89q-127 112 -127 362v491h291v-477q0 -110 23 -154q25 -49 103 -49q87 0 119 57q25 43 25 163v460h291
z" />
    <glyph glyph-name="Wcircumflex" unicode="&#x174;" horiz-adv-x="1797" 
d="M-19 1365h316l238 -807l239 807h248l240 -807l237 807h316l-411 -1365h-266l-240 808l-240 -808h-266zM898 1580l-177 -159l-221 102l312 318h172l312 -318l-221 -102z" />
    <glyph glyph-name="wcircumflex" unicode="&#x175;" horiz-adv-x="1339" 
d="M295 0l-326 908h305l145 -437l142 437h217l143 -437l145 437h304l-326 -908h-234l-141 428l-140 -428h-234zM1066 1096l-219 -101l-177 167l-178 -167l-219 101l311 317h172z" />
    <glyph glyph-name="Ycircumflex" unicode="&#x176;" horiz-adv-x="1157" 
d="M427 0v562l-459 803h340l271 -488l271 488h339l-459 -803v-562h-303zM579 1580l-177 -159l-221 102l312 318h172l312 -318l-221 -102z" />
    <glyph glyph-name="ycircumflex" unicode="&#x177;" horiz-adv-x="973" 
d="M78 -478l235 527l-344 859h308l196 -503l224 503h307l-620 -1386h-306zM884 1096l-219 -101l-178 167l-177 -167l-219 101l311 317h171z" />
    <glyph glyph-name="Ydieresis" unicode="&#x178;" horiz-adv-x="1157" 
d="M427 0v562l-459 803h340l271 -488l271 488h339l-459 -803v-562h-303zM772 1793q73 0 121 -53q40 -43 40 -103q0 -65 -47 -110q-46 -46 -115 -46q-67 0 -113 46q-47 47 -47 113q0 62 48 108q47 45 113 45zM386 1793q73 0 121 -53q40 -43 40 -103q0 -69 -52 -115
q-47 -41 -109 -41q-68 0 -114 46q-47 47 -47 112q0 63 48 109q47 45 113 45z" />
    <glyph glyph-name="Zacute" unicode="&#x179;" horiz-adv-x="1056" 
d="M1023 1365v-223l-607 -860h621v-282h-1022v224l617 861h-561v280h952zM621 1882l268 -134l-351 -328l-197 104z" />
    <glyph glyph-name="zacute" unicode="&#x17a;" horiz-adv-x="866" 
d="M520 1454l268 -134l-351 -329l-197 105zM60 908h769v-205l-394 -445h411v-258h-812v204l395 447h-369v257z" />
    <glyph glyph-name="Zdotaccent" unicode="&#x17b;" horiz-adv-x="1056" 
d="M1023 1365v-223l-607 -860h621v-282h-1022v224l617 861h-561v280h952zM559 1805q79 0 131 -57q43 -46 43 -111q0 -74 -56 -124q-50 -44 -119 -44q-76 0 -129 57q-43 47 -43 114q0 70 56 120q50 45 117 45z" />
    <glyph glyph-name="zdotaccent" unicode="&#x17c;" horiz-adv-x="866" 
d="M60 908h769v-205l-394 -445h411v-258h-812v204l395 447h-369v257zM439 1389q79 0 131 -57q43 -47 43 -112q0 -73 -56 -123q-49 -45 -119 -45q-76 0 -129 57q-43 47 -43 114q0 71 56 121q50 45 117 45z" />
    <glyph glyph-name="Zcaron" unicode="&#x17d;" horiz-adv-x="1056" 
d="M1023 1365v-223l-607 -860h621v-282h-1022v224l617 861h-561v280h952zM161 1746l222 102l177 -159l177 159l221 -102l-312 -318h-173z" />
    <glyph glyph-name="zcaron" unicode="&#x17e;" horiz-adv-x="866" 
d="M57 908h769v-205l-394 -445h411v-258h-812v204l395 447h-369v257zM437 1270l177 167l220 -101l-311 -317h-172l-311 317l220 101z" />
    <glyph glyph-name="longs" unicode="&#x17f;" horiz-adv-x="529" 
d="M403 1054v-1054h-291v649h-82v259h82v152q0 180 91 259q74 65 189 65q70 0 155 -19v-259q-51 19 -89 19q-55 0 -55 -71z" />
    <glyph glyph-name="florin" unicode="&#x192;" horiz-adv-x="1020" 
d="M-15 -378l55 262q18 -4 39 -12q37 -15 65 -15q43 0 59 82l148 710h-85l54 259h86l34 164q38 182 144 258q83 61 182 61q68 0 184 -35l-55 -261q-78 27 -103 27q-42 0 -60 -82l-27 -132h152l-54 -259h-153l-155 -742q-37 -180 -143 -258q-83 -61 -183 -61q-73 0 -184 34z
" />
    <glyph glyph-name="Ohorn" unicode="&#x1a0;" horiz-adv-x="1596" 
d="M1186 1484l225 113q66 -49 82 -65q90 -90 90 -221q0 -172 -164 -285q91 -164 91 -345q0 -186 -95 -350q-96 -165 -263 -264q-173 -101 -370 -101t-370 101q-169 99 -263 264q-95 164 -95 351q0 192 99 358q97 166 270 264q169 95 360 95q265 0 471 -174q71 35 71 86
q0 39 -25 70q-24 30 -114 103zM779 1117q-181 0 -309 -141q-111 -123 -111 -301q0 -113 57 -212q57 -100 159 -158q99 -57 207 -57t207 57q102 58 159 158t57 218q0 196 -143 327q-118 109 -283 109z" />
    <glyph glyph-name="ohorn" unicode="&#x1a1;" horiz-adv-x="1172" 
d="M887 796q25 25 25 57q0 39 -24 71q-25 30 -115 103l225 113q62 -45 82 -65q90 -90 90 -222q0 -167 -158 -280q14 -58 14 -116q0 -221 -159 -365q-139 -126 -334 -126q-225 0 -371 162q-123 138 -123 326q0 220 159 362q140 126 336 126q207 0 353 -146zM531 680
q-57 0 -103 -28q-96 -58 -96 -198q0 -117 68 -177q55 -49 133 -49q87 0 146 62q54 58 54 166q0 116 -68 175q-55 49 -134 49z" />
    <glyph glyph-name="Uhorn" unicode="&#x1af;" horiz-adv-x="1465" 
d="M1189 1365v-125q43 31 43 71q0 39 -25 70q-24 30 -114 103l225 113q62 -45 82 -65q90 -90 90 -223q0 -117 -73.5 -202.5t-227.5 -147.5v-465q0 -173 -61 -276q-64 -108 -180 -176q-131 -76 -288 -76q-216 0 -371 135q-83 72 -121 166q-37 90 -37 227v871h303v-835
q0 -136 27 -183q23 -42 81 -71q55 -28 118 -28t119 28q56 29 81 71q26 47 26 183v835h303z" />
    <glyph glyph-name="uhorn" unicode="&#x1b0;" horiz-adv-x="1261" 
d="M949 908v-131q52 31 52 77q0 40 -25 71q-26 30 -114 102l225 113q66 -49 82 -65q90 -90 90 -223q0 -115 -77.5 -205.5t-220.5 -142.5l-12 -5v-499h-291v36q-89 -70 -200 -70q-133 0 -234 89q-127 112 -127 362v491h291v-477q0 -110 23 -154q25 -49 103 -49q87 0 119 57
q25 43 25 163v460h291z" />
    <glyph glyph-name="uni01C4" unicode="&#x1c4;" horiz-adv-x="2329" 
d="M131 0v1365h336q311 0 507 -152q245 -191 245 -529q0 -341 -245 -532q-38 -30 -72 -49q-190 -103 -435 -103h-336zM473 1084h-39v-803h39q110 0 201 33.5t145 94.5q96 107 96 272q0 239 -182 343q-105 60 -260 60zM2295 1365v-223l-607 -860h621v-282h-1021v224l616 861
h-561v280h952zM1434 1746l221 102l177 -159l177 159l221 -102l-311 -318h-173z" />
    <glyph glyph-name="uni01C5" unicode="&#x1c5;" horiz-adv-x="2139" 
d="M131 0v1365h336q311 0 507 -152q245 -191 245 -529q0 -341 -245 -532q-38 -30 -72 -49q-190 -103 -435 -103h-336zM473 1084h-39v-803h39q110 0 201 33.5t145 94.5q96 107 96 272q0 239 -182 343q-105 60 -260 60zM1329 908h769v-205l-394 -445h411v-258h-812v204
l395 447h-369v257zM1709 1270l177 167l220 -101l-311 -317h-172l-311 317l220 101z" />
    <glyph glyph-name="uni01C6" unicode="&#x1c6;" horiz-adv-x="1978" 
d="M1016 1365v-1365h-291v44q-109 -78 -227 -78q-116 0 -220 60q-107 62 -172 173q-67 115 -67 256q0 225 159 369q130 118 300 118q118 0 227 -79v502h291zM529 680q-84 0 -143 -62q-54 -58 -54 -166q0 -115 69 -175q55 -49 131 -49q87 0 142 61q54 59 54 167
q0 117 -68 177q-53 47 -131 47zM1170 908h768v-205l-394 -445h412v-258h-812v204l395 447h-369v257zM1550 1270l177 167l219 -101l-310 -317h-172l-311 317l219 101z" />
    <glyph glyph-name="uni01C7" unicode="&#x1c7;" horiz-adv-x="1830" 
d="M131 0v1365h303v-1084h481v-281h-784zM1395 1365h303v-936q0 -96 -14 -163q-13 -63 -48 -125q-48 -81 -124 -124q-90 -51 -204 -51q-108 0 -199 44q-89 43 -188 145l180 218q113 -125 193 -125q101 0 101 181v936z" />
    <glyph glyph-name="uni01C8" unicode="&#x1c8;" horiz-adv-x="1413" 
d="M131 0v1365h303v-1084h481v-281h-784zM1023 908h291v-1085q0 -179 -91 -260q-74 -65 -185 -65q-74 0 -160 30v268q75 -29 110 -29q20 0 27.5 14.5t7.5 52.5v1074zM1168 1388q78 0 131 -57q43 -47 43 -111q0 -74 -56 -124q-50 -45 -117 -45q-73 0 -123 50q-51 49 -51 121
q0 71 56 121q49 45 117 45z" />
    <glyph glyph-name="uni01C9" unicode="&#x1c9;" horiz-adv-x="989" 
d="M390 1365v-1365h-291v1365h291zM600 908h291v-1085q0 -179 -91 -260q-74 -65 -185 -65q-75 0 -160 30v268q75 -29 110 -29q20 0 27.5 14.5t7.5 52.5v1074zM745 1388q79 0 131 -57q43 -46 43 -111q0 -74 -56 -124q-49 -45 -117 -45q-73 0 -123 50q-51 49 -51 121
q0 70 56 121q50 45 117 45z" />
    <glyph glyph-name="uni01CA" unicode="&#x1ca;" horiz-adv-x="2334" 
d="M434 0h-303v1365h253l631 -828v828h303v-1365h-253l-631 828v-828zM1899 1365h303v-936q0 -96 -14 -163q-13 -63 -48 -125q-48 -81 -124 -124q-90 -51 -204 -51q-108 0 -199 44q-89 43 -188 145l180 218q113 -125 193 -125q101 0 101 181v936z" />
    <glyph glyph-name="uni01CB" unicode="&#x1cb;" horiz-adv-x="1950" 
d="M434 0h-303v1365h253l631 -828v828h303v-1365h-253l-631 828v-828zM1561 908h291v-1085q0 -179 -91 -260q-74 -65 -185 -65q-74 0 -160 30v268q75 -29 110 -29q20 0 27.5 15t7.5 52v1074zM1706 1388q78 0 131 -57q43 -46 43 -111q0 -74 -56 -124q-50 -45 -117 -45
q-73 0 -123 50q-51 49 -51 121q0 71 56 121q49 45 117 45z" />
    <glyph glyph-name="uni01CC" unicode="&#x1cc;" horiz-adv-x="1546" 
d="M388 908v-37q91 71 200 71q133 0 234 -89q127 -112 127 -362v-491h-291v477q0 110 -23 154q-25 49 -103 49q-88 0 -119 -57q-25 -43 -25 -163v-460h-291v908h291zM1157 908h291v-1085q0 -179 -91 -260q-74 -65 -185 -65q-74 0 -160 30v268q75 -29 110 -29q20 0 27.5 14.5
t7.5 52.5v1074zM1302 1388q78 0 131 -57q43 -46 43 -111q0 -74 -56 -124q-50 -45 -117 -45q-73 0 -123 50q-51 49 -51 121q0 71 56 121q49 45 117 45z" />
    <glyph glyph-name="uni01CD" unicode="&#x1cd;" horiz-adv-x="1330" 
d="M1027 0l-105 301h-516l-105 -301h-320l510 1365h347l510 -1365h-321zM503 582h322l-161 459zM266 1746l222 102l177 -159l177 159l221 -102l-312 -318h-173z" />
    <glyph glyph-name="uni01CE" unicode="&#x1ce;" horiz-adv-x="1112" 
d="M1016 908v-908h-291v44q-109 -78 -227 -78q-116 0 -220 60q-107 62 -172 173q-67 115 -67 256q0 225 159 369q130 118 300 118q118 0 227 -78v44h291zM529 680q-84 0 -143 -62q-54 -58 -54 -167q0 -114 69 -174q55 -49 131 -49q87 0 142 61q54 59 54 167q0 117 -68 177
q-53 47 -131 47zM528 1270l177 167l220 -101l-311 -317h-172l-311 317l220 101z" />
    <glyph glyph-name="uni01CF" unicode="&#x1cf;" horiz-adv-x="566" 
d="M132 1365h303v-1365h-303v1365zM-115 1746l221 102l177 -159l177 159l222 -102l-312 -318h-173z" />
    <glyph glyph-name="uni01D0" unicode="&#x1d0;" horiz-adv-x="487" 
d="M98 908h291v-908h-291v908zM244 1270l177 167l220 -101l-311 -317h-172l-311 317l220 101z" />
    <glyph glyph-name="uni01D1" unicode="&#x1d1;" horiz-adv-x="1563" 
d="M782 1399q195 0 359 -95q173 -99 270 -264q99 -167 99 -358q0 -187 -95 -351q-94 -165 -263 -264q-173 -101 -376 -101q-191 0 -364 101q-169 99 -263 264q-95 166 -95 362q0 187 99 347q105 171 270 264q169 95 359 95zM779 1117q-181 0 -309 -141q-111 -123 -111 -301
q0 -113 57 -212q57 -100 159 -158q99 -57 207 -57t207 57q102 58 159 158t57 218q0 196 -143 327q-118 109 -283 109zM384 1746l221 102l177 -159l177 159l221 -102l-312 -318h-172z" />
    <glyph glyph-name="uni01D2" unicode="&#x1d2;" horiz-adv-x="1065" 
d="M539 942q219 0 364 -162q123 -136 123 -325q0 -219 -159 -363q-139 -126 -335 -126q-224 0 -370 162q-123 138 -123 327q0 183 116 317q149 170 384 170zM531 680q-57 0 -103 -28q-96 -58 -96 -198q0 -117 68 -177q55 -49 133 -49q87 0 146 62q54 58 54 166
q0 116 -68 175q-55 49 -134 49zM533 1270l177 167l219 -101l-310 -317h-172l-311 317l219 101z" />
    <glyph glyph-name="uni01D3" unicode="&#x1d3;" horiz-adv-x="1321" 
d="M131 1365h303v-835q0 -136 27 -183q23 -42 81 -71q55 -28 118 -28t119 28q56 29 81 71q26 47 26 183v835h303v-871q0 -173 -61 -276q-64 -108 -180 -176q-131 -76 -288 -76q-216 0 -371 135q-83 72 -121 166q-37 90 -37 227v871zM262 1746l221 102l177 -159l177 159
l221 -102l-311 -318h-173z" />
    <glyph glyph-name="uni01D4" unicode="&#x1d4;" horiz-adv-x="1046" 
d="M658 0v36q-89 -70 -200 -70q-133 0 -234 89q-127 112 -127 362v491h291v-477q0 -110 23 -154q25 -49 103 -49q87 0 119 57q25 43 25 163v460h291v-908h-291zM523 1270l177 167l220 -101l-311 -317h-172l-311 317l220 101z" />
    <glyph glyph-name="Gcaron" unicode="&#x1e6;" horiz-adv-x="1493" 
d="M756 501v277h680v-143q0 -218 -88 -369q-80 -137 -209 -210q-158 -90 -347 -90q-210 0 -384 102q-161 95 -256 256q-98 167 -98 358q0 192 97 358q98 166 261 260q172 99 378 99q158 0 287 -58q129 -59 273 -195l-216 -201q-71 71 -128 108q-98 64 -219 64
q-196 0 -317 -139q-111 -124 -111 -296q0 -196 141 -324q122 -110 290 -110q128 0 213 65.5t117 187.5h-364zM394 1746l221 102l177 -159l177 159l222 -102l-312 -318h-173z" />
    <glyph glyph-name="gcaron" unicode="&#x1e7;" horiz-adv-x="1112" 
d="M724 -18v62q-112 -78 -227 -78q-197 0 -334 153q-125 140 -125 336q0 225 160 369q130 118 300 118q114 0 226 -78v44h292v-926q0 -233 -152 -370q-139 -124 -348 -124q-140 0 -249 58q-111 59 -221 190l198 186q12 -13 29 -35q58 -72 115.5 -104.5t127.5 -32.5
q101 0 156 61q52 58 52 171zM528 680q-84 0 -143 -62q-54 -58 -54 -166q0 -115 69 -175q55 -49 131 -49q87 0 142 61q54 59 54 167q0 117 -68 177q-53 47 -131 47zM528 1270l177 167l220 -101l-311 -317h-172l-311 317l220 101z" />
    <glyph glyph-name="uni01F4" unicode="&#x1f4;" horiz-adv-x="1493" 
d="M756 501v277h680v-143q0 -218 -88 -369q-80 -137 -209 -210q-158 -90 -347 -90q-210 0 -384 102q-161 95 -256 256q-98 167 -98 358q0 192 97 358q98 166 261 260q172 99 378 99q158 0 287 -58q129 -59 273 -195l-216 -201q-71 71 -128 108q-98 64 -219 64
q-196 0 -317 -139q-111 -124 -111 -296q0 -196 141 -324q122 -110 290 -110q128 0 213 65.5t117 187.5h-364zM901 1882l269 -134l-352 -328l-196 104z" />
    <glyph glyph-name="uni01F5" unicode="&#x1f5;" horiz-adv-x="1112" 
d="M724 -18v62q-112 -78 -227 -78q-197 0 -334 153q-125 140 -125 336q0 225 160 369q130 118 300 118q114 0 226 -78v44h292v-926q0 -233 -152 -370q-139 -124 -348 -124q-140 0 -249 58q-111 59 -221 190l198 186q12 -13 29 -35q58 -72 115.5 -104.5t127.5 -32.5
q101 0 156 61q52 58 52 171zM528 680q-84 0 -143 -62q-54 -58 -54 -166q0 -115 69 -175q55 -49 131 -49q87 0 142 61q54 59 54 167q0 117 -68 177q-53 47 -131 47zM622 1454l269 -134l-352 -329l-197 105z" />
    <glyph glyph-name="Aringacute" unicode="&#x1fa;" horiz-adv-x="1330" 
d="M940 2081l-235 -204q51 -7 92 -32q115 -67 115 -191q0 -97 -75 -163q-71 -64 -172 -64q-117 0 -190 81q-58 64 -58 145q0 96 80 167l-105 52l280 334zM664 1752q-44 0 -74.5 -29t-30.5 -71q0 -39 32 -68t73 -29q44 0 75 29t31 70t-31 69.5t-75 28.5zM1027 0l-105 301
h-516l-105 -301h-320l510 1365h347l510 -1365h-321zM503 582h322l-161 459z" />
    <glyph glyph-name="aringacute" unicode="&#x1fb;" horiz-adv-x="1112" 
d="M860 1748l-317 -297q76 -1 139 -46q102 -73 102 -197q0 -108 -81 -181q-71 -63 -166 -63q-112 0 -185 82q-63 70 -63 162q0 79 50 146q49 65 128 88l-155 82l280 358zM536 1313q-44 0 -74.5 -31t-30.5 -76q0 -42 31 -73t74 -31q44 0 75 31t31 75t-31 74.5t-75 30.5z
M1016 908v-908h-291v44q-109 -78 -227 -78q-116 0 -220 60q-107 62 -172 173q-67 115 -67 256q0 225 159 369q130 118 300 118q118 0 227 -78v44h291zM529 680q-84 0 -143 -62q-54 -58 -54 -167q0 -114 69 -174q55 -49 131 -49q87 0 142 61q54 59 54 167q0 117 -68 177
q-53 47 -131 47z" />
    <glyph glyph-name="AEacute" unicode="&#x1fc;" horiz-adv-x="1742" 
d="M860 0v301h-383l-156 -301h-340l723 1365h958v-278h-501v-256h445v-279h-445v-271h520v-281h-821zM624 582h236v440h-7zM1172 1882l269 -134l-352 -328l-197 104z" />
    <glyph glyph-name="aeacute" unicode="&#x1fd;" horiz-adv-x="1610" 
d="M809 832q131 111 296 111q208 0 343 -151q123 -138 123 -355q0 -8 -2 -78h-633q26 -73 68.5 -106t110.5 -33q111 0 171 92l262 -101q-159 -245 -432 -245q-174 0 -301 106q-118 -106 -331 -106q-172 0 -287 67q-159 90 -159 254q0 150 133 228q109 64 285 64h168
q-39 112 -151 112q-128 0 -273 -91l-152 189q121 84 218 119q100 35 219 35q210 0 324 -111zM936 550h347q-19 62 -49 94q-47 47 -125 47q-135 0 -173 -141zM638 316v71h-156q-157 0 -157 -84q0 -35 26 -55q41 -33 129 -33q158 0 158 101zM888 1454l269 -134l-352 -329
l-197 105z" />
    <glyph glyph-name="Oslashacute" unicode="&#x1fe;" horiz-adv-x="1578" 
d="M1334 1372l166 -160l-119 -116q136 -187 136 -413q0 -186 -95 -352q-94 -165 -263 -264q-173 -101 -370 -101q-115 0 -228 37t-201 103l-117 -113l-165 160l119 115q-136 190 -136 412q0 187 95 353q100 174 274 271q169 95 362 95q223 0 426 -140zM1162 885l-590 -573
q103 -64 217 -64q109 0 206 57q102 58 160 158q57 99 57 218q0 107 -50 204zM415 480l592 574q-101 63 -218 63q-187 0 -312 -140q-111 -125 -111 -296q0 -110 49 -201zM893 1882l269 -134l-352 -328l-197 104z" />
    <glyph glyph-name="oslashacute" unicode="&#x1ff;" horiz-adv-x="1092" 
d="M52 131l72 67q-72 118 -72 255q0 221 159 363q139 126 335 126q163 0 285 -88l65 61l143 -138l-71 -66q71 -122 71 -256q0 -219 -159 -363q-139 -126 -337 -126q-152 0 -283 88l-65 -61zM348 405l280 261q-45 17 -84 17q-87 0 -146 -62q-55 -59 -55 -167q0 -27 5 -49z
M743 503l-279 -260q39 -18 81 -18q90 0 148 64q56 61 56 171q0 24 -6 43zM637 1454l268 -134l-351 -329l-197 105z" />
    <glyph glyph-name="uni0200" unicode="&#x200;" horiz-adv-x="1330" 
d="M395 1878l82 -116l221 116l278 -356l-171 -99l-258 241l108 -153l-151 -87l-350 327zM1027 0l-105 301h-516l-105 -301h-320l510 1365h347l510 -1365h-321zM503 582h322l-161 459z" />
    <glyph glyph-name="uni0201" unicode="&#x201;" horiz-adv-x="1112" 
d="M247 1445l83 -116l221 116l278 -355l-172 -99l-258 241l108 -153l-151 -87l-350 327zM1016 908v-908h-291v44q-109 -78 -227 -78q-116 0 -220 60q-107 62 -172 173q-67 115 -67 256q0 225 159 369q130 118 300 118q118 0 227 -78v44h291zM529 680q-84 0 -143 -62
q-54 -58 -54 -167q0 -114 69 -174q55 -49 131 -49q87 0 142 61q54 60 54 167q0 117 -68 177q-53 47 -131 47z" />
    <glyph glyph-name="Scommaaccent" unicode="&#x218;" horiz-adv-x="1085" 
d="M1007 1123l-251 -157q-47 73 -74 100q-49 52 -126 52q-70 0 -111 -47q-34 -40 -34 -86q0 -71 136 -122l124 -47q158 -60 238 -137q110 -105 110 -261q0 -195 -149 -329q-138 -123 -336 -123q-161 0 -286 86q-144 100 -198 339l297 79q5 -14 12 -48q43 -174 179 -174
q83 0 134 58q43 47 43 109q0 35 -20 61q-30 40 -152 87l-119 45q-314 120 -314 378q0 180 133 298q130 115 324 115q216 0 355 -157q43 -47 85 -119zM522 -32l262 -105l-291 -343l-211 98z" />
    <glyph glyph-name="scommaaccent" unicode="&#x219;" horiz-adv-x="807" 
d="M211 -447l132 414l272 -77l-186 -401zM28 239l250 89q58 -108 133 -108q66 0 66 58q0 19 -14 31t-56 29l-152 62q-79 33 -124 97t-45 145q0 128 98 214q100 86 244 86q218 0 338 -208l-235 -108q-45 66 -105 66q-61 0 -61 -45q0 -16 13 -26.5t52 -26.5l127 -48
q211 -82 211 -255q0 -138 -106 -234q-100 -91 -255 -91q-271 0 -379 273z" />
    <glyph glyph-name="uni021A" unicode="&#x21a;" horiz-adv-x="908" 
d="M-19 1365h945v-281h-321v-1084h-303v1084h-321v281zM242 -447l132 414l272 -77l-186 -401z" />
    <glyph glyph-name="uni021B" unicode="&#x21b;" horiz-adv-x="577" 
d="M526 649h-133v-332q0 -38 8 -52.5t27 -14.5q35 0 110 29v-269q-89 -29 -162 -29q-126 0 -201 83q-73 80 -73 241v344h-90v259h90v182l291 113v-295h133v-259zM74 -447l132 414l272 -77l-186 -401z" />
    <glyph glyph-name="uni0226" unicode="&#x226;" horiz-adv-x="1330" 
d="M1027 0l-105 301h-516l-105 -301h-320l510 1365h347l510 -1365h-321zM503 582h322l-161 459zM664 1805q78 0 131 -57q43 -46 43 -111q0 -74 -56 -124q-50 -44 -119 -44q-77 0 -129 57q-43 47 -43 114q0 70 56 120q49 45 117 45z" />
    <glyph glyph-name="uni0227" unicode="&#x227;" horiz-adv-x="1112" 
d="M1016 908v-908h-291v44q-109 -78 -227 -78q-116 0 -220 60q-107 62 -172 173q-67 115 -67 256q0 225 159 369q130 118 300 118q118 0 227 -78v44h291zM529 680q-84 0 -143 -62q-54 -58 -54 -167q0 -114 69 -174q55 -49 131 -49q87 0 142 61q54 59 54 167q0 117 -68 177
q-53 47 -131 47zM527 1389q79 0 131 -57q43 -47 43 -112q0 -73 -56 -123q-49 -45 -119 -45q-76 0 -129 57q-43 47 -43 114q0 71 56 121q50 45 117 45z" />
    <glyph glyph-name="uni0237" unicode="&#x237;" horiz-adv-x="500" 
d="M111 908h291v-1085q0 -179 -91 -260q-74 -65 -185 -65q-74 0 -160 30v268q75 -29 110 -29q20 0 27.5 14.5t7.5 52.5v1074z" />
    <glyph glyph-name="uni02BB" unicode="&#x2bb;" horiz-adv-x="571" 
d="M535 1437l-213 -549l-259 87l259 541z" />
    <glyph glyph-name="afii57929" unicode="&#x2bc;" horiz-adv-x="650" 
d="M84 923l215 599l267 -98l-262 -588z" />
    <glyph glyph-name="circumflex" unicode="&#x2c6;" horiz-adv-x="975" 
d="M884 1096l-219 -101l-177 167l-177 -167l-220 101l311 317h172z" />
    <glyph glyph-name="caron" unicode="&#x2c7;" horiz-adv-x="975" 
d="M488 1270l177 167l219 -101l-310 -317h-172l-311 317l220 101z" />
    <glyph glyph-name="uni02C9" unicode="&#x2c9;" horiz-adv-x="975" 
d="M143 1090v240h688v-240h-688z" />
    <glyph glyph-name="breve" unicode="&#x2d8;" horiz-adv-x="975" 
d="M149 1370l251 19q4 -107 21 -129q19 -28 60 -28q50 0 73 47q7 16 20 110l251 -19q-11 -94 -17 -123q-6 -23 -23 -59q-42 -82 -115 -130q-82 -53 -188 -53q-154 0 -252 104q-71 77 -78 169q-2 23 -3 92z" />
    <glyph glyph-name="dotaccent" unicode="&#x2d9;" horiz-adv-x="975" 
d="M487 1389q79 0 131 -57q43 -47 43 -111q0 -74 -56 -124q-49 -45 -117 -45q-73 0 -123 50q-51 50 -51 121t56 121q50 45 117 45z" />
    <glyph glyph-name="ring" unicode="&#x2da;" horiz-adv-x="975" 
d="M487 1454q112 0 187 -82q62 -70 62 -162q0 -108 -81 -181q-71 -63 -169 -63q-110 0 -183 82q-63 71 -63 166q0 102 82 177q69 63 165 63zM487 1316q-43 0 -74 -31.5t-31 -75.5q0 -43 31.5 -74t74.5 -31q44 0 75 31t31 75t-31 75t-76 31z" />
    <glyph glyph-name="ogonek" unicode="&#x2db;" horiz-adv-x="975" 
d="M648 0h291q-58 -73 -58 -110q0 -13 16 -13q27 0 74 24l87 -205q-144 -50 -212 -50q-131 0 -202 77q-51 57 -51 132q0 66 55 145z" />
    <glyph glyph-name="tilde" unicode="&#x2dc;" horiz-adv-x="975" 
d="M592 1377l242 -52q-9 -118 -43 -172q-25 -43 -75.5 -68.5t-108.5 -25.5q-81 0 -166 41q-24 12 -38 12q-10 0 -14.5 -11.5t-12.5 -57.5l-236 51q10 111 49 173q27 41 75 67t99 26q82 0 174 -47q22 -11 33 -11t15 13.5t7 61.5z" />
    <glyph glyph-name="hungarumlaut" unicode="&#x2dd;" horiz-adv-x="975" 
d="M439 1445l225 -118l84 118l236 -126l-351 -327l-147 84l133 188l-292 -273l-166 99z" />
    <glyph glyph-name="uni0309" unicode="&#x309;" horiz-adv-x="975" 
d="M682 1446h-261q3 86 9 110q6 22 32 54q14 19 14 24q0 10 -19 10l-75 -23l-87 205q96 34 133 42t81 8q140 0 206 -73q45 -51 45 -115t-42 -124l-33 -49q-3 -5 -3 -19q0 -6 -1 -14v-16q0 -8 1 -20z" />
    <glyph glyph-name="uni0323" unicode="&#x323;" horiz-adv-x="975" 
d="M488 -68q78 0 130 -57q43 -47 43 -111q0 -74 -56 -124q-49 -45 -117 -45q-74 0 -123 49q-51 50 -51 122q0 71 56 121q50 45 118 45z" />
    <glyph glyph-name="uni037E" unicode="&#x37e;" horiz-adv-x="566" 
d="M16 -311l215 599l267 -98l-262 -588zM319 884q79 0 131 -57q43 -46 43 -111q0 -74 -56 -124q-50 -44 -117 -44q-73 0 -123 50q-51 50 -51 121q0 70 56 120q50 45 117 45z" />
    <glyph glyph-name="uni0387" unicode="&#x387;" horiz-adv-x="544" 
d="M272 852q78 0 131 -57q43 -47 43 -111q0 -74 -56 -124q-50 -45 -119 -45q-77 0 -129 57q-43 47 -43 114q0 71 56 121q49 45 117 45z" />
    <glyph glyph-name="uni1E1E" unicode="&#x1e1e;" horiz-adv-x="937" 
d="M131 1365h759v-279h-456v-254h416v-281h-416v-551h-303v1365zM510 1805q78 0 131 -57q43 -46 43 -111q0 -74 -56 -124q-50 -44 -117 -44q-73 0 -123 50q-51 49 -51 121q0 70 56 120q49 45 117 45z" />
    <glyph glyph-name="uni1E1F" unicode="&#x1e1f;" horiz-adv-x="564" 
d="M552 649h-147v-649h-291v649h-82v259h82v152q0 180 91 259q74 65 189 65q70 0 155 -19v-259q-51 19 -89 19q-55 0 -55 -71v-146h147v-259zM343 1793q79 0 131 -57q43 -47 43 -112q0 -73 -56 -123q-49 -45 -117 -45q-73 0 -123 50q-51 50 -51 121q0 70 56 121
q50 45 117 45z" />
    <glyph glyph-name="Wgrave" unicode="&#x1e80;" horiz-adv-x="1797" 
d="M-19 1365h316l238 -807l239 807h248l240 -807l237 807h316l-411 -1365h-266l-240 808l-240 -808h-266zM886 1420l-352 328l269 134l280 -358z" />
    <glyph glyph-name="wgrave" unicode="&#x1e81;" horiz-adv-x="1339" 
d="M295 0l-326 908h305l145 -437l142 437h217l143 -437l145 437h304l-326 -908h-234l-141 428l-140 -428h-234zM657 991l-351 329l268 134l280 -358z" />
    <glyph glyph-name="Wacute" unicode="&#x1e82;" horiz-adv-x="1797" 
d="M-19 1365h316l238 -807l239 807h248l240 -807l237 807h316l-411 -1365h-266l-240 808l-240 -808h-266zM1002 1882l269 -134l-352 -328l-196 104z" />
    <glyph glyph-name="wacute" unicode="&#x1e83;" horiz-adv-x="1341" 
d="M295 0l-326 908h305l145 -437l142 437h217l143 -437l145 437h304l-326 -908h-234l-141 428l-140 -428h-234zM692 1454l269 -134l-352 -329l-197 105z" />
    <glyph glyph-name="Wdieresis" unicode="&#x1e84;" horiz-adv-x="1797" 
d="M-19 1365h316l238 -807l239 807h248l240 -807l237 807h316l-411 -1365h-266l-240 808l-240 -808h-266zM1091 1793q73 0 121 -53q40 -43 40 -103q0 -69 -52 -115q-47 -41 -109 -41q-68 0 -114 46q-47 47 -47 112q0 63 48 109q46 45 113 45zM705 1793q73 0 121 -53
q40 -43 40 -103q0 -65 -47 -110q-46 -46 -115 -46q-67 0 -113 46q-47 47 -47 113q0 62 48 108q47 45 113 45z" />
    <glyph glyph-name="wdieresis" unicode="&#x1e85;" horiz-adv-x="1339" 
d="M295 0l-326 908h305l145 -437l142 437h217l143 -437l145 437h304l-326 -908h-234l-141 428l-140 -428h-234zM863 1376q71 0 121 -53q40 -43 40 -103q0 -69 -52 -115q-47 -41 -110 -41q-66 0 -113 47t-47 112q0 66 52 112q47 41 109 41zM477 1376q73 0 121 -53
q40 -43 40 -103q0 -69 -52 -115q-47 -41 -109 -41q-68 0 -114 46q-47 47 -47 112q0 62 48 109q46 45 113 45z" />
    <glyph glyph-name="uni1EA0" unicode="&#x1ea0;" horiz-adv-x="1330" 
d="M1027 0l-105 301h-516l-105 -301h-320l510 1365h347l510 -1365h-321zM503 582h322l-161 459zM665 -68q77 0 130 -57q43 -46 43 -111q0 -74 -56 -124q-50 -45 -117 -45q-74 0 -123 49q-51 50 -51 122q0 71 56 121q49 45 118 45z" />
    <glyph glyph-name="uni1EA1" unicode="&#x1ea1;" horiz-adv-x="1113" 
d="M1016 908v-908h-291v44q-109 -78 -228 -78q-115 0 -219 60q-107 62 -172 173q-67 115 -67 255q0 226 159 370q130 118 299 118q119 0 228 -78v44h291zM529 680q-84 0 -143 -62q-54 -58 -54 -166q0 -115 69 -175q55 -49 131 -49q87 0 142 61q54 59 54 167q0 117 -68 177
q-53 47 -131 47zM551 -68q79 0 131 -57q43 -47 43 -111q0 -74 -56 -124q-49 -45 -117 -45q-74 0 -123 49q-51 50 -51 122q0 70 56 121q50 45 117 45z" />
    <glyph glyph-name="uni1EA2" unicode="&#x1ea2;" horiz-adv-x="1330" 
d="M809 1482v-36h-261q3 86 9 110q6 22 32 54q15 18 15 24q0 10 -19 10l-75 -23l-88 205q96 34 133 42t81 8q141 0 207 -73q45 -49 45 -115q0 -62 -42 -124l-34 -49q-2 -4 -2 -19q0 -5 -1 -14zM1027 0l-105 301h-516l-105 -301h-320l510 1365h347l510 -1365h-321zM503 582
h322l-161 459z" />
    <glyph glyph-name="uni1EA3" unicode="&#x1ea3;" horiz-adv-x="1113" 
d="M1016 908v-908h-291v44q-109 -78 -228 -78q-115 0 -219 60q-107 62 -172 173q-67 115 -67 255q0 226 159 370q130 118 299 118q119 0 228 -78v44h291zM529 680q-84 0 -143 -62q-54 -58 -54 -166q0 -115 69 -175q55 -49 131 -49q87 0 142 61q54 59 54 167q0 117 -68 177
q-53 47 -131 47zM682 1022h-261q3 83 9 109q6 24 32 55q14 17 14 24q0 10 -19 10l-7 -2q-8 -2 -28.5 -8.5t-39.5 -12.5l-87 205q97 34 131 42q40 8 83 8q140 0 206 -73q45 -49 45 -116q0 -61 -42 -123l-33 -49q-3 -5 -3 -19q0 -6 -1 -14v-18q0 -11 1 -18z" />
    <glyph glyph-name="uni1EA4" unicode="&#x1ea4;" horiz-adv-x="1330" 
d="M1238 1852l-259 -243l84 -86l-221 -102l-177 165l-177 -165l-222 102l312 318h173l59 -61l160 206zM1027 0l-105 301h-516l-105 -301h-320l510 1365h347l510 -1365h-321zM503 582h322l-161 459z" />
    <glyph glyph-name="uni1EA5" unicode="&#x1ea5;" horiz-adv-x="1112" 
d="M614 1401l58 -60l241 309l269 -134l-352 -329l-14 8l109 -111l-220 -102l-177 168l-177 -168l-220 102l311 317h172zM1016 908v-908h-291v44q-109 -78 -227 -78q-116 0 -220 60q-107 62 -172 173q-67 115 -67 256q0 225 159 369q130 118 300 118q118 0 227 -78v44h291z
M529 680q-84 0 -143 -62q-54 -58 -54 -167q0 -114 69 -174q55 -49 131 -49q87 0 142 61q54 59 54 167q0 117 -68 177q-53 47 -131 47z" />
    <glyph glyph-name="uni1EA6" unicode="&#x1ea6;" horiz-adv-x="1330" 
d="M1027 0l-105 301h-516l-105 -301h-320l510 1365h347l510 -1365h-321zM503 582h322l-161 459zM1064 1575l-352 329l269 134l279 -359zM1017 1523l-221 -102l-177 159l-177 -159l-221 102l312 318h173z" />
    <glyph glyph-name="uni1EA7" unicode="&#x1ea7;" horiz-adv-x="1112" 
d="M396 1401h172l311 -317l-220 -102l-177 168l-177 -168l-219 102zM1016 908v-908h-291v44q-109 -78 -227 -78q-116 0 -220 60q-107 62 -172 173q-67 115 -67 256q0 225 159 369q130 118 300 118q118 0 227 -78v44h291zM529 680q-84 0 -143 -62q-54 -58 -54 -167
q0 -114 69 -174q55 -49 131 -49q87 0 142 61q54 59 54 167q0 117 -68 177q-53 47 -131 47zM875 1172l-352 328l269 134l280 -358z" />
    <glyph glyph-name="uni1EA8" unicode="&#x1ea8;" horiz-adv-x="1330" 
d="M1145 1603h-160l78 -79l-221 -103l-177 160l-177 -160l-222 103l312 317h173l144 -146l5 14q1 1 1 3l1 4q5 24 23 54l1 1q13 16 13 21q0 9 -19 9q-18 0 -52 -15q-8 -3 -22 -9l-87 205q92 33 131 42q38 9 84 9q139 0 205 -73q45 -51 45 -116q0 -62 -42 -124l-33 -48
q-3 -5 -3 -19q0 -5 -1 -14v-17v-19zM1027 0l-105 301h-516l-105 -301h-320l510 1365h347l510 -1365h-321zM503 582h322l-161 459z" />
    <glyph glyph-name="uni1EA9" unicode="&#x1ea9;" horiz-adv-x="1112" 
d="M614 1401l97 -99q2 4 12 29q8 25 29 50q8 10 8 14q0 10 -19 10l-75 -23l-87 205q97 34 131 42q40 8 83 8q140 0 206 -73q45 -49 45 -116q0 -62 -42 -123l-33 -49q-3 -4 -3 -19q0 -6 -1 -14v-18v-18h-161l121 -123l-220 -102l-177 168l-177 -168l-220 102l311 317h172z
M1016 908v-908h-291v44q-109 -78 -227 -78q-116 0 -220 60q-107 62 -172 173q-67 115 -67 256q0 225 159 369q130 118 300 118q118 0 227 -78v44h291zM529 680q-84 0 -143 -62q-54 -58 -54 -167q0 -114 69 -174q55 -49 131 -49q87 0 142 61q54 59 54 167q0 117 -68 177
q-53 47 -131 47z" />
    <glyph glyph-name="uni1EAA" unicode="&#x1eaa;" horiz-adv-x="1330" 
d="M1027 0l-105 301h-516l-105 -301h-320l510 1365h347l510 -1365h-321zM503 582h322l-161 459zM664 1559l-177 -150l-221 95l312 297h173l311 -297l-221 -95zM770 2125l242 -49q-9 -106 -40 -156q-26 -41 -77 -66t-111 -25q-82 0 -166 39q-24 11 -38 11q-15 0 -26 -65
l-236 48q11 103 45 155q27 41 75.5 66.5t100.5 25.5q83 0 176 -44q22 -11 33 -11q17 0 22 71z" />
    <glyph glyph-name="uni1EAB" unicode="&#x1eab;" horiz-adv-x="1112" 
d="M1016 908v-908h-291v44q-109 -78 -227 -78q-116 0 -220 60q-107 62 -172 173q-67 115 -67 256q0 225 159 369q130 118 300 118q118 0 227 -78v44h291zM529 680q-84 0 -143 -62q-54 -58 -54 -167q0 -114 69 -174q55 -49 131 -49q87 0 142 61q54 59 54 167q0 117 -68 177
q-53 47 -131 47zM527 1154l-177 -150l-221 96l312 296h173l312 -296l-222 -96zM633 1726l242 -48q-9 -106 -40 -156q-26 -42 -76.5 -67t-110.5 -25q-85 0 -166 40q-25 11 -38 11q-10 0 -14.5 -11t-12.5 -55l-236 48q11 103 45 156q27 41 75.5 66.5t101.5 25.5q83 0 175 -45
q24 -11 33 -11q11 0 15 13t7 58z" />
    <glyph glyph-name="uni1EAC" unicode="&#x1eac;" horiz-adv-x="1330" 
d="M1027 0l-105 301h-516l-105 -301h-320l510 1365h347l510 -1365h-321zM503 582h322l-161 459zM665 -68q77 0 130 -57q43 -46 43 -111q0 -74 -56 -124q-50 -45 -117 -45q-74 0 -123 49q-51 50 -51 122q0 71 56 121q49 45 118 45zM665 1580l-177 -159l-222 102l312 318h173
l312 -318l-221 -102z" />
    <glyph glyph-name="uni1EAD" unicode="&#x1ead;" horiz-adv-x="1113" 
d="M1016 908v-908h-291v44q-109 -78 -228 -78q-115 0 -219 60q-107 62 -172 173q-67 115 -67 255q0 226 159 370q130 118 299 118q119 0 228 -78v44h291zM529 680q-84 0 -143 -62q-54 -58 -54 -166q0 -115 69 -175q55 -49 131 -49q87 0 142 61q54 59 54 167q0 117 -68 177
q-53 47 -131 47zM543 -68q79 0 131 -57q43 -47 43 -111q0 -74 -56 -124q-49 -45 -117 -45q-74 0 -123 49q-51 50 -51 122q0 70 56 121q50 45 117 45zM924 1096l-219 -101l-177 167l-178 -167l-219 101l311 317h172z" />
    <glyph glyph-name="uni1EAE" unicode="&#x1eae;" horiz-adv-x="1330" 
d="M327 1764l251 18q0 -7 1.5 -26t2.5 -31q4 -84 78 -84q47 0 66 34q12 20 26 106l251 -17q-11 -87 -17 -113q-4 -20 -21 -52q-39 -74 -111 -121q-82 -54 -194 -54q-161 0 -258 103q-65 71 -72 152q-1 19 -3 85zM743 2179l269 -124l-352 -306l-196 97zM1027 0l-105 301h-516
l-105 -301h-320l510 1365h347l510 -1365h-321zM503 582h322l-161 459z" />
    <glyph glyph-name="uni1EAF" unicode="&#x1eaf;" horiz-adv-x="1113" 
d="M1016 908v-908h-291v44q-109 -78 -228 -78q-115 0 -219 60q-107 62 -172 173q-67 115 -67 255q0 226 159 370q130 118 299 118q119 0 228 -78v44h291zM529 680q-84 0 -143 -62q-54 -58 -54 -166q0 -115 69 -175q55 -49 131 -49q87 0 142 61q54 59 54 167q0 117 -68 177
q-53 47 -131 47zM191 1347l251 18q4 -93 19 -114q21 -27 63 -27q47 0 66 34q12 20 26 106l251 -17q-11 -87 -17 -113q-4 -20 -21 -52q-39 -74 -111 -121q-82 -54 -194 -54q-161 0 -258 103q-65 71 -72 152q-1 19 -3 85zM611 1772l269 -124l-352 -307l-197 97z" />
    <glyph glyph-name="uni1EB0" unicode="&#x1eb0;" horiz-adv-x="1330" 
d="M327 1764l251 18q4 -93 19 -114q21 -27 62 -27q61 0 79 65l14 75l251 -17q-11 -87 -17 -113q-4 -20 -21 -52q-39 -74 -111 -121q-82 -54 -194 -54q-161 0 -258 103q-65 71 -72 152q-1 19 -3 85zM657 1749l-352 306l269 124l280 -333zM1027 0l-105 301h-516l-105 -301
h-320l510 1365h347l510 -1365h-321zM503 582h322l-161 459z" />
    <glyph glyph-name="uni1EB1" unicode="&#x1eb1;" horiz-adv-x="1113" 
d="M191 1347l251 18q4 -93 19 -114q21 -27 63 -27q47 0 66 34q12 20 26 106l251 -17q-11 -87 -17 -113q-4 -20 -21 -52q-39 -74 -111 -121q-82 -54 -194 -54q-161 0 -258 103q-65 71 -72 152q-1 19 -3 85zM519 1341l-352 307l269 124l280 -334zM1016 908v-908h-291v44
q-109 -78 -228 -78q-115 0 -219 60q-107 62 -172 173q-67 115 -67 255q0 226 159 370q130 118 299 118q119 0 228 -78v44h291zM529 680q-84 0 -143 -62q-54 -58 -54 -166q0 -115 69 -175q55 -49 131 -49q87 0 142 61q54 59 54 167q0 117 -68 177q-53 47 -131 47z" />
    <glyph glyph-name="uni1EB2" unicode="&#x1eb2;" horiz-adv-x="1330" 
d="M327 1768l221 15q3 79 9 98q4 17 32 50q14 17 14 24q0 9 -19 9q-12 0 -75 -22l-87 190q105 34 133 40q32 7 80 7q145 0 210 -72q42 -47 42 -104q0 -58 -42 -115l-33 -45q-3 -5 -3 -19q0 -5 -1 -12v-17v-14l195 -14q-11 -84 -17 -112q-5 -22 -21 -53q-39 -74 -111 -120
q-82 -54 -193 -54q-162 0 -259 103q-64 69 -72 152q-1 19 -3 85zM751 1778h-172v-7l3 -44q4 -82 78 -82q47 0 66 34q12 23 24 92zM1027 0l-105 301h-516l-105 -301h-320l510 1365h347l510 -1365h-321zM503 582h322l-161 459z" />
    <glyph glyph-name="uni1EB3" unicode="&#x1eb3;" horiz-adv-x="1113" 
d="M191 1347l251 18q4 -93 19 -114q21 -27 63 -27q47 0 66 34q12 20 26 106l251 -17q-11 -87 -17 -113q-4 -20 -21 -52q-39 -74 -111 -121q-82 -54 -194 -54q-161 0 -258 103q-65 71 -72 152q-1 19 -3 85zM672 1380h-260q1 75 8 100q6 21 33 53q14 17 14 24q0 9 -19 9
q-17 0 -53 -14q-19 -7 -22 -8l-88 190q97 32 133 39q38 8 82 8q144 0 209 -72q42 -47 42 -104q0 -56 -42 -115l-33 -45q-5 -9 -4 -65zM1016 908v-908h-291v44q-109 -78 -228 -78q-115 0 -219 60q-107 62 -172 173q-67 115 -67 255q0 226 159 370q130 118 299 118
q119 0 228 -78v44h291zM529 680q-84 0 -143 -62q-54 -58 -54 -166q0 -115 69 -175q55 -49 131 -49q87 0 142 61q54 59 54 167q0 117 -68 177q-53 47 -131 47z" />
    <glyph glyph-name="uni1EB4" unicode="&#x1eb4;" horiz-adv-x="1330" 
d="M327 1768l251 17q5 -95 19 -114q19 -27 63 -27q47 0 66 34q13 23 25 107l252 -18q-11 -84 -17 -112q-4 -18 -22 -53q-38 -74 -110 -121q-82 -54 -194 -54q-162 0 -258 103q-66 71 -72 152q-1 21 -3 86zM770 2110l242 -48q-9 -105 -40 -157q-26 -41 -77 -66t-110 -25
q-83 0 -167 39q-24 11 -38 11q-9 0 -14 -12.5t-12 -52.5l-236 48q11 103 45 155q59 92 185 92q86 0 156 -39q26 -14 44 -16q10 0 14 13.5t8 57.5zM1027 0l-105 301h-516l-105 -301h-320l510 1365h347l510 -1365h-321zM503 582h322l-161 459z" />
    <glyph glyph-name="uni1EB5" unicode="&#x1eb5;" horiz-adv-x="1113" 
d="M194 1353l251 18q4 -93 19 -114q20 -27 63 -27q47 0 66 34q12 20 26 106l251 -18q-11 -84 -17 -112q-4 -20 -21 -52q-40 -74 -111 -121q-82 -54 -194 -54q-161 0 -258 103q-64 69 -72 152q-1 19 -3 85zM637 1702l242 -49q-9 -106 -40 -156q-26 -42 -76.5 -66.5
t-110.5 -24.5q-84 0 -166 39q-25 11 -39 11q-15 0 -26 -65l-236 48q11 103 45 155q28 43 77.5 67.5t107.5 24.5q85 0 156 -39q28 -16 44 -16q17 0 22 71zM1016 908v-908h-291v44q-109 -78 -227 -78q-116 0 -220 60q-107 62 -172 173q-67 115 -67 256q0 225 159 369
q130 118 300 118q118 0 227 -78v44h291zM529 680q-84 0 -143 -62q-54 -58 -54 -167q0 -114 69 -174q55 -49 131 -49q87 0 142 61q54 59 54 167q0 117 -68 177q-53 47 -131 47z" />
    <glyph glyph-name="uni1EB6" unicode="&#x1eb6;" horiz-adv-x="1330" 
d="M1027 0l-105 301h-516l-105 -301h-320l510 1365h347l510 -1365h-321zM503 582h322l-161 459zM327 1799l251 19q5 -103 20 -123q19 -28 61 -28q46 0 66 35q14 27 26 115l252 -19q-11 -94 -17 -123q-6 -25 -24 -59q-40 -80 -114 -130q-82 -53 -188 -53q-156 0 -253 105
q-69 75 -77 169q-2 23 -3 92zM665 -68q77 0 130 -57q43 -46 43 -111q0 -74 -56 -124q-50 -45 -117 -45q-74 0 -123 49q-51 50 -51 122q0 71 56 121q49 45 118 45z" />
    <glyph glyph-name="uni1EB7" unicode="&#x1eb7;" horiz-adv-x="1113" 
d="M1016 908v-908h-291v44q-109 -78 -227 -78q-116 0 -220 60q-107 62 -172 173q-67 115 -67 256q0 225 159 369q130 118 300 118q118 0 227 -78v44h291zM529 680q-84 0 -143 -62q-54 -58 -54 -167q0 -114 69 -174q55 -49 131 -49q87 0 142 61q54 59 54 167q0 117 -68 177
q-53 47 -131 47zM543 -68q79 0 131 -57q43 -47 43 -111q0 -74 -56 -124q-49 -45 -117 -45q-74 0 -123 49q-51 50 -51 122q0 70 56 121q50 45 117 45zM190 1370l251 19q5 -108 21 -130q20 -27 60 -27q49 0 72 47q7 16 20 110l252 -19q-11 -94 -17 -123q-6 -25 -24 -59
q-40 -82 -114 -130q-82 -53 -188 -53q-155 0 -252 105q-71 76 -78 168q-1 21 -3 92z" />
    <glyph glyph-name="uni1EB8" unicode="&#x1eb8;" horiz-adv-x="1006" 
d="M131 1365h802v-278h-501v-256h446v-279h-446v-271h520v-281h-821v1365zM550 -68q78 0 131 -57q43 -47 43 -111q0 -74 -56 -124q-50 -45 -117 -45q-74 0 -123 49q-51 50 -51 122q0 70 56 121q49 45 117 45z" />
    <glyph glyph-name="uni1EB9" unicode="&#x1eb9;" horiz-adv-x="1011" 
d="M688 312l261 -101q-159 -245 -428 -245q-219 0 -357 155q-125 140 -125 334q0 222 158 366q131 121 313 121q205 0 340 -151q123 -137 123 -357q0 -28 -3 -75h-633q26 -73 68.5 -106t110.5 -33q113 0 172 92zM337 550h347q-24 74 -64.5 107t-108.5 33q-70 0 -111.5 -33.5
t-62.5 -106.5zM511 -68q77 0 130 -57q43 -47 43 -112q0 -73 -56 -123q-50 -45 -117 -45q-74 0 -123 49q-51 50 -51 122q0 71 56 121q49 45 118 45z" />
    <glyph glyph-name="uni1EBA" unicode="&#x1eba;" horiz-adv-x="1006" 
d="M131 1365h802v-278h-501v-256h446v-279h-446v-271h520v-281h-821v1365zM695 1446h-260q3 85 9 109q6 22 32 55q14 19 14 24q0 10 -19 10l-75 -23l-87 205q98 35 133 42q37 8 81 8q140 0 206 -73q45 -49 45 -116q0 -61 -42 -123l-33 -49q-3 -5 -3 -19q0 -5 -1 -14v-16v-20
z" />
    <glyph glyph-name="uni1EBB" unicode="&#x1ebb;" horiz-adv-x="1011" 
d="M688 312l261 -101q-159 -245 -428 -245q-219 0 -357 155q-125 140 -125 334q0 222 158 366q131 121 313 121q205 0 340 -151q123 -137 123 -357q0 -28 -3 -75h-633q26 -73 68.5 -106t110.5 -33q113 0 172 92zM337 550h347q-24 74 -64.5 107t-108.5 33q-70 0 -111.5 -33.5
t-62.5 -106.5zM660 1058v-36h-261q5 89 10 110q4 21 31 54q15 18 15 24q0 10 -19 10l-8 -2q-7 -2 -27.5 -8.5t-39.5 -12.5l-88 205q97 33 131 41q38 9 83 9q140 0 207 -73q45 -49 45 -115q0 -62 -42 -124l-33 -49q-3 -3 -3 -19q0 -7 -1 -14z" />
    <glyph glyph-name="uni1EBC" unicode="&#x1ebc;" horiz-adv-x="1006" 
d="M131 1365h802v-278h-501v-256h446v-279h-446v-271h520v-281h-821v1365zM609 1805l242 -52q-9 -117 -42 -172q-26 -43 -76 -68.5t-109 -25.5q-79 0 -166 41q-22 12 -38 12q-10 0 -14.5 -12.5t-11.5 -57.5l-237 52q10 112 50 173q26 41 74 67t99 26q83 0 175 -47
q20 -11 33 -11q10 0 14 13.5t7 61.5z" />
    <glyph glyph-name="uni1EBD" unicode="&#x1ebd;" horiz-adv-x="1011" 
d="M688 312l261 -101q-159 -245 -428 -245q-219 0 -357 155q-125 140 -125 334q0 222 158 366q131 121 313 121q205 0 340 -151q123 -137 123 -357q0 -28 -3 -75h-633q26 -73 68.5 -106t110.5 -33q113 0 172 92zM337 550h347q-24 74 -64.5 107t-108.5 33q-70 0 -111.5 -33.5
t-62.5 -106.5zM611 1377l242 -52q-9 -116 -43 -172q-26 -43 -76 -68.5t-108 -25.5q-81 0 -166 41q-24 12 -38 12q-10 0 -15 -12.5t-12 -56.5l-236 51q10 111 49 173q27 42 75 67.5t99 25.5q82 0 174 -47q22 -11 33 -11t15 13.5t7 61.5z" />
    <glyph glyph-name="uni1EBE" unicode="&#x1ebe;" horiz-adv-x="1066" 
d="M144 1365h802v-278h-501v-256h445v-279h-445v-271h520v-281h-821v1365zM1103 1852l-260 -243l84 -86l-221 -102l-177 165l-177 -165l-221 102l312 318h173l59 -61l159 206z" />
    <glyph glyph-name="uni1EBF" unicode="&#x1ebf;" horiz-adv-x="1011" 
d="M597 1401l60 -60l240 309l268 -134l-348 -325l-86 73l177 -180l-220 -102l-177 168l-177 -168l-219 102l311 317h171zM688 312l261 -101q-159 -245 -428 -245q-219 0 -357 155q-125 140 -125 334q0 222 158 366q131 121 313 121q205 0 340 -151q123 -137 123 -357
q0 -28 -3 -75h-633q26 -73 68.5 -106t110.5 -33q113 0 172 92zM337 550h347q-24 74 -64.5 107t-108.5 33q-70 0 -111.5 -33.5t-62.5 -106.5z" />
    <glyph glyph-name="uni1EC0" unicode="&#x1ec0;" horiz-adv-x="1140" 
d="M159 1365h802v-278h-501v-256h446v-279h-446v-271h520v-281h-821v1365zM974 1575l-352 329l269 134l279 -359zM927 1523l-221 -102l-177 159l-177 -159l-221 102l312 318h173z" />
    <glyph glyph-name="uni1EC1" unicode="&#x1ec1;" horiz-adv-x="1011" 
d="M688 312l261 -101q-159 -245 -428 -245q-219 0 -357 155q-125 140 -125 334q0 222 158 366q131 121 313 121q205 0 340 -151q123 -137 123 -357q0 -28 -3 -75h-633q26 -73 68.5 -106t110.5 -33q113 0 172 92zM337 550h347q-24 74 -64.5 107t-108.5 33q-70 0 -111.5 -33.5
t-62.5 -106.5zM386 1401h173l310 -317l-220 -102l-177 168l-177 -168l-219 102zM865 1172l-352 328l269 134l280 -358z" />
    <glyph glyph-name="uni1EC2" unicode="&#x1ec2;" horiz-adv-x="1060" 
d="M1010 1603h-160l77 -79l-221 -103l-177 160l-177 -160l-221 103l312 317h173l144 -146l4 14q1 1 1 3l1 4q4 22 24 54l1 1q13 16 13 21q0 9 -19 9t-53 -15q-12 -4 -21 -9l-88 205q92 33 131 42q38 9 84 9q140 0 206 -73q45 -51 45 -116q0 -62 -42 -124l-33 -48
q-4 -4 -4 -69zM170 1365h802v-278h-501v-256h446v-279h-446v-271h520v-281h-821v1365z" />
    <glyph glyph-name="uni1EC3" unicode="&#x1ec3;" horiz-adv-x="1011" 
d="M583 1401l97 -99q4 8 11 29t30 50q8 10 8 14q0 10 -19 10l-75 -23l-88 205q95 33 132 42q40 8 83 8q140 0 206 -73q45 -49 45 -116q0 -62 -42 -123l-33 -49q-3 -3 -3 -19q0 -5 -1 -14v-36h-161l120 -123l-219 -102l-177 168l-177 -168l-220 102l311 317h172zM688 312
l261 -101q-159 -245 -428 -245q-219 0 -357 155q-125 140 -125 334q0 222 158 366q131 121 313 121q205 0 340 -151q123 -137 123 -357q0 -28 -3 -75h-633q26 -73 68.5 -106t110.5 -33q113 0 172 92zM337 550h347q-24 74 -64.5 107t-108.5 33q-70 0 -111.5 -33.5
t-62.5 -106.5z" />
    <glyph glyph-name="uni1EC4" unicode="&#x1ec4;" horiz-adv-x="1006" 
d="M131 1365h802v-278h-501v-256h446v-279h-446v-271h520v-281h-821v1365zM515 1559l-177 -150l-221 95l312 297h173l311 -297l-221 -95zM621 2125l242 -49q-9 -106 -40 -156q-26 -41 -77 -66t-111 -25q-83 0 -165 39q-25 11 -39 11q-15 0 -26 -65l-236 48q11 103 45 155
q27 41 75.5 66.5t101.5 25.5q82 0 175 -44q24 -11 34 -11q16 0 21 71z" />
    <glyph glyph-name="uni1EC5" unicode="&#x1ec5;" horiz-adv-x="1011" 
d="M688 312l261 -101q-159 -245 -428 -245q-219 0 -357 155q-125 140 -125 334q0 222 158 366q131 121 313 121q205 0 340 -151q123 -137 123 -357q0 -28 -3 -75h-633q26 -73 68.5 -106t110.5 -33q113 0 172 92zM337 550h347q-24 74 -64.5 107t-108.5 33q-70 0 -111.5 -33.5
t-62.5 -106.5zM511 1154l-177 -150l-221 96l312 296h172l312 -296l-221 -96zM616 1726l242 -48q-7 -103 -40 -156q-25 -42 -76 -67t-111 -25q-85 0 -166 40q-24 11 -38 11q-10 0 -14.5 -11t-12.5 -55l-236 48q10 102 46 156q27 41 75.5 66.5t100.5 25.5q84 0 176 -45
q22 -11 33 -11q10 0 14 13.5t7 57.5z" />
    <glyph glyph-name="uni1EC6" unicode="&#x1ec6;" horiz-adv-x="1006" 
d="M569 -68q77 0 130 -57q43 -47 43 -112q0 -73 -56 -123q-50 -45 -119 -45q-77 0 -129 57q-43 47 -43 114q0 71 56 121q49 45 118 45zM542 1580l-177 -159l-221 102l312 318h172l312 -318l-221 -102zM131 1365h802v-278h-501v-256h446v-279h-446v-271h520v-281h-821v1365z
" />
    <glyph glyph-name="uni1EC7" unicode="&#x1ec7;" horiz-adv-x="1011" 
d="M688 312l261 -101q-159 -245 -428 -245q-219 0 -357 155q-125 140 -125 334q0 222 158 366q131 121 313 121q205 0 340 -151q123 -137 123 -357q0 -28 -3 -75h-633q26 -73 68.5 -106t110.5 -33q113 0 172 92zM337 550h347q-24 74 -64.5 107t-108.5 33q-70 0 -111.5 -33.5
t-62.5 -106.5zM520 -68q78 0 130 -57q43 -47 43 -111q0 -74 -56 -124q-49 -45 -117 -45q-74 0 -123 49q-51 50 -51 122q0 71 56 121q50 45 118 45zM907 1096l-220 -101l-177 167l-177 -167l-219 101l310 317h172z" />
    <glyph glyph-name="uni1EC8" unicode="&#x1ec8;" horiz-adv-x="563" 
d="M128 1365h303v-1365h-303v1365zM433 1446h-261q3 83 9 109q6 22 32 55q14 19 14 24q0 10 -19 10l-74 -23l-88 205q96 34 133 42t81 8q140 0 206 -73q45 -51 45 -116q0 -63 -42 -123l-33 -49q-3 -5 -3 -19q0 -6 -1 -14v-16q0 -8 1 -20z" />
    <glyph glyph-name="uni1EC9" unicode="&#x1ec9;" horiz-adv-x="487" 
d="M97 908h291v-908h-291v908zM392 1022h-261q3 83 9 109q6 24 32 55q14 17 14 24q0 10 -19 10q-25 -8 -74 -23l-88 205q97 34 131 42q40 8 83 8q140 0 206 -73q45 -49 45 -116q0 -61 -42 -123l-33 -49q-3 -5 -3 -19q0 -6 -1 -14v-18q0 -12 1 -18z" />
    <glyph glyph-name="uni1ECA" unicode="&#x1eca;" horiz-adv-x="559" 
d="M128 1365h303v-1365h-303v1365zM280 -68q78 0 130 -57q43 -47 43 -112q0 -73 -56 -123q-49 -45 -117 -45q-74 0 -123 49q-51 50 -51 122q0 70 56 121q49 45 118 45z" />
    <glyph glyph-name="uni1ECB" unicode="&#x1ecb;" horiz-adv-x="487" 
d="M243 1388q79 0 131 -57q43 -47 43 -111q0 -74 -56 -124q-49 -45 -117 -45q-73 0 -123 50q-51 49 -51 121q0 71 56 121q50 45 117 45zM98 908h291v-908h-291v908zM244 -68q78 0 130 -57q43 -47 43 -111q0 -74 -56 -124q-49 -45 -117 -45q-74 0 -123 49q-51 50 -51 122
q0 70 56 121q50 45 118 45z" />
    <glyph glyph-name="uni1ECC" unicode="&#x1ecc;" horiz-adv-x="1563" 
d="M782 1399q195 0 359 -95q173 -99 270 -264q99 -167 99 -358q0 -187 -95 -351q-94 -165 -263 -264q-173 -101 -376 -101q-191 0 -364 101q-169 99 -263 264q-95 166 -95 362q0 187 99 347q105 171 270 264q169 95 359 95zM779 1117q-181 0 -309 -141q-111 -123 -111 -301
q0 -113 57 -212q57 -100 159 -158q99 -57 207 -57t207 57q102 58 159 158t57 218q0 196 -143 327q-118 109 -283 109zM782 -68q78 0 130 -57q43 -47 43 -111q0 -74 -56 -124q-49 -45 -117 -45q-74 0 -123 49q-51 50 -51 122q0 71 56 121q50 45 118 45z" />
    <glyph glyph-name="uni1ECD" unicode="&#x1ecd;" horiz-adv-x="1065" 
d="M539 942q219 0 364 -162q123 -136 123 -325q0 -219 -159 -363q-139 -126 -335 -126q-224 0 -370 162q-123 138 -123 327q0 183 116 317q149 170 384 170zM531 680q-57 0 -103 -28q-96 -58 -96 -198q0 -117 68 -177q55 -49 133 -49q87 0 146 62q54 58 54 166
q0 116 -68 175q-55 49 -134 49zM532 -68q78 0 131 -57q43 -47 43 -111q0 -74 -56 -124q-50 -45 -117 -45q-74 0 -123 49q-51 50 -51 122q0 70 56 121q49 45 117 45z" />
    <glyph glyph-name="uni1ECE" unicode="&#x1ece;" horiz-adv-x="1563" 
d="M782 1399q195 0 359 -95q173 -99 270 -264q99 -167 99 -358q0 -187 -95 -351q-94 -165 -263 -264q-173 -101 -376 -101q-191 0 -364 101q-169 99 -263 264q-95 166 -95 362q0 187 99 347q105 171 270 264q169 95 359 95zM779 1117q-181 0 -309 -141q-111 -123 -111 -301
q0 -113 57 -212q57 -100 159 -158q99 -57 207 -57t207 57q102 58 159 158t57 218q0 196 -143 327q-118 109 -283 109zM936 1446h-261q3 86 10 109q6 24 32 55q14 17 14 24q0 10 -19 10l-75 -23l-88 205q96 34 133 42t81 8q141 0 207 -73q45 -51 45 -116q0 -62 -43 -123
l-32 -49q-4 -4 -4 -19q0 -5 -1 -14v-18q0 -12 1 -18z" />
    <glyph glyph-name="uni1ECF" unicode="&#x1ecf;" horiz-adv-x="1065" 
d="M539 942q219 0 364 -162q123 -136 123 -325q0 -219 -159 -363q-139 -126 -335 -126q-224 0 -370 162q-123 138 -123 327q0 183 116 317q149 170 384 170zM531 680q-57 0 -103 -28q-96 -58 -96 -198q0 -117 68 -177q55 -49 133 -49q87 0 146 62q54 58 54 166
q0 116 -68 175q-55 49 -134 49zM687 1022h-261q3 84 9 110q6 23 32 54q14 17 14 24q0 10 -19 10l-8 -2q-7 -2 -27.5 -8.5t-39.5 -12.5l-87 205q97 34 131 42q40 8 83 8q140 0 206 -73q45 -49 45 -116q0 -61 -42 -123l-33 -49q-3 -5 -3 -19q0 -6 -1 -14v-18q0 -13 1 -18z" />
    <glyph glyph-name="uni1ED0" unicode="&#x1ed0;" horiz-adv-x="1563" 
d="M782 1399q195 0 359 -95q173 -99 270 -264q99 -167 99 -358q0 -187 -95 -351q-94 -165 -263 -264q-173 -101 -376 -101q-191 0 -364 101q-169 99 -263 264q-95 166 -95 362q0 187 99 347q105 171 270 264q169 95 359 95zM779 1117q-181 0 -309 -141q-111 -123 -111 -301
q0 -113 57 -212q57 -100 159 -158q99 -57 207 -57t207 57q102 58 159 158t57 218q0 196 -143 327q-118 109 -283 109zM1356 1852l-260 -243l84 -86l-221 -102l-177 162l-177 -162l-221 102l312 318h172l59 -61l160 206z" />
    <glyph glyph-name="uni1ED1" unicode="&#x1ed1;" horiz-adv-x="1065" 
d="M619 1401l59 -60l240 309l269 -134l-348 -325l-86 73l176 -180l-219 -102l-177 168l-178 -168l-219 102l311 317h172zM539 942q219 0 364 -162q123 -136 123 -325q0 -219 -159 -363q-139 -126 -335 -126q-224 0 -370 162q-123 138 -123 327q0 183 116 317
q149 170 384 170zM531 680q-57 0 -103 -28q-96 -58 -96 -198q0 -117 68 -177q55 -49 133 -49q87 0 146 62q54 58 54 166q0 116 -68 175q-55 49 -134 49z" />
    <glyph glyph-name="uni1ED2" unicode="&#x1ed2;" horiz-adv-x="1563" 
d="M782 1399q195 0 359 -95q173 -99 270 -264q99 -167 99 -358q0 -187 -95 -351q-94 -165 -263 -264q-173 -101 -376 -101q-191 0 -364 101q-169 99 -263 264q-95 166 -95 362q0 187 99 347q105 171 270 264q169 95 359 95zM779 1117q-181 0 -309 -141q-111 -123 -111 -301
q0 -113 57 -212q57 -100 159 -158q99 -57 207 -57t207 57q102 58 159 158t57 218q0 196 -143 327q-118 109 -283 109zM1227 1575l-352 329l268 134l280 -359zM1180 1523l-221 -102l-177 159l-177 -159l-221 102l312 318h172z" />
    <glyph glyph-name="uni1ED3" unicode="&#x1ed3;" horiz-adv-x="1065" 
d="M539 942q219 0 364 -162q123 -136 123 -325q0 -219 -159 -363q-139 -126 -335 -126q-224 0 -370 162q-123 138 -123 327q0 183 116 317q149 170 384 170zM531 680q-57 0 -103 -28q-96 -58 -96 -198q0 -117 68 -177q55 -49 133 -49q87 0 146 62q54 58 54 166
q0 116 -68 175q-55 49 -134 49zM447 1401h172l310 -317l-219 -102l-177 168l-178 -168l-219 102zM925 1172l-351 328l268 134l280 -358z" />
    <glyph glyph-name="uni1ED4" unicode="&#x1ed4;" horiz-adv-x="1563" 
d="M1263 1603h-161l78 -79l-221 -103l-177 160l-177 -160l-221 103l312 317h172l144 -146l5 14q1 1 1 3l1 4q4 21 23 54l1 1q13 16 13 21q0 9 -18 9t-53 -15q-8 -3 -22 -9l-87 205q97 34 131 42q37 9 84 9q139 0 205 -73q45 -51 45 -116q0 -62 -42 -124l-33 -48
q-3 -5 -3 -19q0 -5 -1 -14v-18q0 -13 1 -18zM782 1399q195 0 359 -95q173 -99 270 -264q99 -167 99 -358q0 -187 -95 -351q-94 -165 -263 -264q-173 -101 -376 -101q-191 0 -364 101q-169 99 -263 264q-95 166 -95 362q0 187 99 347q105 171 270 264q169 95 359 95z
M779 1117q-181 0 -309 -141q-111 -123 -111 -301q0 -113 57 -212q57 -100 159 -158q99 -57 207 -57t207 57q102 58 159 158t57 218q0 196 -143 327q-118 109 -283 109z" />
    <glyph glyph-name="uni1ED5" unicode="&#x1ed5;" horiz-adv-x="1065" 
d="M600 1401l99 -101l5 11l11 30q6 18 24 44q6 7 6 12q0 8 -18 8l-75 -23l-87 205q97 34 131 42q40 8 83 8q140 0 206 -73q45 -49 45 -116q0 -62 -42 -123l-33 -49q-3 -4 -3 -19q0 -6 -1 -14v-36h-161l120 -123l-219 -102l-177 168l-177 -168l-220 102l311 317h172zM539 942
q219 0 364 -162q123 -136 123 -325q0 -219 -159 -363q-139 -126 -335 -126q-224 0 -370 162q-123 138 -123 327q0 183 116 317q149 170 384 170zM531 680q-57 0 -103 -28q-96 -58 -96 -198q0 -117 68 -177q55 -49 133 -49q87 0 146 62q54 58 54 166q0 116 -68 175
q-55 49 -134 49z" />
    <glyph glyph-name="uni1ED6" unicode="&#x1ed6;" horiz-adv-x="1563" 
d="M782 1399q195 0 359 -95q173 -99 270 -264q99 -167 99 -358q0 -187 -95 -351q-94 -165 -263 -264q-173 -101 -376 -101q-191 0 -364 101q-169 99 -263 264q-95 166 -95 362q0 187 99 347q105 171 270 264q169 95 359 95zM779 1117q-181 0 -309 -141q-111 -123 -111 -301
q0 -113 57 -212q57 -100 159 -158q99 -57 207 -57t207 57q102 58 159 158t57 218q0 196 -143 327q-118 109 -283 109zM781 1559l-177 -150l-221 95l312 297h173l311 -297l-221 -95zM887 2125l242 -49q-9 -104 -40 -156q-26 -42 -77 -66.5t-111 -24.5q-81 0 -165 39
q-25 11 -39 11q-9 0 -14 -12.5t-12 -52.5l-236 48q11 103 45 155q27 41 75.5 66.5t101.5 25.5q84 0 175 -44q24 -11 34 -11q16 0 21 71z" />
    <glyph glyph-name="uni1ED7" unicode="&#x1ed7;" horiz-adv-x="1065" 
d="M539 942q219 0 364 -162q123 -136 123 -325q0 -219 -159 -363q-139 -126 -335 -126q-224 0 -370 162q-123 138 -123 327q0 183 116 317q149 170 384 170zM531 680q-57 0 -103 -28q-96 -58 -96 -198q0 -117 68 -177q55 -49 133 -49q87 0 146 62q54 58 54 166
q0 116 -68 175q-55 49 -134 49zM533 1154l-178 -150l-221 96l312 296h173l312 -296l-221 -96zM638 1726l242 -48q-7 -103 -40 -156q-25 -42 -76 -67t-111 -25q-85 0 -166 40q-25 11 -38 11q-10 0 -14.5 -11t-12.5 -55l-236 48q10 102 46 156q26 41 75 66.5t101 25.5
q84 0 175 -45q24 -11 34 -11t14 13.5t7 57.5z" />
    <glyph glyph-name="uni1ED8" unicode="&#x1ed8;" horiz-adv-x="1563" 
d="M782 1399q195 0 359 -95q173 -99 270 -264q99 -167 99 -358q0 -187 -95 -351q-94 -165 -263 -264q-173 -101 -376 -101q-191 0 -364 101q-169 99 -263 264q-95 166 -95 362q0 187 99 347q105 171 270 264q169 95 359 95zM779 1117q-181 0 -309 -141q-111 -123 -111 -301
q0 -113 57 -212q57 -100 159 -158q99 -57 207 -57t207 57q102 58 159 158t57 218q0 196 -143 327q-118 109 -283 109zM782 -68q78 0 130 -57q43 -47 43 -111q0 -74 -56 -124q-49 -45 -117 -45q-74 0 -123 49q-51 50 -51 122q0 71 56 121q50 45 118 45zM782 1580l-177 -159
l-221 102l312 318h172l312 -318l-221 -102z" />
    <glyph glyph-name="uni1ED9" unicode="&#x1ed9;" horiz-adv-x="1065" 
d="M539 942q219 0 364 -162q123 -136 123 -325q0 -219 -159 -363q-139 -126 -335 -126q-224 0 -370 162q-123 138 -123 327q0 183 116 317q149 170 384 170zM531 680q-57 0 -103 -28q-96 -58 -96 -198q0 -117 68 -177q55 -49 133 -49q87 0 146 62q54 58 54 166
q0 116 -68 175q-55 49 -134 49zM929 1096l-219 -101l-177 167l-178 -167l-219 101l311 317h172zM532 -68q78 0 131 -57q43 -47 43 -111q0 -74 -56 -124q-50 -45 -117 -45q-74 0 -123 49q-51 50 -51 122q0 70 56 121q49 45 117 45z" />
    <glyph glyph-name="uni1EDA" unicode="&#x1eda;" horiz-adv-x="1596" 
d="M1186 1484l225 113q66 -49 82 -65q90 -90 90 -221q0 -172 -164 -285q91 -164 91 -345q0 -186 -95 -350q-96 -165 -263 -264q-173 -101 -370 -101t-370 101q-169 99 -263 264q-95 164 -95 351q0 192 99 358q97 166 270 264q169 95 360 95q265 0 471 -174q71 35 71 86
q0 39 -25 70q-24 30 -114 103zM779 1117q-181 0 -309 -141q-111 -123 -111 -301q0 -113 57 -212q57 -100 159 -158q99 -57 207 -57t207 57q102 58 159 158t57 218q0 196 -143 327q-118 109 -283 109zM895 1882l268 -134l-351 -328l-197 104z" />
    <glyph glyph-name="uni1EDB" unicode="&#x1edb;" horiz-adv-x="1172" 
d="M887 796q25 25 25 57q0 39 -24 71q-25 30 -115 103l225 113q62 -45 82 -65q90 -90 90 -222q0 -167 -158 -280q14 -58 14 -116q0 -221 -159 -365q-139 -126 -334 -126q-225 0 -371 162q-123 138 -123 326q0 220 159 362q140 126 336 126q207 0 353 -146zM531 680
q-57 0 -103 -28q-96 -58 -96 -198q0 -117 68 -177q55 -49 133 -49q87 0 146 62q54 58 54 166q0 116 -68 175q-55 49 -134 49zM607 1454l269 -134l-352 -329l-196 105z" />
    <glyph glyph-name="uni1EDC" unicode="&#x1edc;" horiz-adv-x="1596" 
d="M1186 1484l225 113q66 -49 82 -65q90 -90 90 -221q0 -172 -164 -285q91 -164 91 -345q0 -186 -95 -350q-96 -165 -263 -264q-173 -101 -370 -101t-370 101q-169 99 -263 264q-95 164 -95 351q0 192 99 358q97 166 270 264q169 95 360 95q265 0 471 -174q71 35 71 86
q0 39 -25 70q-24 30 -114 103zM779 1117q-181 0 -309 -141q-111 -123 -111 -301q0 -113 57 -212q57 -100 159 -158q99 -57 207 -57t207 57q102 58 159 158t57 218q0 196 -143 327q-118 109 -283 109zM752 1420l-352 328l269 134l280 -358z" />
    <glyph glyph-name="uni1EDD" unicode="&#x1edd;" horiz-adv-x="1172" 
d="M887 796q25 25 25 57q0 39 -24 71q-25 30 -115 103l225 113q62 -45 82 -65q90 -90 90 -222q0 -167 -158 -280q14 -58 14 -116q0 -221 -159 -365q-139 -126 -334 -126q-225 0 -371 162q-123 138 -123 326q0 220 159 362q140 126 336 126q207 0 353 -146zM531 680
q-57 0 -103 -28q-96 -58 -96 -198q0 -117 68 -177q55 -49 133 -49q87 0 146 62q54 58 54 166q0 116 -68 175q-55 49 -134 49zM527 991l-352 329l269 134l279 -358z" />
    <glyph glyph-name="uni1EDE" unicode="&#x1ede;" horiz-adv-x="1596" 
d="M1186 1484l225 113q66 -49 82 -65q90 -90 90 -221q0 -172 -164 -285q91 -164 91 -345q0 -186 -95 -350q-96 -165 -263 -264q-173 -101 -370 -101t-370 101q-169 99 -263 264q-95 164 -95 351q0 192 99 358q97 166 270 264q169 95 360 95q265 0 471 -174q71 35 71 86
q0 39 -25 70q-24 30 -114 103zM779 1117q-181 0 -309 -141q-111 -123 -111 -301q0 -113 57 -212q57 -100 159 -158q99 -57 207 -57t207 57q102 58 159 158t57 218q0 196 -143 327q-118 109 -283 109zM958 1446h-261q3 83 9 109q6 24 32 55q14 17 14 24q0 10 -19 10l-75 -23
l-87 205q96 34 133 42t81 8q140 0 206 -73q45 -49 45 -116q0 -61 -42 -123l-33 -49q-3 -5 -3 -19q0 -6 -1 -14v-18q0 -11 1 -18z" />
    <glyph glyph-name="uni1EDF" unicode="&#x1edf;" horiz-adv-x="1172" 
d="M887 796q25 25 25 57q0 39 -24 71q-25 30 -115 103l225 113q62 -45 82 -65q90 -90 90 -222q0 -167 -158 -280q14 -58 14 -116q0 -221 -159 -365q-139 -126 -334 -126q-225 0 -371 162q-123 138 -123 326q0 220 159 362q140 126 336 126q207 0 353 -146zM531 680
q-57 0 -103 -28q-96 -58 -96 -198q0 -117 68 -177q55 -49 133 -49q87 0 146 62q54 58 54 166q0 116 -68 175q-55 49 -134 49zM692 1022h-260q1 83 9 109q6 24 32 55q14 17 14 24q0 10 -19 10l-75 -23l-88 205q100 33 132 41q38 9 82 9q141 0 207 -73q45 -49 45 -116
q0 -62 -43 -123l-32 -49q-4 -4 -4 -19q0 -7 -1 -14v-18q0 -11 1 -18z" />
    <glyph glyph-name="uni1EE0" unicode="&#x1ee0;" horiz-adv-x="1596" 
d="M1186 1484l225 113q66 -49 82 -65q90 -90 90 -221q0 -172 -164 -285q91 -164 91 -345q0 -186 -95 -350q-96 -165 -263 -264q-173 -101 -370 -101t-370 101q-169 99 -263 264q-95 164 -95 351q0 192 99 358q97 166 270 264q169 95 360 95q265 0 471 -174q71 35 71 86
q0 39 -25 70q-24 30 -114 103zM779 1117q-181 0 -309 -141q-111 -123 -111 -301q0 -113 57 -212q57 -100 159 -158q99 -57 207 -57t207 57q102 58 159 158t57 218q0 196 -143 327q-118 109 -283 109zM882 1805l242 -52q-9 -116 -43 -172q-26 -43 -76 -68.5t-108 -25.5
q-79 0 -166 41q-24 12 -38 12q-10 0 -14.5 -11.5t-12.5 -58.5l-236 52q10 111 49 173q27 42 74.5 67.5t99.5 25.5q82 0 174 -47q22 -11 33 -11t14.5 13t7.5 62z" />
    <glyph glyph-name="uni1EE1" unicode="&#x1ee1;" horiz-adv-x="1172" 
d="M887 796q25 25 25 57q0 39 -24 71q-25 30 -115 103l225 113q62 -45 82 -65q90 -90 90 -222q0 -167 -158 -280q14 -58 14 -116q0 -221 -159 -365q-139 -126 -334 -126q-225 0 -371 162q-123 138 -123 326q0 220 159 362q140 126 336 126q207 0 353 -146zM531 680
q-57 0 -103 -28q-96 -58 -96 -198q0 -117 68 -177q55 -49 133 -49q87 0 146 62q54 58 54 166q0 116 -68 175q-55 49 -134 49zM635 1377l242 -52q-9 -116 -43 -172q-25 -43 -75 -68.5t-109 -25.5q-81 0 -166 41q-24 12 -38 12q-10 0 -14.5 -11.5t-12.5 -57.5l-236 51
q10 111 49 173q27 42 75 67.5t99 25.5q83 0 174 -47q22 -11 34 -11q10 0 14 14t7 61z" />
    <glyph glyph-name="uni1EE2" unicode="&#x1ee2;" horiz-adv-x="1596" 
d="M1186 1484l225 113q66 -49 82 -65q90 -90 90 -221q0 -172 -164 -285q91 -164 91 -345q0 -186 -95 -350q-96 -165 -263 -264q-173 -101 -370 -101t-370 101q-169 99 -263 264q-95 164 -95 351q0 192 99 358q97 166 270 264q169 95 360 95q265 0 471 -174q71 35 71 86
q0 39 -25 70q-24 30 -114 103zM779 1117q-181 0 -309 -141q-111 -123 -111 -301q0 -113 57 -212q57 -100 159 -158q99 -57 207 -57t207 57q102 58 159 158t57 218q0 196 -143 327q-118 109 -283 109zM782 -68q78 0 130 -57q43 -47 43 -111q0 -74 -56 -124q-49 -45 -119 -45
q-76 0 -129 57q-43 47 -43 114q0 70 56 121q50 45 118 45z" />
    <glyph glyph-name="uni1EE3" unicode="&#x1ee3;" horiz-adv-x="1172" 
d="M887 796q25 25 25 57q0 39 -24 71q-25 30 -115 103l225 113q62 -45 82 -65q90 -90 90 -222q0 -167 -158 -280q14 -58 14 -116q0 -221 -159 -365q-139 -126 -334 -126q-225 0 -371 162q-123 138 -123 326q0 220 159 362q140 126 336 126q207 0 353 -146zM531 680
q-57 0 -103 -28q-96 -58 -96 -198q0 -117 68 -177q55 -49 133 -49q87 0 146 62q54 58 54 166q0 116 -68 175q-55 49 -134 49zM533 -68q77 0 130 -57q43 -47 43 -111q0 -74 -56 -124q-50 -45 -117 -45q-74 0 -123 49q-51 50 -51 122q0 71 56 121q49 45 118 45z" />
    <glyph glyph-name="uni1EE4" unicode="&#x1ee4;" horiz-adv-x="1321" 
d="M131 1365h303v-835q0 -136 27 -183q23 -42 81 -71q55 -28 118 -28t119 28q56 29 81 71q26 47 26 183v835h303v-871q0 -173 -61 -276q-64 -108 -180 -176q-131 -76 -288 -76q-216 0 -371 135q-83 72 -121 166q-37 90 -37 227v871zM660 -68q78 0 131 -57q43 -47 43 -111
q0 -74 -56 -124q-50 -45 -117 -45q-74 0 -123 49q-51 50 -51 122q0 70 56 121q49 45 117 45z" />
    <glyph glyph-name="uni1EE5" unicode="&#x1ee5;" horiz-adv-x="1046" 
d="M658 0v36q-89 -70 -200 -70q-133 0 -234 89q-127 112 -127 362v491h291v-477q0 -110 23 -154q25 -49 103 -49q87 0 119 57q25 43 25 163v460h291v-908h-291zM524 -68q78 0 130 -57q43 -47 43 -111q0 -74 -56 -124q-49 -45 -117 -45q-74 0 -123 49q-51 50 -51 122
q0 71 56 121q50 45 118 45z" />
    <glyph glyph-name="uni1EE6" unicode="&#x1ee6;" horiz-adv-x="1321" 
d="M131 1365h303v-835q0 -136 27 -183q23 -42 81 -71q55 -28 118 -28t119 28q56 29 81 71q26 47 26 183v835h303v-871q0 -173 -61 -276q-64 -108 -180 -176q-131 -76 -288 -76q-216 0 -371 135q-83 72 -121 166q-37 90 -37 227v871zM812 1453v-7h-260q3 85 9 109q4 22 31 55
q15 18 15 24q0 10 -19 10l-75 -23l-88 205q96 34 133 42t81 8q141 0 207 -73q45 -51 45 -115q0 -62 -42 -124l-33 -49q-3 -3 -3 -19q0 -6 -1 -14v-29z" />
    <glyph glyph-name="uni1EE7" unicode="&#x1ee7;" horiz-adv-x="1046" 
d="M658 0v36q-89 -70 -200 -70q-133 0 -234 89q-127 112 -127 362v491h291v-477q0 -110 23 -154q25 -49 103 -49q87 0 119 57q25 43 25 163v460h291v-908h-291zM675 1022h-260q3 83 9 109q6 24 32 55q14 17 14 24q0 10 -19 10t-53 -15q-19 -7 -22 -8l-87 205q92 33 131 42
q40 8 82 8q141 0 207 -73q45 -49 45 -116q0 -61 -42 -123l-33 -49q-3 -5 -3 -19q0 -6 -1 -14v-18v-18z" />
    <glyph glyph-name="uni1EE8" unicode="&#x1ee8;" horiz-adv-x="1465" 
d="M1189 1365v-125q43 31 43 71q0 39 -25 70q-24 30 -114 103l225 113q62 -45 82 -65q90 -90 90 -223q0 -117 -73.5 -202.5t-227.5 -147.5v-465q0 -173 -61 -276q-64 -108 -180 -176q-131 -76 -288 -76q-216 0 -371 135q-83 72 -121 166q-37 90 -37 227v871h303v-835
q0 -136 27 -183q23 -42 81 -71q55 -28 118 -28t119 28q56 29 81 71q26 47 26 183v835h303zM752 1882l269 -134l-352 -328l-197 104z" />
    <glyph glyph-name="uni1EE9" unicode="&#x1ee9;" horiz-adv-x="1261" 
d="M949 908v-131q52 31 52 77q0 40 -25 71q-26 30 -114 102l225 113q66 -49 82 -65q90 -90 90 -223q0 -115 -77.5 -205.5t-220.5 -142.5l-12 -5v-499h-291v36q-89 -70 -200 -70q-133 0 -234 89q-127 112 -127 362v491h291v-477q0 -110 23 -154q25 -49 103 -49q87 0 119 57
q25 43 25 163v460h291zM607 1454l269 -134l-352 -329l-197 105z" />
    <glyph glyph-name="uni1EEA" unicode="&#x1eea;" horiz-adv-x="1465" 
d="M1189 1365v-125q43 31 43 71q0 39 -25 70q-24 30 -114 103l225 113q62 -45 82 -65q90 -90 90 -223q0 -117 -73.5 -202.5t-227.5 -147.5v-465q0 -173 -61 -276q-64 -108 -180 -176q-131 -76 -288 -76q-216 0 -371 135q-83 72 -121 166q-37 90 -37 227v871h303v-835
q0 -136 27 -183q23 -42 81 -71q55 -28 118 -28t119 28q56 29 81 71q26 47 26 183v835h303zM631 1420l-351 328l268 134l280 -358z" />
    <glyph glyph-name="uni1EEB" unicode="&#x1eeb;" horiz-adv-x="1261" 
d="M949 908v-131q52 31 52 77q0 40 -25 71q-26 30 -114 102l225 113q66 -49 82 -65q90 -90 90 -223q0 -115 -77.5 -205.5t-220.5 -142.5l-12 -5v-499h-291v36q-89 -70 -200 -70q-133 0 -234 89q-127 112 -127 362v491h291v-477q0 -110 23 -154q25 -49 103 -49q87 0 119 57
q25 43 25 163v460h291zM508 991l-352 329l269 134l279 -358z" />
    <glyph glyph-name="uni1EEC" unicode="&#x1eec;" horiz-adv-x="1465" 
d="M1189 1365v-125q43 31 43 71q0 39 -25 70q-24 30 -114 103l225 113q62 -45 82 -65q90 -90 90 -223q0 -117 -73.5 -202.5t-227.5 -147.5v-465q0 -173 -61 -276q-64 -108 -180 -176q-131 -76 -288 -76q-216 0 -371 135q-83 72 -121 166q-37 90 -37 227v871h303v-835
q0 -136 27 -183q23 -42 81 -71q55 -28 118 -28t119 28q56 29 81 71q26 47 26 183v835h303zM827 1453v-7h-260q3 85 9 109q6 22 32 55q14 19 14 24q0 10 -19 10l-75 -23l-88 205q96 34 133 42t81 8q141 0 207 -73q45 -51 45 -115q0 -62 -42 -124l-33 -49q-4 -4 -4 -62z" />
    <glyph glyph-name="uni1EED" unicode="&#x1eed;" horiz-adv-x="1261" 
d="M949 908v-131q52 31 52 77q0 40 -25 71q-26 30 -114 102l225 113q66 -49 82 -65q90 -90 90 -223q0 -115 -77.5 -205.5t-220.5 -142.5l-12 -5v-499h-291v36q-89 -70 -200 -70q-133 0 -234 89q-127 112 -127 362v491h291v-477q0 -110 23 -154q25 -49 103 -49q87 0 119 57
q25 43 25 163v460h291zM686 1029v-7h-260q3 86 9 108q4 21 31 56q15 20 15 24q0 10 -19 10q-25 -8 -75 -23l-88 205q95 33 132 42q40 8 82 8q140 0 207 -73q45 -49 45 -115q0 -62 -42 -124l-33 -49q-3 -3 -3 -19q0 -6 -1 -14v-29z" />
    <glyph glyph-name="uni1EEE" unicode="&#x1eee;" horiz-adv-x="1465" 
d="M1189 1365v-125q43 31 43 71q0 39 -25 70q-24 30 -114 103l225 113q62 -45 82 -65q90 -90 90 -223q0 -117 -73.5 -202.5t-227.5 -147.5v-465q0 -173 -61 -276q-64 -108 -180 -176q-131 -76 -288 -76q-216 0 -371 135q-83 72 -121 166q-37 90 -37 227v871h303v-835
q0 -136 27 -183q23 -42 81 -71q55 -28 118 -28t119 28q56 29 81 71q26 47 26 183v835h303zM763 1805l242 -52q-9 -118 -43 -172q-26 -43 -76 -68.5t-109 -25.5q-79 0 -166 41q-22 12 -38 12q-10 0 -14.5 -12.5t-11.5 -57.5l-236 52q10 111 49 173q26 41 74 67t99 26
q83 0 175 -47q20 -11 33 -11q10 0 14 13.5t8 61.5z" />
    <glyph glyph-name="uni1EEF" unicode="&#x1eef;" horiz-adv-x="1261" 
d="M949 908v-131q52 31 52 77q0 40 -25 71q-26 30 -114 102l225 113q66 -49 82 -65q90 -90 90 -223q0 -115 -77.5 -205.5t-220.5 -142.5l-12 -5v-499h-291v36q-89 -70 -200 -70q-133 0 -234 89q-127 112 -127 362v491h291v-477q0 -110 23 -154q25 -49 103 -49q87 0 119 57
q25 43 25 163v460h291zM616 1377l242 -52q-9 -116 -43 -172q-26 -43 -76 -68.5t-109 -25.5q-80 0 -165 41q-24 12 -38 12q-10 0 -14.5 -11t-12.5 -58l-236 51q10 111 49 173q26 42 74 67.5t100 25.5q82 0 174 -47q22 -11 33 -11t14.5 13t7.5 62z" />
    <glyph glyph-name="uni1EF0" unicode="&#x1ef0;" horiz-adv-x="1465" 
d="M1189 1365v-125q43 31 43 71q0 39 -25 70q-24 30 -114 103l225 113q62 -45 82 -65q90 -90 90 -223q0 -117 -73.5 -202.5t-227.5 -147.5v-465q0 -173 -61 -276q-64 -108 -180 -176q-131 -76 -288 -76q-216 0 -371 135q-83 72 -121 166q-37 90 -37 227v871h303v-835
q0 -136 27 -183q23 -42 81 -71q55 -28 118 -28t119 28q56 29 81 71q26 47 26 183v835h303zM661 -68q77 0 130 -57q43 -47 43 -112q0 -73 -56 -123q-50 -45 -117 -45q-74 0 -123 49q-51 50 -51 122q0 70 56 121q49 45 118 45z" />
    <glyph glyph-name="uni1EF1" unicode="&#x1ef1;" horiz-adv-x="1261" 
d="M949 908v-131q52 31 52 77q0 40 -25 71q-26 30 -114 102l225 113q66 -49 82 -65q90 -90 90 -223q0 -115 -77.5 -205.5t-220.5 -142.5l-12 -5v-499h-291v36q-89 -70 -200 -70q-133 0 -234 89q-127 112 -127 362v491h291v-477q0 -110 23 -154q25 -49 103 -49q87 0 119 57
q25 43 25 163v460h291zM524 -68q78 0 130 -57q43 -47 43 -111q0 -74 -56 -124q-49 -45 -119 -45q-76 0 -129 57q-43 47 -43 114q0 70 56 121q50 45 118 45z" />
    <glyph glyph-name="Ygrave" unicode="&#x1ef2;" horiz-adv-x="1157" 
d="M427 0v562l-459 803h340l271 -488l271 488h339l-459 -803v-562h-303zM571 1420l-352 328l269 134l280 -358z" />
    <glyph glyph-name="ygrave" unicode="&#x1ef3;" horiz-adv-x="973" 
d="M78 -478l235 527l-344 859h308l196 -503l224 503h307l-620 -1386h-306zM492 991l-352 329l269 134l280 -358z" />
    <glyph glyph-name="uni1EF4" unicode="&#x1ef4;" horiz-adv-x="1157" 
d="M427 0v562l-459 803h340l271 -488l271 488h339l-459 -803v-562h-303zM579 -68q77 0 130 -57q43 -47 43 -112q0 -73 -56 -123q-50 -45 -119 -45q-77 0 -129 57q-43 47 -43 114q0 71 56 121q49 45 118 45z" />
    <glyph glyph-name="uni1EF5" unicode="&#x1ef5;" horiz-adv-x="973" 
d="M78 -478l235 527l-344 859h308l196 -503l224 503h307l-620 -1386h-306zM745 -68q77 0 130 -57q43 -46 43 -111q0 -74 -56 -124q-50 -45 -119 -45q-77 0 -129 57q-43 47 -43 114q0 71 56 121q49 45 118 45z" />
    <glyph glyph-name="uni1EF6" unicode="&#x1ef6;" horiz-adv-x="1157" 
d="M427 0v562l-459 803h340l271 -488l271 488h339l-459 -803v-562h-303zM733 1446h-261q3 85 9 109q6 22 32 55q15 18 15 24q0 10 -19 10l-76 -23l-87 205q96 34 133 42t81 8q141 0 207 -73q45 -51 45 -115q0 -63 -43 -124l-33 -49q-2 -5 -3 -19q0 -5 -1 -14v-16
q0 -13 1 -20z" />
    <glyph glyph-name="uni1EF7" unicode="&#x1ef7;" horiz-adv-x="973" 
d="M78 -478l235 527l-344 859h308l196 -503l224 503h307l-620 -1386h-306zM641 1022h-261q3 83 9 109q6 24 32 55q14 17 14 24q0 10 -19 10q-25 -8 -75 -23l-87 205q97 34 131 42q40 8 83 8q140 0 206 -73q45 -49 45 -116q0 -61 -42 -123l-33 -49q-3 -5 -3 -19q0 -6 -1 -14
v-18q0 -13 1 -18z" />
    <glyph glyph-name="uni1EF8" unicode="&#x1ef8;" horiz-adv-x="1157" 
d="M427 0v562l-459 803h340l271 -488l271 488h339l-459 -803v-562h-303zM684 1805l242 -52q-9 -118 -43 -172q-26 -43 -76 -68.5t-109 -25.5q-80 0 -165 41q-24 12 -39 12q-9 0 -14 -13t-12 -57l-236 52q10 111 49 173q27 42 74.5 67.5t99.5 25.5q82 0 174 -47
q22 -11 33 -11t14.5 12.5t7.5 62.5z" />
    <glyph glyph-name="uni1EF9" unicode="&#x1ef9;" horiz-adv-x="973" 
d="M78 -478l235 527l-344 859h308l196 -503l224 503h307l-620 -1386h-306zM592 1377l242 -52q-9 -116 -43 -172q-26 -43 -76 -68.5t-109 -25.5q-79 0 -166 41q-22 12 -38 12q-9 0 -14 -12.5t-12 -56.5l-236 51q10 111 49 173q26 42 74.5 67.5t99.5 25.5q82 0 174 -47
q20 -11 33 -11q11 0 14.5 13t7.5 62z" />
    <glyph glyph-name="uni2002" unicode="&#x2002;" horiz-adv-x="983" 
 />
    <glyph glyph-name="uni2003" unicode="&#x2003;" horiz-adv-x="2007" 
 />
    <glyph glyph-name="uni2004" unicode="&#x2004;" horiz-adv-x="642" 
 />
    <glyph glyph-name="uni2005" unicode="&#x2005;" horiz-adv-x="471" 
 />
    <glyph glyph-name="uni2006" unicode="&#x2006;" horiz-adv-x="96" 
 />
    <glyph glyph-name="uni2007" unicode="&#x2007;" horiz-adv-x="1098" 
 />
    <glyph glyph-name="uni2009" unicode="&#x2009;" horiz-adv-x="215" 
 />
    <glyph glyph-name="uni200A" unicode="&#x200a;" horiz-adv-x="27" 
 />
    <glyph glyph-name="uni2011" unicode="&#x2011;" horiz-adv-x="594" 
d="M43 338v268h509v-268h-509z" />
    <glyph glyph-name="figuredash" unicode="&#x2012;" horiz-adv-x="1231" 
d="M207 338v268h818v-268h-818z" />
    <glyph glyph-name="endash" unicode="&#x2013;" horiz-adv-x="1231" 
d="M207 338v268h818v-268h-818z" />
    <glyph glyph-name="emdash" unicode="&#x2014;" horiz-adv-x="1336" 
d="M43 338v268h1251v-268h-1251z" />
    <glyph glyph-name="afii00208" unicode="&#x2015;" horiz-adv-x="1336" 
d="M43 338v268h1251v-268h-1251z" />
    <glyph glyph-name="underscoredbl" unicode="&#x2017;" horiz-adv-x="1096" 
d="M-32 -279v242h1161v-242h-1161zM-32 -593v242h1161v-242h-1161z" />
    <glyph glyph-name="quoteleft" unicode="&#x2018;" horiz-adv-x="650" 
d="M566 1434l-215 -598l-267 97l262 589z" />
    <glyph glyph-name="quoteright" unicode="&#x2019;" horiz-adv-x="581" 
d="M37 923l215 599l267 -98l-262 -588z" />
    <glyph glyph-name="quotesinglbase" unicode="&#x201a;" horiz-adv-x="581" 
d="M37 -311l215 599l267 -98l-262 -588z" />
    <glyph glyph-name="quotereversed" unicode="&#x201b;" horiz-adv-x="581" 
d="M63 1424l267 98l215 -599l-220 -87z" />
    <glyph glyph-name="quotedblleft" unicode="&#x201c;" horiz-adv-x="992" 
d="M909 1434l-216 -598l-267 97l263 589zM346 1522l220 -88l-215 -598l-267 97z" />
    <glyph glyph-name="quotedblright" unicode="&#x201d;" horiz-adv-x="992" 
d="M84 923l215 599l267 -98l-262 -588zM646 836l-219 87l215 599l267 -98z" />
    <glyph glyph-name="quotedblbase" unicode="&#x201e;" horiz-adv-x="992" 
d="M84 -311l215 599l267 -98l-262 -588zM427 -311l215 599l267 -98l-263 -588z" />
    <glyph glyph-name="dagger" unicode="&#x2020;" horiz-adv-x="1152" 
d="M428 950v411h296v-411h279v-283h-279v-1044h-296v1044h-279v283h279z" />
    <glyph glyph-name="daggerdbl" unicode="&#x2021;" horiz-adv-x="1152" 
d="M428 -377v411h-279v283h279v350h-279v283h279v411h296v-411h279v-283h-279v-350h279v-283h-279v-411h-296z" />
    <glyph glyph-name="bullet" unicode="&#x2022;" horiz-adv-x="1055" 
d="M533 1037q152 0 258 -118q91 -100 91 -237q0 -158 -117 -264q-101 -91 -238 -91q-157 0 -264 117q-91 100 -91 241q0 153 118 261q100 91 243 91z" />
    <glyph glyph-name="ellipsis" unicode="&#x2026;" horiz-adv-x="1608" 
d="M295 305q77 0 130 -57q43 -46 43 -111q0 -73 -56 -123q-50 -45 -117 -45q-74 0 -123 50q-51 49 -51 121q0 70 56 121q50 44 118 44zM1314 305q78 0 130 -57q43 -46 43 -111q0 -73 -56 -123q-49 -45 -119 -45q-76 0 -129 57q-43 47 -43 114q0 70 56 121q50 44 118 44z
M804 305q78 0 130 -57q43 -46 43 -111q0 -73 -56 -123q-49 -45 -119 -45q-76 0 -129 57q-43 47 -43 114q0 70 56 121q50 44 118 44z" />
    <glyph glyph-name="perthousand" unicode="&#x2030;" horiz-adv-x="2597" 
d="M448 59l776 1340l163 -94l-776 -1340zM408 1384q346 0 346 -425q0 -424 -344 -424q-168 0 -254 109t-86 321q0 170 62 276q86 143 276 143zM411 1200q-133 0 -133 -232q0 -129 32.5 -189t102.5 -60q54 0 85 34q21 24 34 82q14 61 14 121q0 244 -135 244zM1419 829
q346 0 346 -425q0 -174 -62 -280q-84 -144 -279 -144q-343 0 -343 430q0 170 62 276q86 143 276 143zM1422 645q-53 0 -84 -34q-22 -25 -35.5 -83t-13.5 -128q0 -69 16 -127q16 -61 40 -82q30 -27 78 -27q55 0 86 34q21 24 34 82q14 62 14 123q0 242 -135 242zM2185 829
q168 0 255 -108t87 -317q0 -173 -62 -280q-84 -144 -279 -144q-343 0 -343 430q0 172 62 276q86 143 280 143zM2184 645q-53 0 -84 -34q-22 -25 -35.5 -83t-13.5 -128q0 -69 16 -127q16 -61 40 -82q30 -27 78 -27q55 0 86 34q21 24 34 82q14 62 14 123q0 242 -135 242z" />
    <glyph glyph-name="minute" unicode="&#x2032;" horiz-adv-x="464" 
d="M-101 924l215 597l266 -97l-262 -588z" />
    <glyph glyph-name="second" unicode="&#x2033;" horiz-adv-x="805" 
d="M-101 924l215 597l266 -97l-262 -588zM240 924l215 597l266 -97l-262 -588z" />
    <glyph glyph-name="guilsinglleft" unicode="&#x2039;" horiz-adv-x="699" 
d="M627 774l-252 -319l252 -312l-202 -160l-382 471l382 479z" />
    <glyph glyph-name="guilsinglright" unicode="&#x203a;" horiz-adv-x="699" 
d="M71 143l252 312l-251 319l201 159l382 -479l-382 -471z" />
    <glyph glyph-name="uni203E" unicode="&#x203e;" horiz-adv-x="1096" 
d="M-32 1500v270h1161v-270h-1161z" />
    <glyph glyph-name="slash.aalt" unicode="&#x2044;" horiz-adv-x="369" 
d="M-285 59l776 1340l163 -94l-776 -1340z" />
    <glyph glyph-name="zerosuperior" unicode="&#x2070;" 
d="M396 1661q169 0 255.5 -108t86.5 -317q0 -424 -344 -424q-168 0 -254 108.5t-86 321.5q0 171 62 275q86 144 280 144zM395 1477q-53 0 -84 -34q-22 -25 -35.5 -83.5t-13.5 -127.5t16 -127q16 -61 40 -82q30 -27 78 -27q55 0 86 34q21 24 34 82q14 62 14 122
q0 243 -135 243z" />
    <glyph glyph-name="foursuperior" unicode="&#x2074;" 
d="M433 1674l171 -100l-270 -404h90v131h205v-131h75v-184h-75v-155h-205v155h-348v154z" />
    <glyph glyph-name="fivesuperior" unicode="&#x2075;" 
d="M386 1454l-13 -56q10 1 21 1q82 0 160 -45q67 -38 105.5 -103t38.5 -140q0 -129 -99 -217q-91 -82 -226 -82q-147 0 -249 108q-32 33 -61 78l168 111q39 -67 69 -90q30 -24 76 -24q50 0 83 32t33 80t-32.5 79.5t-82.5 31.5q-51 0 -91 -45l-5 -5l-159 31l95 441h443v-186
h-274z" />
    <glyph glyph-name="sixsuperior" unicode="&#x2076;" 
d="M148 1298l286 376l162 -113l-137 -181q83 -15 141 -60q106 -82 106 -212q0 -128 -99 -217q-88 -79 -213 -79q-144 0 -239 102q-76 82 -76 193q0 101 69 191zM393 1205q-47 0 -78 -29t-31 -74q0 -46 31 -76.5t78 -30.5q46 0 77 31.5t31 78.5q0 43 -30.5 71.5t-77.5 28.5z
" />
    <glyph glyph-name="sevensuperior" unicode="&#x2077;" 
d="M314 797l-180 90l325 567h-339v186h595v-135z" />
    <glyph glyph-name="eightsuperior" unicode="&#x2078;" 
d="M180 1263q-64 64 -64 149q0 104 82 177q79 71 199 71q137 0 217 -90q63 -70 63 -158q0 -84 -65 -149q50 -48 69.5 -88t19.5 -94q0 -115 -87 -192q-89 -77 -218 -77q-150 0 -238 97q-67 71 -67 172q0 54 19.5 94t69.5 88zM394 1169q-45 0 -72 -24t-27 -64
q0 -39 27.5 -63.5t73.5 -24.5t73.5 24t27.5 65q0 40 -27.5 63.5t-75.5 23.5zM396 1484q-37 0 -60 -20.5t-23 -54.5q0 -32 23 -52t60 -20q38 0 61 20t23 53t-23.5 53.5t-60.5 20.5z" />
    <glyph glyph-name="ninesuperior" unicode="&#x2079;" 
d="M644 1174l-286 -376l-163 113l138 181q-84 15 -142 60q-106 82 -106 213q0 127 99 216q88 79 213 79q145 0 240 -102q75 -82 75 -192q0 -101 -68 -192zM398 1477q-46 0 -77 -31.5t-31 -78.5q0 -43 30.5 -71.5t77.5 -28.5t78 29t31 74q0 46 -31 76.5t-78 30.5z" />
    <glyph glyph-name="zeroinferior" unicode="&#x2080;" 
d="M396 564q169 0 255.5 -108t86.5 -317q0 -174 -62 -280q-86 -144 -279 -144q-343 0 -343 430q0 172 62 276q86 143 280 143zM395 380q-53 0 -84 -34q-22 -25 -35.5 -83t-13.5 -128q0 -69 16 -127q16 -61 40 -82q30 -27 78 -27q55 0 86 34q21 24 34 82q14 62 14 122
q0 243 -135 243z" />
    <glyph glyph-name="oneinferior" unicode="&#x2081;" 
d="M532 543v-808h-206v564l-78 -42l-100 162l230 124h154z" />
    <glyph glyph-name="twoinferior" unicode="&#x2082;" 
d="M696 -265h-584v150l291 305q71 76 71 130q0 61 -76 61q-47 0 -66 -22q-20 -23 -41 -98l-193 50q23 98 64 152q35 47 98.5 74t137.5 27q144 0 220 -85q61 -67 61 -164q0 -119 -94 -216l-169 -178h280v-186z" />
    <glyph glyph-name="threeinferior" unicode="&#x2083;" 
d="M298 68v176h86q86 0 86 68q0 69 -77 69q-37 0 -59 -15q-25 -18 -65 -70l-170 89q41 64 78 100q82 79 213 79q142 0 222 -89q62 -70 62 -160q0 -82 -62 -150q44 -46 61.5 -85t17.5 -93q0 -119 -87 -195q-89 -77 -217 -77q-247 0 -306 260l196 49q23 -77 44 -101
q23 -24 67 -24t70.5 24.5t26.5 64.5q0 80 -101 80h-86z" />
    <glyph glyph-name="fourinferior" unicode="&#x2084;" 
d="M433 577l171 -100l-270 -404h90v131h205v-131h75v-184h-75v-154h-205v154h-348v153z" />
    <glyph glyph-name="fiveinferior" unicode="&#x2085;" 
d="M386 358l-13 -56q11 1 21 1q82 0 160 -45q67 -38 105.5 -103t38.5 -141q0 -128 -99 -217q-91 -82 -226 -82q-98 0 -171.5 44t-138.5 142l168 112q37 -67 69 -91q30 -24 76 -24q50 0 83 32t33 80q0 49 -32.5 80.5t-82.5 31.5q-49 0 -91 -45q-1 -2 -5 -6l-159 32l95 441
h443v-186h-274z" />
    <glyph glyph-name="sixinferior" unicode="&#x2086;" 
d="M148 201l286 376l162 -113l-137 -181q83 -15 141 -60q106 -82 106 -212q0 -128 -99 -217q-88 -79 -213 -79q-146 0 -240 102q-75 83 -75 193q0 99 69 191zM393 108q-47 0 -78 -29t-31 -74q0 -46 31 -76.5t78 -30.5q46 0 77 31.5t31 78.5q0 43 -30.5 71.5t-77.5 28.5z" />
    <glyph glyph-name="seveninferior" unicode="&#x2087;" 
d="M314 -299l-180 90l325 567h-339v186h595v-135z" />
    <glyph glyph-name="eightinferior" unicode="&#x2088;" 
d="M180 166q-64 65 -64 150q0 104 82 177q77 71 199 71q137 0 217 -90q63 -70 63 -158q0 -83 -65 -150q50 -48 69.5 -88t19.5 -94q0 -116 -87 -192q-88 -77 -218 -77q-150 0 -238 97q-67 71 -67 172q0 55 19.5 95t69.5 87zM396 72q-46 0 -73.5 -24t-27.5 -65q0 -39 28 -63
t73 -24q46 0 73.5 24t27.5 64t-27.5 64t-73.5 24zM396 388q-37 0 -60 -21t-23 -55q0 -32 23.5 -52t60.5 -20t60 20.5t23 52.5q0 34 -23.5 54.5t-60.5 20.5z" />
    <glyph glyph-name="nineinferior" unicode="&#x2089;" 
d="M644 77l-286 -376l-163 113l138 181q-84 15 -142 61q-106 81 -106 212q0 128 99 217q88 79 213 79q145 0 240 -102q75 -82 75 -193q0 -101 -68 -192zM398 381q-46 0 -77 -32t-31 -79q0 -43 30.5 -71.5t77.5 -28.5t78 29t31 74q0 46 -31 77t-78 31z" />
    <glyph glyph-name="franc" unicode="&#x20a3;" horiz-adv-x="1579" 
d="M213 1365h759v-279h-456v-254h338v-281h-338v-551h-303v1365zM1213 832v-40q77 47 156 47q39 0 92 -9v-257q-62 8 -93 8q-90 0 -122 -45q-33 -46 -33 -172v-364h-291v832h291z" />
    <glyph glyph-name="lira" unicode="&#x20a4;" horiz-adv-x="1172" 
d="M542 706l10 -50h368v-209h-334q1 -13 1 -28q0 -67 -37 -144h552v-275h-981v236q39 32 53 43q110 101 106 163v3v2h-159v209h126l-10 50h-116v209h85q-1 10 -1 24q0 225 140 347q131 113 318 113q209 0 338 -146q43 -49 92 -128l-244 -153q-43 67 -76 100q-51 51 -120 51
q-75 0 -111 -50.5t-36 -157.5h414v-209h-378z" />
    <glyph glyph-name="peseta" unicode="&#x20a7;" horiz-adv-x="1243" 
d="M546 0h-303v823h-105v193h105v349h336q414 7 500 -349h114v-193h-115q-86 -356 -499 -347h-33v-476zM774 823h-230v-78h52q77 0 118.5 18t59.5 60zM544 1095v-79h231q-23 45 -61.5 62t-117.5 17h-52z" />
    <glyph glyph-name="uni20AB" unicode="&#x20ab;" horiz-adv-x="1128" 
d="M725 863v143h-221v251h221v108h291v-108h110v-251h-110v-1006h-291v44q-109 -78 -227 -78q-116 0 -220 60q-108 62 -172 173q-67 115 -67 255q0 225 159 369q130 118 300 118q118 0 227 -78zM529 680q-84 0 -143 -62q-54 -58 -54 -166q0 -115 69 -175q55 -49 131 -49
q87 0 142 61q54 59 54 167q0 117 -68 177q-53 47 -131 47zM58 -342v270h1064v-270h-1064z" />
    <glyph glyph-name="Euro" unicode="&#x20ac;" horiz-adv-x="1641" 
d="M1313 706h-721v-26v-24h700l-87 -209h-546q130 -199 360 -199q73 0 136.5 22.5t142.5 76.5q78 54 170 140v-368q-6 -4 -54 -38q-70 -52 -178 -83q-111 -32 -214 -32q-320 0 -535 224q-103 109 -161 257h-222l87 209h96v2v10v11v27h-183l87 209h135q57 152 162 262
q213 222 543 222q140 0 245 -37q108 -38 254 -138l-113 -269q-48 31 -72 48q-167 114 -324 114q-233 0 -365 -202h745z" />
    <glyph glyph-name="uni20B4" unicode="&#x20b4;" horiz-adv-x="1283" 
d="M437 970l-251 158q59 97 122 157q130 119 319 119q137 0 254 -66q96 -54 151 -148q52 -89 52 -196q0 -32 -8 -77h65v-181h-167q-5 -5 -65 -48h232v-181h-593q-40 -25 -54.5 -43.5t-14.5 -45.5q0 -69 52 -117q53 -48 125 -48q114 0 162 124q6 14 28 98l297 -79
q-37 -164 -111 -258q-58 -75 -156 -120q-102 -47 -217 -47q-228 0 -370 157q-115 127 -115 285q0 43 10 94h-46v181h151q25 24 60 48h-211v181h603q42 31 42 73q0 56 -42 95q-43 38 -103 38q-64 0 -102 -29q-38 -28 -99 -124z" />
    <glyph glyph-name="uni2101" unicode="&#x2101;" horiz-adv-x="1935" 
d="M761 547l-65 177h-297l-65 -177h-223l322 827h230l232 -595zM468 914h159l-80 219zM1183 241l209 53q1 -7 5 -21q13 -60 36.5 -86.5t66.5 -26.5q40 0 68 25t28 61q0 18 -9 28q-17 21 -89 47l-73 27q-202 73 -202 236q0 110 83 184q86 74 212 74q176 0 282 -169l4 -6l4 -6
l-177 -106q-2 3 -4.5 6.5t-4 6t-2.5 3.5q-30 46 -52.5 62.5t-56.5 16.5q-32 0 -54 -19.5t-22 -47.5q0 -33 75 -60l77 -27q223 -81 223 -248q0 -120 -93 -202q-88 -79 -220 -79q-253 0 -314 274zM582 59l776 1340l163 -94l-775 -1340z" />
    <glyph glyph-name="afii61248" unicode="&#x2105;" horiz-adv-x="2152" 
d="M595 59l775 1340l164 -94l-776 -1340zM1587 833q205 0 343 -150q111 -121 111 -279q0 -184 -144 -312q-132 -117 -308 -117t-306 112q-150 127 -150 322q0 177 144 307q131 117 310 117zM1585 644q-107 0 -181 -80q-61 -67 -61 -164q0 -105 83 -176q70 -60 161 -60
q108 0 184 82q60 66 60 157q0 106 -79 178q-69 63 -167 63zM921 1222l-151 -134q-57 63 -103 89q-45 24 -104 24q-111 0 -181 -79q-61 -68 -61 -162q0 -106 78 -176q71 -63 166 -63q100 0 189 92q9 10 21 22l149 -134l-22 -22q-148 -147 -336 -147q-208 0 -345 149
q-110 122 -110 280q0 184 143 312q130 117 313 117q151 0 278 -100q38 -30 76 -68z" />
    <glyph glyph-name="uni2117" unicode="&#x2117;" horiz-adv-x="1706" 
d="M596 222v921h254q128 0 202 -42q66 -38 104 -103q42 -72 42 -160q0 -123 -77 -209q-48 -53 -111.5 -75.5t-168.5 -22.5h-14v-309h-231zM826 929v-185h35q61 0 86.5 21t25.5 72q0 50 -25.5 71t-86.5 21h-35zM863 1466q204 0 381 -105q183 -108 287 -287q105 -178 105 -390
t-105 -393q-104 -180 -287 -286q-182 -105 -391 -105t-391 105q-181 103 -287 286q-105 181 -105 389t105 394q135 237 398 340q132 52 290 52zM847 1274q-153 0 -289 -79q-138 -80 -217 -216t-79 -296t79 -296q80 -137 217 -216q136 -79 295 -79t295 79q137 79 217 216
q79 137 79 299q0 258 -196 436q-167 152 -401 152z" />
    <glyph glyph-name="trademark" unicode="&#x2122;" horiz-adv-x="1377" 
d="M104 1378h456v-131h-155v-508h-146v508h-155v131zM757 739h-146v639h134l197 -334l196 334h134v-639h-146v357l-134 -230h-101l-134 227v-354z" />
    <glyph glyph-name="Omega" unicode="&#x2126;" horiz-adv-x="1624" 
d="M870 0v355q140 40 205 87q154 112 154 294q0 164 -127 275q-121 106 -290 106q-195 0 -319 -136q-97 -104 -97 -245q0 -128 82 -226q49 -57 106 -90q52 -29 171 -65v-355h-632v281h171q-99 105 -137 180q-66 129 -66 271q0 168 85 314q91 157 256 251q176 102 381 102
t381 -102q165 -94 255 -251q85 -146 85 -313q0 -131 -46 -233q-46 -101 -157 -219h171v-281h-632z" />
    <glyph glyph-name="estimated" unicode="&#x212e;" horiz-adv-x="1527" 
d="M1416 588h-951v-164q38 -96 80 -132q75 -66 224 -66q174 0 266 93q53 53 104 166h268q-38 -124 -63 -182q-23 -54 -62 -105q-70 -97 -175 -153q-145 -79 -332 -79q-363 0 -542 258q-122 176 -122 450q0 304 147 488q188 237 517 237q224 0 393 -119q194 -138 231 -399
q14 -105 17 -293zM465 824h614v131q-37 88 -116.5 136.5t-187.5 48.5q-119 0 -184 -39q-65 -41 -126 -150v-127z" />
    <glyph glyph-name="onethird" unicode="&#x2153;" horiz-adv-x="1707" 
d="M343 61l775 1341l164 -94l-776 -1341zM1190 333v176h86q86 0 86 67q0 69 -77 69q-37 0 -60 -15q-25 -18 -64 -69l-170 89q41 64 78 100q82 79 213 79q142 0 222 -89q62 -70 62 -160q0 -82 -62 -150q44 -46 61.5 -85t17.5 -93q0 -118 -87 -195q-89 -77 -217 -77
q-74 0 -138.5 28t-100.5 76q-43 55 -67 156l196 49q23 -77 44 -100q21 -25 67 -25q44 0 70.5 24.5t26.5 64.5q0 80 -101 80h-86zM465 1364v-808h-206v564l-78 -42l-100 162l230 124h154z" />
    <glyph glyph-name="twothirds" unicode="&#x2154;" horiz-adv-x="1707" 
d="M392 59l776 1340l163 -94l-775 -1340zM670 555h-584v150l291 305q71 76 71 130q0 61 -76 61q-47 0 -66 -22q-20 -23 -41 -98l-193 50q23 98 64 152q35 47 98.5 74t137.5 27q144 0 220 -85q61 -67 61 -164q0 -119 -94 -216l-169 -178h280v-186zM1186 333v176h86
q86 0 86 67q0 69 -77 69q-37 0 -60 -15q-25 -18 -64 -69l-170 89q41 64 78 100q82 79 213 79q142 0 222 -89q62 -70 62 -160q0 -82 -62 -150q45 -47 62 -85.5t17 -91.5q0 -119 -87 -196q-88 -77 -217 -77q-73 0 -138 28.5t-101 75.5q-43 56 -68 156l197 49q23 -77 44 -100
q21 -25 67 -25q44 0 70.5 24.5t26.5 64.5q0 80 -101 80h-86z" />
    <glyph glyph-name="onefifth" unicode="&#x2155;" horiz-adv-x="1707" 
d="M305 59l775 1340l164 -94l-776 -1340zM1248 623l-13 -56q10 1 21 1q82 0 160 -45q67 -38 105.5 -103t38.5 -141q0 -128 -99 -217q-91 -82 -226 -82q-145 0 -249 108q-33 37 -61 79l168 111q38 -67 69 -91q30 -24 76 -24q50 0 83 32t33 80q0 49 -32.5 80.5t-82.5 31.5
q-49 0 -91 -45q-1 -2 -5 -6l-159 32l95 441h443v-186h-274zM469 1364v-808h-206v564l-78 -42l-100 162l230 124h154z" />
    <glyph glyph-name="twofifth" unicode="&#x2156;" horiz-adv-x="1707" 
d="M404 59l776 1340l163 -94l-775 -1340zM674 555h-584v150l291 305q71 76 71 130q0 61 -76 61q-47 0 -66 -22q-20 -23 -41 -98l-193 50q23 98 64 152q35 47 98.5 74t137.5 27q144 0 220 -85q61 -67 61 -164q0 -119 -94 -216l-169 -178h280v-186zM1244 623l-13 -56
q10 1 21 1q80 0 160 -45q67 -38 105 -103t38 -141q0 -128 -99 -217q-91 -82 -225 -82q-147 0 -249 108q-29 31 -61 79l168 111q37 -66 68 -91q30 -24 77 -24q49 0 82 32t33 80q0 49 -32.5 80.5t-81.5 31.5q-51 0 -91 -45q-1 -2 -5 -6l-159 32l95 441h443v-186h-274z" />
    <glyph glyph-name="threefifth" unicode="&#x2157;" horiz-adv-x="1707" 
d="M362 59l776 1340l163 -94l-776 -1340zM1243 623l-13 -56q10 1 21 1q82 0 160 -45q67 -38 105.5 -103t38.5 -141q0 -128 -99 -217q-91 -82 -226 -82q-146 0 -249 108q-33 37 -61 79l168 111q38 -67 69 -91q30 -24 76 -24q50 0 83 32t33 80q0 49 -32.5 80.5t-82.5 31.5
q-49 0 -91 -45q-1 -2 -5 -6l-159 32l95 441h443v-186h-274zM291 889v176h86q86 0 86 67q0 69 -77 69q-37 0 -59 -14q-23 -16 -65 -70l-170 89q39 62 78 99q82 79 213 79q142 0 222 -89q62 -68 62 -159q0 -83 -62 -150q44 -46 61.5 -85t17.5 -93q0 -118 -87 -195
q-89 -77 -217 -77q-246 0 -306 260l196 49q23 -77 44 -100q22 -25 67 -25q44 0 70.5 24t26.5 65q0 80 -101 80h-86z" />
    <glyph glyph-name="fourfifth" unicode="&#x2158;" horiz-adv-x="1707" 
d="M438 1398l171 -100l-269 -404h89v131h205v-131h76v-184h-76v-154h-205v154h-347v154zM390 59l776 1340l163 -94l-776 -1340zM1242 623l-13 -56q10 1 21 1q82 0 160 -45q67 -38 105.5 -103t38.5 -141q0 -128 -99 -217q-91 -82 -226 -82q-145 0 -249 108q-33 37 -61 79
l168 111q37 -67 69 -91q30 -24 76 -24q50 0 83 32t33 80q0 49 -32.5 80.5t-82.5 31.5q-49 0 -91 -45q-1 -2 -5 -6l-159 32l95 441h443v-186h-274z" />
    <glyph glyph-name="onesixth" unicode="&#x2159;" horiz-adv-x="1707" 
d="M335 59l776 1340l163 -94l-776 -1340zM999 466l286 377l162 -114l-138 -180q84 -15 142 -61q106 -81 106 -212q0 -128 -99 -217q-88 -79 -213 -79q-145 0 -239 102q-76 82 -76 193q0 101 69 191zM1244 374q-47 0 -78 -29.5t-31 -73.5q0 -47 31 -77.5t78 -30.5
q46 0 77 31.5t31 78.5q0 44 -30.5 72.5t-77.5 28.5zM472 1364v-808h-206v564l-78 -42l-100 162l230 124h154z" />
    <glyph glyph-name="fivesixth" unicode="&#x215a;" horiz-adv-x="1707" 
d="M415 59l775 1340l164 -94l-776 -1340zM997 466l286 377l163 -114l-138 -180q85 -15 142 -61q106 -81 106 -212q0 -128 -99 -217q-88 -79 -213 -79q-146 0 -240 102q-75 82 -75 193q0 102 68 191zM1243 374q-47 0 -78 -29t-31 -74q0 -47 31 -77.5t78 -30.5q46 0 77 31.5
t31 78.5q0 44 -30.5 72.5t-77.5 28.5zM396 1179l-13 -56q11 1 22 1q79 0 159 -45q67 -38 105.5 -103t38.5 -141q0 -129 -99 -217q-91 -82 -226 -82q-147 0 -249 107q-30 33 -61 79l168 112q38 -67 69 -91q30 -24 76 -24q50 0 83 32t33 80t-32.5 80t-82.5 32q-49 0 -91 -45
q-1 -2 -5 -6l-159 32l95 440h443v-185h-274z" />
    <glyph glyph-name="oneeighth" unicode="&#x215b;" horiz-adv-x="1707" 
d="M304 59l775 1340l164 -94l-776 -1340zM468 1364v-808h-206v564l-78 -42l-100 162l230 124h154zM1059 432q-65 67 -65 149q0 104 82 177q79 71 199 71q137 0 217 -90q63 -70 63 -158q0 -82 -65 -149q52 -51 71 -88q19 -39 19 -95q0 -115 -87 -192q-89 -77 -218 -77
q-151 0 -239 97q-67 71 -67 172q0 55 19.5 95t70.5 88zM1274 338q-46 0 -73.5 -24t-27.5 -65q0 -39 28 -63.5t73 -24.5q46 0 74 24.5t28 64.5t-27.5 64t-74.5 24zM1274 653q-37 0 -60 -21t-23 -55q0 -31 23.5 -51t60.5 -20t60 20t23 52q0 34 -23.5 54.5t-60.5 20.5z" />
    <glyph glyph-name="threeeighths" unicode="&#x215c;" horiz-adv-x="1707" 
d="M352 59l776 1340l163 -94l-776 -1340zM1035 432q-65 67 -65 149q0 104 82 177q79 71 199 71q137 0 217 -90q63 -70 63 -158q0 -84 -65 -149q50 -48 69.5 -88t19.5 -95q0 -115 -87 -192q-89 -77 -218 -77q-150 0 -238 97q-67 71 -67 172q0 55 19.5 95t70.5 88zM1248 338
q-45 0 -72 -24t-27 -64t28 -64.5t73 -24.5q46 0 73.5 24.5t27.5 64.5q0 41 -27.5 64.5t-75.5 23.5zM1250 653q-37 0 -60 -21t-23 -55q0 -31 23.5 -51t59.5 -20q38 0 61 20t23 52q0 34 -23 54.5t-61 20.5zM290 889v176h86q86 0 86 67q0 69 -77 69q-37 0 -59 -14
q-23 -16 -65 -70l-170 89q39 62 78 99q82 79 213 79q142 0 222 -89q62 -68 62 -159q0 -83 -62 -150q44 -46 61.5 -85t17.5 -93q0 -118 -87 -195q-89 -77 -217 -77q-246 0 -306 260l196 49q23 -77 44 -100q22 -25 67 -25q44 0 70.5 24t26.5 65q0 80 -101 80h-86z" />
    <glyph glyph-name="fiveeighths" unicode="&#x215d;" horiz-adv-x="1707" 
d="M362 59l775 1340l164 -94l-776 -1340zM391 1179l-13 -56q11 1 22 1q80 0 159 -45q67 -38 105.5 -103t38.5 -141q0 -129 -99 -217q-91 -82 -226 -82q-147 0 -249 107q-30 33 -61 79l168 112q38 -67 69 -91q30 -24 76 -24q50 0 83 32t33 80t-32.5 80t-82.5 32
q-49 0 -91 -45q-1 -2 -5 -6l-159 32l95 440h443v-185h-274zM1039 432q-65 67 -65 149q0 104 82 177q79 71 199 71q137 0 217 -90q63 -70 63 -158q0 -84 -65 -149q50 -48 70 -88t20 -95q0 -115 -87 -192q-89 -77 -218 -77q-150 0 -238 97q-67 71 -67 172q0 55 19.5 95
t69.5 88zM1253 338q-45 0 -72 -24t-27 -64t28 -64.5t73 -24.5q46 0 73.5 24.5t27.5 64.5t-28 64t-75 24zM1254 653q-37 0 -60 -21t-23 -55q0 -31 23.5 -51t59.5 -20q38 0 61 20t23 52q0 34 -23 54.5t-61 20.5z" />
    <glyph glyph-name="seveneighths" unicode="&#x215e;" horiz-adv-x="1707" 
d="M280 59l775 1340l163 -94l-775 -1340zM1029 432q-64 65 -64 149q0 104 82 177q79 71 199 71q138 0 217 -90q63 -70 63 -158q0 -82 -65 -149q50 -48 69.5 -88t19.5 -95q0 -115 -87 -192q-89 -77 -218 -77q-150 0 -238 97q-67 71 -67 172q0 55 19.5 95t69.5 88zM1245 338
q-46 0 -73.5 -24t-27.5 -65q0 -39 28 -63.5t73 -24.5q46 0 73.5 24.5t27.5 64.5t-27.5 64t-73.5 24zM1245 653q-37 0 -60 -21t-23 -54q0 -32 23.5 -52t59.5 -20q38 0 61 20t23 52q0 34 -23.5 54.5t-60.5 20.5zM323 522l-180 89l325 568h-339v185h595v-135z" />
    <glyph glyph-name="partialdiff" unicode="&#x2202;" horiz-adv-x="1194" 
d="M208 1102l40 263q265 -33 404 -103q213 -107 325.5 -304t112.5 -462q0 -266 -162 -408q-140 -122 -330 -122q-226 0 -371 162q-123 138 -123 327q0 209 150 351q65 62 144 97.5t151 35.5q19 0 37 -6l-9 9q-79 70 -150 102q-70 31 -219 58zM596 680q-57 0 -103 -28
q-96 -58 -96 -198q0 -117 68 -177q55 -49 133 -49q87 0 146 62q54 58 54 166q0 116 -68 175q-55 49 -134 49z" />
    <glyph glyph-name="emptyset" unicode="&#x2205;" horiz-adv-x="1337" 
d="M529 133l-119 -234l-221 113l120 236q-95 90 -136 162q-69 123 -69 268q0 258 186 424q160 145 382 145q53 0 135 -17l119 234l221 -113l-120 -236q96 -87 139 -167q67 -124 67 -264q0 -152 -76 -283q-74 -129 -203 -205q-135 -78 -299 -78q-55 0 -126 15zM909 884
l-259 -512q22 -3 30 -3q59 0 118.5 28t104.5 77q80 88 80 208q0 107 -74 202zM429 484l258 510q-6 0 -13 0.5t-11 1t-6 0.5q-74 0 -145 -43q-74 -44 -116 -117q-42 -72 -42 -153q0 -103 75 -199z" />
    <glyph glyph-name="increment" unicode="&#x2206;" horiz-adv-x="1425" 
d="M878 1365l518 -1365h-1367l518 1365h331zM711 1020l-263 -738h527z" />
    <glyph glyph-name="product" unicode="&#x220f;" horiz-adv-x="1352" 
d="M494 1084v-1084h-303v1084h-155v281h1280v-281h-155v-1084h-303v1084h-364z" />
    <glyph glyph-name="summation" unicode="&#x2211;" horiz-adv-x="1378" 
d="M192 224l345 482l-308 435v224h947v-281l-556 1l272 -379l-300 -424h621v-282h-1021v224z" />
    <glyph glyph-name="minus" unicode="&#x2212;" horiz-adv-x="1139" 
d="M91 771h956v-265h-956v265z" />
    <glyph glyph-name="fraction" unicode="&#x2215;" horiz-adv-x="369" 
d="M-285 59l776 1340l163 -94l-776 -1340z" />
    <glyph glyph-name="uni2218" unicode="&#x2218;" horiz-adv-x="1055" 
d="M533 1038q152 0 258 -118q91 -100 91 -237q0 -157 -117 -264q-101 -91 -238 -91q-157 0 -264 117q-91 100 -91 241q0 153 118 261q100 91 243 91zM524 872q-81 0 -138 -62q-48 -54 -48 -127q0 -84 62 -141q54 -48 127 -48q85 0 141 62q48 54 48 128q0 81 -62 140
q-53 48 -130 48z" />
    <glyph glyph-name="radical" unicode="&#x221a;" horiz-adv-x="1294" 
d="M409 0l-209 617h-164v279h387l154 -461l422 1261h668v-281h-443l-480 -1415h-335z" />
    <glyph glyph-name="infinity" unicode="&#x221e;" horiz-adv-x="1499" 
d="M752 477q-70 -74 -126 -110q-97 -59 -211 -59q-175 0 -283 120q-96 105 -96 266q0 177 121 283q109 97 259 97q94 0 171.5 -39t158.5 -128q149 167 340 167q174 0 282 -121q95 -107 95 -264q0 -181 -121 -287q-107 -95 -256 -95q-187 0 -334 170zM909 691q48 -66 83 -91
t79 -25q51 0 84 33t33 83q0 54 -37 84q-35 31 -82 31q-79 0 -160 -115zM591 691q-49 65 -84 91q-35 24 -80 24q-50 0 -83 -33t-33 -83t34 -82.5t86 -32.5q76 0 160 116z" />
    <glyph glyph-name="integral" unicode="&#x222b;" horiz-adv-x="651" 
d="M36 -365v259q51 -19 89 -19q55 0 55 71v1244q0 181 91 260q74 65 189 65q66 0 155 -20v-259q-54 20 -88 20q-56 0 -56 -71v-1245q0 -180 -91 -259q-74 -65 -189 -65q-70 0 -155 19z" />
    <glyph glyph-name="similar" unicode="&#x223c;" horiz-adv-x="1250" 
d="M247 402l-202 131q77 170 151 246q38 38 97 61.5t119 23.5q103 0 258 -76q121 -59 170 -59q31 0 49 12q37 25 76 93q8 14 35 59l206 -121q-80 -162 -132 -215q-50 -52 -115.5 -82t-126.5 -30q-58 0 -129 23t-197 82q-64 30 -107 30q-37 0 -62 -31q-27 -31 -90 -147z" />
    <glyph glyph-name="uni2243" unicode="&#x2243;" horiz-adv-x="1250" 
d="M246 599l-202 132q79 171 151 245q38 39 97 62t119 23q102 0 259 -77q117 -58 169 -58q31 0 49 12q26 18 38 35q21 30 73 117l206 -121q-79 -162 -132 -216q-50 -51 -115.5 -81t-126.5 -30q-57 0 -129 23t-197 81q-63 31 -108 31q-35 0 -62 -31q-28 -33 -89 -147zM62 553
h1122v-263h-1122v263z" />
    <glyph glyph-name="approxequal" unicode="&#x2248;" horiz-adv-x="1250" 
d="M247 634l-202 131q78 172 151 246q38 39 97 62t119 23q102 0 259 -77q117 -58 169 -58q31 0 49 12q26 18 38 35q21 30 73 117l206 -121q-80 -164 -132 -216q-51 -51 -116 -81t-126 -30q-62 0 -129 22q-77 25 -197 83q-64 30 -108 30q-35 0 -62 -31q-28 -33 -89 -147z
M247 186l-202 132q78 173 151 246q38 38 97 61.5t119 23.5q100 0 259 -77q117 -58 169 -58q31 0 49 12q25 16 39 36q18 26 72 116l206 -122q-81 -164 -131 -215t-116 -81t-127 -30q-57 0 -129 23q-75 24 -197 82q-64 30 -108 30q-35 0 -62 -33q-25 -29 -89 -146z" />
    <glyph glyph-name="notequal" unicode="&#x2260;" horiz-adv-x="1211" 
d="M1167 689h-396l-50 -99h446v-265h-578l-122 -246l-232 96l74 150h-264v265h396l50 99h-446v265h578l122 246l232 -96l-74 -150h264v-265z" />
    <glyph glyph-name="lessequal" unicode="&#x2264;" horiz-adv-x="1211" 
d="M93 264h935l-935 420v221l1024 466v-298l-623 -276l623 -276v-521h-1024v264z" />
    <glyph glyph-name="greaterequal" unicode="&#x2265;" horiz-adv-x="1211" 
d="M1117 684l-935 -420h935v-264h-1024v521l623 276l-623 276v298l1024 -466v-221z" />
    <glyph glyph-name="dotmath" unicode="&#x22c5;" horiz-adv-x="544" 
d="M272 852q78 0 131 -57q43 -47 43 -111q0 -74 -56 -124q-50 -45 -119 -45q-77 0 -129 57q-43 47 -43 114q0 71 56 121q49 45 117 45z" />
    <glyph glyph-name="lozenge" unicode="&#x25ca;" horiz-adv-x="1398" 
d="M1291 683l-593 -764l-591 764l591 764zM699 370l248 313l-248 312l-247 -312z" />
    <glyph glyph-name="openbullet" unicode="&#x25e6;" horiz-adv-x="1055" 
d="M533 1038q152 0 258 -118q91 -100 91 -237q0 -157 -117 -264q-101 -91 -238 -91q-157 0 -264 117q-91 100 -91 241q0 153 118 261q100 91 243 91zM524 872q-81 0 -138 -62q-48 -54 -48 -127q0 -84 62 -141q54 -48 127 -48q85 0 141 62q48 54 48 128q0 81 -62 140
q-53 48 -130 48z" />
    <glyph glyph-name="glyph155" horiz-adv-x="447" 
 />
    <glyph glyph-name="glyph172" horiz-adv-x="1199" 
 />
    <glyph glyph-name="glyph210" horiz-adv-x="447" 
 />
    <glyph glyph-name="seven.denominator" 
d="M314 -34l-180 90l325 567h-339v186h595v-135z" />
    <glyph glyph-name="eight.denominator" 
d="M180 432q-64 64 -64 149q0 104 82 177q79 71 199 71q137 0 217 -90q63 -71 63 -158q0 -82 -65 -149q50 -48 69.5 -88t19.5 -95q0 -115 -87 -192q-89 -77 -218 -77q-150 0 -238 97q-67 71 -67 172q0 55 19.5 95t69.5 88zM394 338q-45 0 -72 -24t-27 -64t28 -64.5t73 -24.5
q46 0 73.5 24.5t27.5 64.5q0 41 -27.5 64.5t-75.5 23.5zM396 653q-37 0 -60 -20.5t-23 -54.5q0 -32 23.5 -52t59.5 -20q38 0 61 20t23 52q0 34 -23 54.5t-61 20.5z" />
    <glyph glyph-name="nine.denominator" 
d="M644 343l-286 -377l-163 114l138 181q-83 15 -142 60q-106 81 -106 212q0 129 99 217q88 79 213 79q145 0 240 -102q75 -82 75 -193q0 -100 -68 -191zM398 646q-46 0 -77 -31.5t-31 -79.5q0 -43 30.5 -71.5t77.5 -28.5t78 29t31 74q0 47 -31 77.5t-78 30.5z" />
    <glyph glyph-name="four.fitted" horiz-adv-x="1143" 
d="M61 507l581 909l249 -152l-459 -719h208v229h301v-229h126v-277h-126v-268h-301v268h-579v239z" />
    <glyph glyph-name="three.fitted" horiz-adv-x="1143" 
d="M546 580h-122v264h122q164 0 164 138q0 66 -41 103.5t-113 37.5q-62 0 -101 -27q-39 -26 -106 -113l-248 135q65 108 129 164q130 117 324 117q138 0 253 -63q93 -52 149 -148q53 -92 53 -199q0 -150 -112 -261q141 -128 141 -311q0 -201 -144 -328q-140 -123 -343 -123
q-161 0 -286 84q-78 53 -122 127q-46 76 -77 204l288 76q32 -113 69 -161q41 -53 130 -53q90 0 139 55q43 47 43 121q0 82 -46.5 121.5t-142.5 39.5z" />
    <glyph glyph-name="zero.denominator" 
d="M396 829q169 0 255.5 -107.5t86.5 -317.5q0 -174 -62 -280q-84 -144 -279 -144q-343 0 -343 430q0 172 62 276q86 143 280 143zM395 645q-53 0 -84 -34q-22 -25 -35.5 -83t-13.5 -128q0 -69 16 -127q16 -61 40 -82q30 -27 78 -27q55 0 86 34q21 24 34 82q14 62 14 123
q0 242 -135 242z" />
    <glyph glyph-name="two.fitted" horiz-adv-x="1143" 
d="M1065 0h-931v231l478 525q125 137 125 239q0 59 -39.5 93t-107.5 34q-84 0 -121 -40q-38 -39 -73 -163l-282 77q35 154 104 242q56 71 142 111q109 50 230 50q136 0 249 -60q92 -49 145 -144q53 -94 53 -208q0 -196 -151 -362l-315 -345h494v-280z" />
    <glyph glyph-name="one.fitted" horiz-adv-x="1143" 
d="M478 277v720l-144 -81l-145 246l361 203h231v-1088h216v-277h-758v277h239z" />
    <glyph glyph-name="Dieresis" horiz-adv-x="975" 
d="M681 1793q73 0 121 -53q40 -43 40 -103q0 -65 -47 -110q-46 -46 -115 -46q-67 0 -113 46q-47 47 -47 113q0 62 48 108q46 45 113 45zM295 1793q73 0 121 -53q40 -43 40 -103q0 -69 -52 -115q-47 -41 -109 -41q-68 0 -114 46q-47 47 -47 112q0 63 48 109q46 45 113 45z
" />
    <glyph glyph-name="Dotaccent" horiz-adv-x="975" 
d="M487 1805q79 0 131 -57q43 -46 43 -111q0 -74 -56 -124q-50 -44 -117 -44q-73 0 -123 50q-51 49 -51 121q0 70 56 120q50 45 117 45z" />
    <glyph glyph-name="Ring" horiz-adv-x="975" 
d="M487 1881q112 0 187 -82q62 -68 62 -161q0 -108 -81 -181q-71 -63 -167 -63q-102 0 -175 71q-73 72 -73 176q0 102 82 177q69 63 165 63zM487 1743q-44 0 -74.5 -31t-30.5 -76q0 -41 32 -73q31 -31 74 -31q44 0 75 31t31 74q0 45 -31 75.5t-76 30.5z" />
    <glyph glyph-name="Acute" horiz-adv-x="975" 
d="M579 1882l268 -134l-351 -328l-197 104z" />
    <glyph glyph-name="Grave" horiz-adv-x="975" 
d="M480 1420l-352 328l269 134l279 -358z" />
    <glyph glyph-name="five.fitted" horiz-adv-x="1143" 
d="M536 1085l-29 -141q20 2 35 2q240 0 388 -163q123 -133 123 -319q0 -217 -164 -366q-145 -132 -357 -132q-157 0 -270 70q-116 70 -219 228l246 169q59 -107 113 -149t131 -42q103 0 164 70q54 60 54 146q0 100 -70 163q-59 53 -142 53q-94 0 -158 -76l-10 -10l-234 48
l151 729h702v-280h-454z" />
    <glyph glyph-name="Caron" horiz-adv-x="975" 
d="M89 1746l221 102l177 -159l177 159l221 -102l-311 -318h-173z" />
    <glyph glyph-name="Breve" horiz-adv-x="975" 
d="M149 1799l251 19q4 -101 20 -123q21 -28 62 -28q45 0 65 35q14 24 27 115l251 -19q-11 -94 -17 -123q-4 -23 -23 -59q-42 -81 -115 -130q-82 -53 -188 -53q-154 0 -252 105q-71 77 -78 169q-1 21 -3 92z" />
    <glyph glyph-name="Tilde" horiz-adv-x="975" 
d="M592 1805l242 -52q-9 -118 -43 -172q-25 -43 -75.5 -68.5t-108.5 -25.5q-79 0 -166 41q-24 12 -38 12q-10 0 -14.5 -12t-12.5 -58l-236 52q10 111 49 173q27 41 75 67t99 26q82 0 174 -47q22 -11 33 -11t15 13t7 62z" />
    <glyph glyph-name="Hungarumlaut" horiz-adv-x="975" 
d="M439 1878l225 -118l84 118l236 -127l-351 -327l-147 85l133 187l-292 -273l-166 99z" />
    <glyph glyph-name="Cedilla" horiz-adv-x="975" 
d="M489 -32l262 -105l-290 -343l-211 98z" />
    <glyph glyph-name="Ogonek" horiz-adv-x="975" 
d="M648 0h291q-58 -74 -58 -109q0 -14 16 -14q27 0 74 24l87 -205q-144 -50 -212 -50q-131 0 -202 77q-51 57 -51 132q0 66 55 145z" />
    <glyph glyph-name="Macron" horiz-adv-x="975" 
d="M143 1517v240h688v-240h-688z" />
    <glyph glyph-name="Commaaccent" horiz-adv-x="975" 
d="M251 -447l132 414l272 -77l-186 -401z" />
    <glyph glyph-name="Comma.high" horiz-adv-x="975" 
d="M498 1464l132 415l272 -77l-186 -401z" />
    <glyph glyph-name="Dieresis.alt" horiz-adv-x="975" 
d="M303 1793q73 0 121 -53q40 -43 40 -103q0 -69 -52 -115q-47 -41 -109 -41q-68 0 -114 46q-47 47 -47 112q0 63 48 109q47 45 113 45zM658 1793q73 0 121 -53q40 -43 40 -103q0 -69 -52 -115q-47 -41 -110 -41q-67 0 -113 46q-47 47 -47 113q0 62 48 108q47 45 113 45z
" />
    <glyph glyph-name="commaaccent" horiz-adv-x="975" 
d="M251 -447l132 414l272 -77l-186 -401z" />
    <glyph glyph-name="comma.high" horiz-adv-x="975" 
d="M498 1037l132 414l272 -76l-186 -401z" />
    <glyph glyph-name="dieresis.alt" horiz-adv-x="975" 
d="M658 1376q71 0 121 -53q40 -43 40 -103q0 -69 -52 -115q-47 -41 -109 -41q-68 0 -114 46q-47 47 -47 112q0 67 52 113q47 41 109 41zM303 1376q71 0 121 -53q40 -43 40 -103q0 -69 -52 -115q-47 -41 -109 -41q-68 0 -114 46q-47 47 -47 113q0 61 48 108q47 45 113 45z
" />
    <glyph glyph-name="commareversed" horiz-adv-x="975" 
d="M902 1386l-132 -414l-272 77l186 401z" />
    <glyph glyph-name="G.salt" horiz-adv-x="1501" 
d="M1350 1146l-216 -201q-73 73 -127 108q-100 64 -220 64q-196 0 -317 -139q-111 -124 -111 -296q0 -198 142 -325q121 -109 282 -109q171 0 308 133v120h-337v277h636v-502q-4 -4 -5 -6q-88 -116 -195 -185q-188 -119 -407 -119q-198 0 -368 98q-169 98 -267 267
q-94 163 -94 351q0 191 97 358q98 166 261 260q172 99 378 99q159 0 287 -58q129 -59 273 -195z" />
    <glyph glyph-name="M.salt" horiz-adv-x="1704" 
d="M410 0h-306l140 1365h266l342 -693l342 693h265l140 -1365h-305l-78 778l-251 -507h-226l-251 506z" />
    <glyph glyph-name="y.salt" horiz-adv-x="973" 
d="M210 -184l103 233l-344 859h308l196 -503l224 503h307l-538 -1204q-98 -216 -257 -216q-61 0 -171 36l44 275q10 -5 15 -6q47 -22 71 -22q22 0 42 45z" />
    <glyph glyph-name="parenleft.salt" horiz-adv-x="695" 
d="M335 1663l262 -124q-53 -138 -81 -235q-81 -280 -81 -621q0 -370 97 -676q21 -64 65 -180l-262 -124q-55 120 -61 137q-61 151 -98 384q-38 239 -38 459q0 350 82 674q23 91 37 127q14 40 78 179z" />
    <glyph glyph-name="parenright.salt" horiz-adv-x="695" 
d="M97 1538l261 124q57 -125 62 -138q45 -107 80 -283q56 -291 56 -559q0 -352 -82 -674q-21 -83 -37 -128q-21 -53 -79 -178l-261 124q53 138 81 235q81 281 81 621q0 370 -97 676q-21 64 -65 180z" />
    <glyph glyph-name="bracketleft.salt" horiz-adv-x="658" 
d="M601 1623v-275h-173v-1331h173v-275h-470v1881h470z" />
    <glyph glyph-name="bracketright.salt" horiz-adv-x="658" 
d="M229 1348h-173v275h470v-1881h-470v275h173v1331z" />
    <glyph glyph-name="afii61248.salt" horiz-adv-x="1525" 
d="M1111 554q137 0 228 -100q75 -82 75 -193q0 -128 -97 -215q-87 -78 -211 -78q-143 0 -234 100q-75 82 -75 195q0 126 97 213q87 78 217 78zM1104 379q-48 0 -77.5 -32.5t-29.5 -85.5t30 -85.5t78 -32.5q49 0 79 32.5t30 86.5q0 53 -30 85t-80 32zM668 1214l-125 -131
q-39 39 -64 53t-57 14q-51 0 -81 -32t-30 -86t30 -86t81 -32q61 0 124 71l125 -132q-113 -114 -249 -114q-146 0 -236 100q-75 83 -75 193q0 130 96 215q89 78 214 78q131 0 247 -111zM282 59l776 1340l163 -94l-775 -1340z" />
    <glyph glyph-name="braceleft.salt" horiz-adv-x="656" 
d="M570 17h55v-273q-103 -3 -129 -3q-154 0 -234 79q-83 80 -83 257v389q0 59 -16 75q-17 17 -91 33v229l49 12q34 9 46 28t12 65v379q0 177 83 257q80 79 231 79q21 0 132 -3v-273h-66h-39q-29 0 -36.5 -6.5t-7.5 -34.5v-412q0 -71 -14 -118t-49 -94q63 -81 63 -216v-409
q0 -26 7 -33t34 -7h53z" />
    <glyph glyph-name="braceright.salt" horiz-adv-x="656" 
d="M31 -255v273q25 1 61 1q17 0 36 -1h15q23 0 30 7.5t7 32.5v409q3 141 63 216q-28 37 -38 63q-25 57 -25 149v412q0 28 -7.5 34.5t-36.5 6.5h-105v273q14 0 31 0.5t29 1t19 0.5q21 1 53 1q151 0 231 -79q83 -80 83 -257v-380q0 -45 12 -64t46 -28l49 -13v-228
q-74 -16 -91 -33q-16 -16 -16 -75v-389q0 -177 -83 -257q-80 -79 -234 -79q-22 0 -129 3z" />
    </font>
</defs>
</svg>
