<?xml version="1.0" standalone="no"?>
<!DOCTYPE svg PUBLIC "-//W3C//DTD SVG 1.1//EN" "http://www.w3.org/Graphics/SVG/1.1/DTD/svg11.dtd" >
<svg xmlns="http://www.w3.org/2000/svg" xmlns:xlink="http://www.w3.org/1999/xlink" version="1.1">
<metadata>
Created by FontForge 20170731 at Thu Jan 14 12:16:36 2016
 By Aleksey,,,
(URW)++,Copyright 2015 by (URW)++ Design &#38; Development
</metadata>
<defs>
<font id="URWGeometric-Light" horiz-adv-x="792" >
  <font-face 
    font-family="URW Geometric Light"
    font-weight="300"
    font-stretch="normal"
    units-per-em="2048"
    panose-1="0 0 0 0 0 0 0 0 0 0"
    ascent="1504"
    descent="-544"
    x-height="908"
    cap-height="1365"
    bbox="-246 -499 2480 2154"
    underline-thickness="104"
    underline-position="-357"
    unicode-range="U+0020-FB04"
  />
<missing-glyph horiz-adv-x="526" 
d="M473 0h-420v1365h420v-1365zM106 53h314v1259h-314v-1259z" />
    <glyph glyph-name="afii61352" unicode="Nr&#x2e;" horiz-adv-x="2163" 
d="M1748 1387q127 0 211 -94q72 -79 72 -189q0 -128 -92 -211q-82 -73 -195 -73q-131 0 -215 94q-72 79 -72 190q0 106 68 185q86 98 223 98zM1741 1300q-85 0 -140 -60q-48 -52 -48 -136q0 -94 62 -150q53 -47 129 -47q88 0 143 60q48 53 48 139q0 93 -61 147
q-53 47 -133 47zM1996 590h-506v90h506v-90zM1165 0l-873 1178v-1178h-121v1365h122l872 -1178v1178h121v-1365h-121z" />
    <glyph glyph-name="ff" unicode="ff" horiz-adv-x="985" 
d="M72 908h96v167q0 171 73 235q55 47 130 47q35 0 81 -12v-106q-35 9 -58 9q-57 0 -83.5 -42t-26.5 -131v-167h171v-105h-171v-803h-116v803h-96v105zM558 908h95v188q0 171 73 235q55 47 130 47q38 0 81 -13v-105q-34 9 -58 9q-57 0 -83.5 -42t-26.5 -131v-188h172v-105
h-172v-803h-116v803h-95v105z" />
    <glyph glyph-name="fi" unicode="fi" horiz-adv-x="876" 
d="M72 908h96v188q0 171 73 235q55 47 130 47q38 0 81 -13v-105q-35 9 -58 9q-57 0 -83.5 -42t-26.5 -131v-188h171v-105h-171v-803h-116v803h-96v105zM623 908h116v-908h-116v908zM682 1295q35 0 60 -25.5t25 -61.5t-25.5 -61.5t-60.5 -25.5q-36 0 -61.5 26t-25.5 62
t25.5 61t62.5 25z" />
    <glyph glyph-name="fl" unicode="fl" horiz-adv-x="877" 
d="M72 908h96v188q0 171 73 235q55 47 130 47q38 0 81 -13v-105q-35 9 -58 9q-57 0 -83.5 -42t-26.5 -131v-188h171v-105h-171v-803h-116v803h-96v105zM740 1365v-1365h-116v1365h116z" />
    <glyph glyph-name="ffi" unicode="ffi" horiz-adv-x="1358" 
d="M72 908h96v167q0 171 73 235q55 47 130 47q35 0 81 -12v-106q-35 9 -58 9q-57 0 -83.5 -42t-26.5 -131v-167h171v-105h-171v-803h-116v803h-96v105zM558 908h95v188q0 171 73 235q55 47 130 47q38 0 81 -13v-105q-34 9 -58 9q-57 0 -83.5 -42t-26.5 -131v-188h172v-105
h-172v-803h-116v803h-95v105zM1105 908h116v-908h-116v908zM1164 1295q35 0 60 -25.5t25 -61.5t-25.5 -61.5t-61.5 -25.5q-35 0 -60.5 26t-25.5 62t25.5 61t62.5 25z" />
    <glyph glyph-name="ffl" unicode="ffl" horiz-adv-x="1359" 
d="M72 908h96v167q0 171 73 235q55 47 130 47q35 0 81 -12v-106q-35 9 -58 9q-57 0 -83.5 -42t-26.5 -131v-167h171v-105h-171v-803h-116v803h-96v105zM558 908h95v188q0 171 73 235q55 47 130 47q38 0 81 -13v-105q-34 9 -58 9q-57 0 -83.5 -42t-26.5 -131v-188h172v-105
h-172v-803h-116v803h-95v105zM1222 1365v-1365h-116v1365h116z" />
    <glyph glyph-name=".notdef" horiz-adv-x="526" 
d="M473 0h-420v1365h420v-1365zM106 53h314v1259h-314v-1259z" />
    <glyph glyph-name="glyph1" horiz-adv-x="0" 
 />
    <glyph glyph-name="glyph2" horiz-adv-x="526" 
 />
    <glyph glyph-name="space" unicode=" " horiz-adv-x="526" 
 />
    <glyph glyph-name="exclam" unicode="!" horiz-adv-x="551" 
d="M329 315h-107l-14 1050h135zM277 151q34 0 58.5 -24.5t24.5 -59.5t-25 -60t-60 -25q-34 0 -59 25t-25 59q0 36 25 60.5t61 24.5z" />
    <glyph glyph-name="quotedbl" unicode="&#x22;" horiz-adv-x="611" 
d="M218 1365l-19 -498h-84l-19 498h122zM516 1365l-19 -498h-84l-19 498h122z" />
    <glyph glyph-name="numbersign" unicode="#" horiz-adv-x="1200" 
d="M128 498h157l74 368h-157l19 92h157l85 426l97 -23l-81 -403h354l86 426l96 -21l-81 -405h156l-18 -92h-157l-74 -368h157l-19 -92h-157l-85 -425l-96 23l81 402h-355l-85 -425l-96 23l81 402h-158zM460 866l-74 -368h354l74 368h-354z" />
    <glyph glyph-name="dollar" unicode="$" horiz-adv-x="1152" 
d="M528 1383v187h119v-187q173 -25 286 -192l-96 -63q-103 147 -258 147q-127 0 -204 -86q-63 -72 -63 -163q0 -152 213 -235l136 -53q198 -76 266 -185q47 -74 47 -170q0 -143 -92 -255q-92 -111 -235 -140v-200h-119v191q-148 10 -248 95q-98 86 -137 233l117 33
q29 -100 77 -154q85 -94 217 -94q137 0 224 97q74 83 74 193q0 88 -57 148q-60 60 -196 113l-130 51q-168 66 -231 166q-45 74 -45 167q0 142 90 238q89 95 245 118z" />
    <glyph glyph-name="percent" unicode="%" horiz-adv-x="1848" 
d="M1425 823q314 0 314 -418q0 -417 -311 -417q-308 0 -308 423q0 412 305 412zM1428 734q-86 0 -140 -59q-30 -33 -50 -107q-20 -75 -20 -157q0 -334 211 -334q212 0 212 326q0 331 -213 331zM496 22l787 1360l68 -40l-786 -1359zM414 1378q314 0 314 -418q0 -182 -60 -287
q-73 -130 -254 -130q-305 0 -305 423q0 412 305 412zM417 1289q-86 0 -140 -59q-30 -33 -50 -107q-20 -75 -20 -157q0 -334 211 -334q212 0 212 326q0 331 -213 331z" />
    <glyph glyph-name="ampersand" unicode="&#x26;" horiz-adv-x="1292" 
d="M445 771l13 9l-17 22q-146 179 -146 309q0 123 90 205q77 71 195 71q132 0 211 -88q68 -77 68 -178q0 -88 -53 -165q-51 -74 -187 -181l-14 -11l369 -444q53 87 105 236l108 -30q-62 -190 -135 -299l189 -227h-142l-116 141q-151 -163 -395 -163q-140 0 -255 64
q-87 49 -137 136q-46 80 -46 173q0 99 50 182q49 81 166 177q4 4 79 61zM531 853l9 -11l11 8q114 88 160 150q44 61 44 127q0 73 -53 120q-50 44 -124 44q-84 0 -135 -57q-44 -50 -44 -116q0 -104 132 -265zM909 231l-386 471l-7 -6q-4 -3 -10 -7q-136 -97 -187 -174
q-53 -80 -53 -156q0 -112 89 -193q88 -79 235 -79q191 0 319 144z" />
    <glyph glyph-name="quotesingle" unicode="'" horiz-adv-x="314" 
d="M218 1365l-19 -498h-84l-19 498h122z" />
    <glyph glyph-name="parenleft" unicode="(" horiz-adv-x="584" 
d="M447 -315l-103 -48q-47 102 -78 221q-89 339 -89 708q0 262 46 511q45 255 121 416l103 -47q-19 -51 -24 -65q-129 -354 -129 -816q0 -256 37 -462q36 -208 116 -418z" />
    <glyph glyph-name="parenright" unicode=")" horiz-adv-x="584" 
d="M240 -363l-103 48q20 52 24 64q129 354 129 816q0 255 -36 463q-38 210 -117 418l103 47q47 -101 78 -220q89 -341 89 -707q0 -260 -45 -512q-47 -257 -122 -417z" />
    <glyph glyph-name="asterisk" unicode="*" horiz-adv-x="933" 
d="M143 1208l34 105l245 -91l-11 260h110l-11 -260l245 91l34 -105l-251 -70l162 -204l-90 -65l-144 217l-144 -217l-90 65l162 204z" />
    <glyph glyph-name="plus" unicode="+" horiz-adv-x="1139" 
d="M110 690h407v410h105v-410h407v-58v-42h-407v-410h-105v410h-407v58v42z" />
    <glyph glyph-name="comma" unicode="," horiz-adv-x="446" 
d="M131 -302l-76 30l162 453l109 -40z" />
    <glyph glyph-name="hyphen" unicode="-" horiz-adv-x="509" 
d="M82 420v104h345v-104h-345z" />
    <glyph glyph-name="period" unicode="." horiz-adv-x="445" 
d="M223 151q35 0 59.5 -25t24.5 -59q0 -35 -24.5 -60t-59.5 -25t-60 25t-25 59q0 36 25 60.5t60 24.5z" />
    <glyph glyph-name="slash" unicode="/" horiz-adv-x="1107" 
d="M119 35l778 1349l90 -54l-778 -1349z" />
    <glyph glyph-name="zero" unicode="0" horiz-adv-x="1168" 
d="M584 1387q276 0 393 -205q102 -181 102 -500q0 -318 -102 -499q-115 -205 -392 -205q-279 0 -394 205q-102 181 -102 509q0 695 495 695zM583 1275q-150 0 -245 -104q-63 -69 -98 -219q-28 -122 -28 -259q0 -603 372 -603t372 593q0 592 -373 592z" />
    <glyph glyph-name="one" unicode="1" horiz-adv-x="596" 
d="M425 1365v-1365h-121v1234l-228 -133l-56 98l286 166h119z" />
    <glyph glyph-name="two" unicode="2" horiz-adv-x="984" 
d="M922 0h-823v115l505 564q167 187 167 341q0 114 -81 188q-73 67 -195 67q-112 0 -180.5 -54.5t-107.5 -175.5l-109 31q28 109 91 179q115 132 313 132q190 0 296 -120q91 -100 91 -249q0 -191 -163 -372l-479 -535h675v-111z" />
    <glyph glyph-name="three" unicode="3" horiz-adv-x="956" 
d="M394 661v109h61q78 0 155 44q50 29 79.5 85t29.5 123q0 118 -80 190q-69 63 -184 63q-83 0 -143 -32.5t-115 -107.5l-99 56q130 196 359 196q185 0 290 -118q89 -101 89 -243q0 -190 -158 -300q190 -118 190 -341q0 -190 -128 -303q-119 -104 -293 -104q-146 0 -253 77
t-149 214l-5 19l117 32q33 -97 77 -147q73 -82 212 -82q147 0 230 92q73 80 73 199q0 131 -86 211q-74 68 -209 68h-60z" />
    <glyph glyph-name="four" unicode="4" horiz-adv-x="1058" 
d="M647 1383l97 -61l-551 -903h495v370h120v-370h172v-110h-172v-309h-120v309h-620v125z" />
    <glyph glyph-name="five" unicode="5" horiz-adv-x="1054" 
d="M883 1253h-481l-81 -401q9 3 19 7q84 32 160 32q206 0 339 -147q113 -125 113 -303q0 -211 -152 -349q-124 -114 -304 -114q-178 0 -309 109q-48 40 -98 118l95 68q102 -183 308 -183q157 0 253 108q87 98 87 237q0 161 -112 261q-96 87 -228 87q-134 0 -225 -89l-95 20
l130 651h581v-112z" />
    <glyph glyph-name="six" unicode="6" horiz-adv-x="1107" 
d="M200 743l451 639l92 -70l-329 -469q70 29 145 29q205 0 336 -144q109 -118 109 -289q0 -206 -152 -346q-124 -115 -299 -115q-204 0 -339 150q-117 130 -117 309q0 161 103 306zM551 765q-152 0 -251 -109q-84 -93 -84 -226q0 -156 111 -257q93 -84 225 -84
q148 0 246 110q87 99 87 239q0 145 -107 243q-93 84 -227 84z" />
    <glyph glyph-name="seven" unicode="7" horiz-adv-x="918" 
d="M113 38l645 1215h-717v112h849v-104l-672 -1278z" />
    <glyph glyph-name="eight" unicode="8" horiz-adv-x="1032" 
d="M297 727q-61 41 -94 88q-69 96 -69 211q0 159 119 267q103 94 263 94q181 0 290 -121q92 -104 92 -240q0 -92 -42 -169.5t-120 -129.5q62 -37 110 -91q97 -110 97 -259q0 -179 -127 -291q-122 -108 -300 -108q-128 0 -235 61q-90 51 -141 139t-51 199q0 110 53.5 200
t154.5 150zM514 662q-122 0 -204 -66q-102 -82 -102 -221q0 -127 92 -211q84 -75 216 -75q150 0 236 96q72 79 72 192q0 126 -91 210q-83 75 -219 75zM513 1279q-125 0 -205 -87q-63 -69 -63 -172q0 -110 82 -183q76 -68 189 -68q132 0 208 87q63 70 63 169q0 113 -81 186
q-76 68 -193 68z" />
    <glyph glyph-name="nine" unicode="9" horiz-adv-x="1112" 
d="M907 621l-450 -638l-92 69l331 471q-69 -24 -142 -24q-212 0 -343 143q-107 118 -107 285q0 125 63 235q61 106 165 166q103 59 224 59q204 0 337 -147q118 -130 118 -311q0 -160 -104 -308zM556 1276q-148 0 -246 -110q-87 -98 -87 -237q0 -133 87 -224q95 -99 247 -99
q155 0 252 109q83 92 83 222q0 155 -111 255q-91 84 -225 84z" />
    <glyph glyph-name="colon" unicode=":" horiz-adv-x="445" 
d="M223 151q35 0 59.5 -25t24.5 -59q0 -35 -24.5 -60t-59.5 -25t-60 25t-25 59q0 36 25 60.5t60 24.5zM224 872q34 0 58.5 -24.5t24.5 -59.5t-24.5 -59.5t-59.5 -24.5t-60 25t-25 60q0 34 25 58.5t61 24.5z" />
    <glyph glyph-name="semicolon" unicode=";" horiz-adv-x="448" 
d="M132 -302l-77 30l162 453l109 -40zM259 844q34 0 58.5 -24.5t24.5 -59.5t-25 -59.5t-60 -24.5q-34 0 -59 25t-25 59q0 35 25 59.5t61 24.5z" />
    <glyph glyph-name="less" unicode="&#x3c;" horiz-adv-x="1125" 
d="M132 748l860 404v-123l-742 -339l742 -340v-122l-860 404v116z" />
    <glyph glyph-name="equal" unicode="=" horiz-adv-x="1139" 
d="M169 556h802v-102h-802v102zM169 825h802v-102h-802v102z" />
    <glyph glyph-name="greater" unicode="&#x3e;" horiz-adv-x="1125" 
d="M992 631l-860 -404v123l742 340l-742 339v122l860 -404v-116z" />
    <glyph glyph-name="question" unicode="?" horiz-adv-x="852" 
d="M464 315h-118v137q0 94 21 139q21 46 93 107l91 79q141 121 141 260q0 109 -75 176q-68 62 -185 62q-90 0 -151 -35q-60 -34 -119 -121l-87 73q120 195 348 195q201 0 302 -111q86 -97 86 -241q0 -87 -30 -150q-42 -89 -134 -172l-106 -97q-51 -47 -64 -74t-13 -107v-120
zM407 151q34 0 58.5 -25t24.5 -59q0 -35 -25 -60t-60 -25q-34 0 -59 25.5t-25 59.5q0 35 25 59.5t61 24.5z" />
    <glyph glyph-name="at" unicode="@" horiz-adv-x="1854" 
d="M1045 1061h231l-90 -707h61q160 0 248 100q45 50 71.5 135.5t26.5 181.5q0 180 -83 332q-70 127 -201 194.5t-308 67.5q-235 0 -418 -102q-142 -80 -227 -228q-95 -167 -95 -371q0 -288 180 -471q191 -192 555 -192q214 0 445 73l33 -89q-224 -75 -489 -75
q-275 0 -483 112q-145 79 -234 238q-102 182 -102 401q0 235 109 423q96 168 256 258q204 114 460 114q223 0 384 -92q144 -82 222 -222q91 -164 91 -365q0 -215 -101 -349q-69 -90 -159 -127q-93 -38 -237 -38h-282q-163 0 -263 108q-85 91 -85 249q0 130 65 242
q118 199 419 199zM926 354h162l79 616h-141q-187 0 -279 -104q-86 -98 -86 -242q0 -136 80 -207q70 -63 185 -63z" />
    <glyph glyph-name="A" unicode="A" horiz-adv-x="1259" 
d="M298 395l-152 -395h-126l535 1365h148l535 -1365h-127l-153 395h-660zM627 1247l-286 -739h573z" />
    <glyph glyph-name="B" unicode="B" horiz-adv-x="1066" 
d="M512 0h-341v1365h272q195 0 294 -57q72 -41 118 -119q48 -83 48 -178q0 -191 -178 -294q87 -31 139 -80q50 -49 79 -119.5t29 -145.5q0 -211 -191 -318q-97 -54 -269 -54zM291 1254v-502h176q135 0 199 37q57 31 91 88q33 59 33 129q0 67 -30 123t-82 85q-70 40 -211 40
h-176zM291 647v-535h209q147 0 222 42q62 35 96.5 94.5t34.5 130.5q0 68 -33.5 128.5t-88.5 92.5q-83 47 -250 47h-190z" />
    <glyph glyph-name="C" unicode="C" horiz-adv-x="1349" 
d="M1267 1180l-83 -83q-71 72 -134 109q-118 67 -262 67q-256 0 -422 -187q-151 -169 -151 -405q0 -269 192 -442q163 -147 382 -147q117 0 211.5 42.5t191.5 137.5l82 -83q-82 -82 -163 -128q-146 -83 -319 -83q-190 0 -351 93t-255 258q-93 165 -93 353q0 187 93 352
q94 166 254 260q160 93 350 93q141 0 252 -49q114 -50 225 -158z" />
    <glyph glyph-name="D" unicode="D" horiz-adv-x="1267" 
d="M171 0v1365h268q249 0 425 -101q146 -84 222 -219q88 -157 88 -361q0 -291 -163 -466q-201 -218 -572 -218h-268zM446 1252h-154v-1139h154q202 0 344 82q122 71 186 184q76 134 76 305q0 238 -137 387q-166 181 -469 181z" />
    <glyph glyph-name="E" unicode="E" horiz-adv-x="967" 
d="M854 1365v-112h-562v-504h499v-113h-499v-523h583v-113h-704v1365h683z" />
    <glyph glyph-name="F" unicode="F" horiz-adv-x="886" 
d="M805 1365v-112h-513v-504h468v-113h-468v-636h-121v1365h634z" />
    <glyph glyph-name="G" unicode="G" horiz-adv-x="1491" 
d="M1271 577h-411v112h535v-60q0 -207 -90 -372q-70 -129 -201 -202q-137 -77 -309 -77q-193 0 -353 93q-162 94 -256 259q-93 164 -93 351q0 193 97 360q94 162 250 253q160 93 350 93q142 0 253 -49q113 -50 224 -158l-82 -83q-69 70 -134 109q-118 67 -263 67
q-257 0 -422 -187q-151 -169 -151 -405q0 -165 79 -302q77 -135 210 -211q131 -76 288 -76q267 0 400 205q73 112 79 280z" />
    <glyph glyph-name="H" unicode="H" horiz-adv-x="1331" 
d="M292 1365v-616h748v616h121v-1365h-121v636h-748v-636h-121v1365h121z" />
    <glyph glyph-name="I" unicode="I" horiz-adv-x="463" 
d="M171 1365h121v-1365h-121v1365z" />
    <glyph glyph-name="J" unicode="J" horiz-adv-x="809" 
d="M518 1365h121v-960q0 -181 -57 -282q-38 -65 -105 -102q-74 -43 -167 -43q-80 0 -146 31q-69 30 -150 103l73 87q118 -107 221 -107q107 0 158.5 76.5t51.5 236.5v960z" />
    <glyph glyph-name="K" unicode="K" horiz-adv-x="1146" 
d="M1105 1365l-509 -561l530 -804h-142l-469 715l-223 -246v-469h-121v1365h121v-739l668 739h145z" />
    <glyph glyph-name="L" unicode="L" horiz-adv-x="865" 
d="M171 0v1365h121v-1252h541v-113h-662z" />
    <glyph glyph-name="M" unicode="M" horiz-adv-x="1665" 
d="M890 319h-114l-484 852v-1171h-121v1365h137l525 -921l525 921h137v-1365h-121v1171z" />
    <glyph glyph-name="N" unicode="N" horiz-adv-x="1456" 
d="M1165 0l-873 1178v-1178h-121v1365h122l872 -1178v1178h121v-1365h-121z" />
    <glyph glyph-name="O" unicode="O" horiz-adv-x="1567" 
d="M783 1387q183 0 341 -93q164 -98 256 -260q94 -163 94 -352t-94 -353q-94 -163 -259 -259q-160 -92 -337 -92q-246 0 -439 163q-96 81 -158 188q-94 166 -94 363q0 185 94 342q101 168 257 260q159 93 339 93zM779 1273q-242 0 -412 -189q-152 -170 -152 -412
q0 -155 79 -291q78 -135 214 -213q130 -76 275 -76q146 0 276 76q138 79 214 213q79 137 79 301q0 268 -194 445q-160 146 -379 146z" />
    <glyph glyph-name="P" unicode="P" horiz-adv-x="950" 
d="M171 0v1365h268q186 0 280 -55q81 -46 129 -129q55 -97 55 -214q0 -166 -100 -278q-58 -66 -143 -95t-221 -29h-147v-565h-121zM292 1253v-577h166q127 0 197 40q55 32 87 87q42 73 42 164q0 82 -33.5 147t-93.5 99q-70 40 -199 40h-166z" />
    <glyph glyph-name="Q" unicode="Q" horiz-adv-x="1562" 
d="M1230 148l134 -135l-79 -80l-147 148q-166 -103 -354 -103q-177 0 -338 92q-165 96 -259 259q-94 164 -94 353t94 352q95 167 257 260q159 93 340 93q180 0 340 -93q161 -94 256 -260q94 -163 94 -353q0 -247 -156 -442q-39 -48 -88 -91zM1054 166l-113 114l79 80
l128 -129q59 50 102 112q102 151 102 338q0 167 -81 306q-78 136 -210 212q-130 74 -277 74q-148 0 -278 -74q-132 -76 -210 -212q-81 -139 -81 -306q0 -268 194 -442q165 -147 374 -147q143 0 271 74z" />
    <glyph glyph-name="R" unicode="R" horiz-adv-x="1078" 
d="M171 0v1365h268q202 0 307 -60q84 -48 135 -135q56 -95 56 -210q0 -127 -65.5 -222.5t-181.5 -139.5l330 -598h-136l-313 572q-80 -7 -132 -7h-147v-565h-121zM292 1253v-577h166q151 0 231 46q129 74 129 237q0 81 -35.5 147.5t-98.5 101.5q-80 45 -226 45h-166z" />
    <glyph glyph-name="S" unicode="S" horiz-adv-x="1025" 
d="M879 1190l-96 -63q-103 148 -258 148q-128 0 -203 -86q-64 -71 -64 -163q0 -152 213 -235l136 -53q199 -76 267 -186q46 -73 46 -169q0 -180 -133 -298q-119 -107 -290 -107q-154 0 -260.5 86t-147.5 243l117 33q29 -100 77 -154q85 -94 217 -94q137 0 224 97
q74 83 74 193q0 88 -57 147q-60 60 -196 113l-130 52q-169 66 -230 166q-46 73 -46 167q0 159 115 261q112 99 276 99q221 0 349 -197z" />
    <glyph glyph-name="T" unicode="T" horiz-adv-x="884" 
d="M863 1253h-361v-1253h-121v1253h-361v112h843v-112z" />
    <glyph glyph-name="U" unicode="U" horiz-adv-x="1300" 
d="M171 1365h121v-848q0 -108 10 -161q11 -60 35 -101q38 -66 116 -110q92 -53 198 -53q143 0 250 90q64 53 86 123q22 67 22 212v848h121v-890q0 -171 -57 -268q-57 -99 -163 -160q-120 -69 -260 -69q-194 0 -334 123q-78 66 -112 154q-33 86 -33 220v890z" />
    <glyph glyph-name="V" unicode="V" horiz-adv-x="1121" 
d="M146 1365l414 -1226l414 1226h126l-466 -1365h-148l-466 1365h126z" />
    <glyph glyph-name="W" unicode="W" horiz-adv-x="1797" 
d="M1230 0l-332 1173l-333 -1173h-51h-79l-415 1365h126l356 -1198l337 1198h118l338 -1198l355 1198h126l-415 -1365h-54h-77z" />
    <glyph glyph-name="X" unicode="X" horiz-adv-x="1062" 
d="M62 1365h132l337 -547l339 547h129l-402 -649l444 -716h-136l-376 612l-377 -612h-132l444 714z" />
    <glyph glyph-name="Y" unicode="Y" horiz-adv-x="1014" 
d="M446 0v572l-439 793h132l368 -680l368 680h131l-439 -793v-572h-121z" />
    <glyph glyph-name="Z" unicode="Z" horiz-adv-x="1041" 
d="M968 1250l-775 -1137h790v-113h-928v115l784 1138h-721v112h850v-115z" />
    <glyph glyph-name="bracketleft" unicode="[" horiz-adv-x="589" 
d="M294 -247h196v-108h-313v1840h313v-108h-196v-1624z" />
    <glyph glyph-name="backslash" unicode="\" horiz-adv-x="1107" 
d="M119 1330l90 54l778 -1349l-90 -54z" />
    <glyph glyph-name="bracketright" unicode="]" horiz-adv-x="589" 
d="M99 -355v108h196v1624h-196v108h313v-1840h-313z" />
    <glyph glyph-name="asciicircum" unicode="^" horiz-adv-x="990" 
d="M191 773h-134l354 597h168l355 -597h-136l-304 500z" />
    <glyph glyph-name="underscore" unicode="_" horiz-adv-x="1007" 
d="M7 -253v104h993v-104h-993z" />
    <glyph glyph-name="grave" unicode="`" horiz-adv-x="975" 
d="M367 1372l189 -261l-70 -40l-237 238z" />
    <glyph glyph-name="a" unicode="a" horiz-adv-x="1127" 
d="M991 908v-908h-116v149q-65 -78 -125 -113q-100 -58 -216 -58q-200 0 -336 151q-121 136 -121 326q0 218 155 358q130 117 303 117q104 0 184 -40t156 -131v149h116zM533 824q-147 0 -247 -109q-91 -98 -91 -260q0 -184 116 -286q95 -85 228 -85q150 0 248 107
q91 100 91 270q0 177 -115 280q-94 83 -230 83z" />
    <glyph glyph-name="b" unicode="b" horiz-adv-x="1127" 
d="M252 0h-116v1365h116v-606q136 171 340 171q201 0 337 -151q121 -134 121 -324q0 -219 -155 -360q-129 -117 -303 -117q-206 0 -340 171v-149zM584 824q-144 0 -242 -107q-91 -100 -91 -262q0 -185 115 -288q94 -83 222 -83q153 0 253 109q91 100 91 260q0 159 -87 258
q-99 113 -261 113z" />
    <glyph glyph-name="c" unicode="c" horiz-adv-x="932" 
d="M874 787l-78 -78q-108 115 -252 115q-159 0 -258 -110q-90 -99 -90 -259q0 -183 114 -285q98 -86 236 -86q82 0 141 28t116 95l78 -79q-60 -63 -115 -94q-100 -56 -221 -56q-211 0 -346 151q-121 136 -121 326q0 218 155 359q130 116 313 116q95 0 171 -32
q74 -33 157 -111z" />
    <glyph glyph-name="d" unicode="d" horiz-adv-x="1127" 
d="M991 1365v-1365h-116v149q-133 -171 -340 -171q-201 0 -337 151q-121 136 -121 326q0 218 155 358q130 117 303 117q203 0 340 -171v606h116zM533 824q-147 0 -247 -109q-91 -98 -91 -260q0 -184 116 -286q97 -85 227 -85q149 0 247 107q91 100 91 270q0 178 -115 280
q-92 83 -228 83z" />
    <glyph glyph-name="e" unicode="e" horiz-adv-x="1019" 
d="M941 405h-743q9 -102 61 -182q91 -139 267 -139q188 0 288 162l105 -44q-143 -224 -392 -224q-201 0 -328 145q-121 137 -121 332q0 223 153 364q120 111 283 111q185 0 308 -139q120 -135 120 -352q0 -18 -1 -34zM197 504h629q-17 126 -75 202q-88 118 -236 118
q-128 0 -214 -86q-86 -88 -104 -234z" />
    <glyph glyph-name="f" unicode="f" horiz-adv-x="503" 
d="M72 908h96v188q0 171 73 235q55 47 130 47q38 0 81 -13v-105q-35 9 -58 9q-57 0 -83.5 -42t-26.5 -131v-188h171v-105h-171v-803h-116v803h-96v105z" />
    <glyph glyph-name="g" unicode="g" horiz-adv-x="1127" 
d="M875 908h116v-925q0 -237 -145 -366q-131 -116 -327 -116q-123 0 -218 45t-183 145l77 77q60 -70 108 -102q92 -59 213 -59q175 0 271 108q88 97 88 268v15v151q-133 -171 -340 -171q-200 0 -337 152q-121 134 -121 325q0 218 155 358q130 117 303 117q205 0 340 -171
v149zM536 824q-96 0 -176 -49q-165 -99 -165 -320q0 -184 116 -286q97 -85 228 -85q149 0 247 107q91 100 91 269q0 178 -115 281q-92 83 -226 83z" />
    <glyph glyph-name="h" unicode="h" horiz-adv-x="1044" 
d="M252 1365v-582q102 147 291 147q148 0 247 -87q63 -55 90.5 -137t27.5 -213v-493h-116v475q0 154 -41 231q-29 52 -81 80q-62 33 -138 33q-78 0 -142 -33t-95 -89q-43 -76 -43 -243v-454h-116v1365h116z" />
    <glyph glyph-name="i" unicode="i" horiz-adv-x="390" 
d="M137 908h116v-908h-116v908zM196 1295q35 0 60 -25.5t25 -61.5t-25.5 -61.5t-60.5 -25.5q-36 0 -61.5 26t-25.5 62t25.5 61t62.5 25z" />
    <glyph glyph-name="j" unicode="j" horiz-adv-x="409" 
d="M-12 -478v106q35 -9 58 -9q57 0 83.5 42t26.5 131v1116h116v-1116q0 -171 -73 -235q-55 -47 -130 -47q-36 0 -81 12zM216 1295q35 0 60 -25.5t25 -61.5t-25.5 -61.5t-61.5 -25.5q-35 0 -60.5 25.5t-25.5 61.5t25.5 61.5t62.5 25.5z" />
    <glyph glyph-name="k" unicode="k" horiz-adv-x="938" 
d="M726 908h148l-366 -364l420 -544h-143l-354 466l-179 -178v-288h-116v1365h116v-933z" />
    <glyph glyph-name="l" unicode="l" horiz-adv-x="391" 
d="M254 1365v-1365h-116v1365h116z" />
    <glyph glyph-name="m" unicode="m" horiz-adv-x="1611" 
d="M136 908h116v-125q91 147 271 147q189 0 286 -171q108 171 306 171q211 0 307 -168q53 -92 53 -269v-493h-116v475q0 159 -42 239q-26 49 -78 77t-116 28q-70 0 -128 -31t-86 -84q-44 -80 -44 -250v-454h-116v475q0 160 -42 238q-25 48 -77 77q-55 29 -119 29
q-148 0 -216 -116q-43 -73 -43 -249v-454h-116v908z" />
    <glyph glyph-name="n" unicode="n" horiz-adv-x="1044" 
d="M136 908h116v-125q102 147 291 147q148 0 247 -87q63 -55 90.5 -137t27.5 -213v-493h-116v475q0 154 -41 231q-29 52 -81 80q-62 33 -138 33q-78 0 -142 -33t-95 -89q-43 -76 -43 -243v-454h-116v908z" />
    <glyph glyph-name="o" unicode="o" horiz-adv-x="1082" 
d="M549 930q198 0 334 -151q121 -134 121 -324q0 -219 -155 -360q-129 -117 -308 -117q-207 0 -342 151q-121 136 -121 330q0 213 155 354q129 117 316 117zM538 824q-97 0 -177 -49q-76 -46 -116 -119q-49 -89 -49 -201q0 -182 116 -286q95 -85 229 -85q155 0 254 109
q91 100 91 264q0 180 -115 282q-95 85 -233 85z" />
    <glyph glyph-name="p" unicode="p" horiz-adv-x="1127" 
d="M252 -478h-116v1386h116v-149q134 171 340 171q201 0 337 -151q121 -134 121 -325q0 -218 -155 -359q-131 -117 -303 -117q-205 0 -340 171v-627zM584 824q-144 0 -242 -107q-91 -100 -91 -263q0 -185 115 -287q94 -83 223 -83q152 0 252 109q91 100 91 259
q0 160 -87 259q-101 113 -261 113z" />
    <glyph glyph-name="q" unicode="q" horiz-adv-x="1127" 
d="M991 908v-1386h-116v627q-135 -171 -340 -171q-201 0 -337 151q-121 136 -121 325q0 219 155 359q130 117 303 117q207 0 340 -171v149h116zM535 824q-95 0 -175 -49q-165 -101 -165 -321q0 -183 116 -285q95 -85 227 -85q151 0 247 106q91 100 91 269q0 179 -115 282
q-92 83 -226 83z" />
    <glyph glyph-name="r" unicode="r" horiz-adv-x="592" 
d="M136 0v908h116v-125q87 126 263 126q7 0 29 -2v-104q-14 1 -27 1q-160 0 -222 -113q-24 -45 -33 -99q-10 -53 -10 -152v-440h-116z" />
    <glyph glyph-name="s" unicode="s" horiz-adv-x="754" 
d="M644 781l-94 -49q-37 52 -75 74t-92 22q-73 0 -120 -41q-48 -41 -48 -104q0 -59 40 -95q26 -25 129 -65l92 -35q105 -41 152.5 -95.5t47.5 -132.5q0 -122 -90 -204q-86 -78 -215 -78q-107 0 -180.5 52.5t-122.5 163.5l101 43q43 -85 90 -120q46 -34 117 -34q91 0 142 58
q42 49 42 110q0 59 -40 96q-30 27 -134 67l-100 40q-180 70 -180 222q0 112 81 182q84 72 200 72q162 0 257 -149z" />
    <glyph glyph-name="t" unicode="t" horiz-adv-x="496" 
d="M157 270v533h-106v105h106v223l116 46v-269h154v-105h-154v-533q0 -90 26.5 -132t82.5 -42q24 0 59 9v-105q-45 -13 -82 -13q-87 0 -142 61q-60 64 -60 222z" />
    <glyph glyph-name="u" unicode="u" horiz-adv-x="1044" 
d="M908 0h-116v125q-104 -147 -291 -147q-148 0 -247 87q-63 55 -90.5 137t-27.5 213v493h116v-475q0 -154 41 -231q29 -52 81 -80q62 -33 138 -33q78 0 142 33t95 89q43 76 43 243v454h116v-908z" />
    <glyph glyph-name="v" unicode="v" horiz-adv-x="917" 
d="M459 136l325 772h124l-389 -908h-122l-389 908h125z" />
    <glyph glyph-name="w" unicode="w" horiz-adv-x="1377" 
d="M454 0h-106l-340 908h125l269 -746l233 746h106l233 -747l271 747h123l-339 -908h-107l-234 737z" />
    <glyph glyph-name="x" unicode="x" horiz-adv-x="879" 
d="M833 908l-326 -435l355 -473h-136l-287 385l-287 -385h-135l355 472l-327 436h136l259 -348l261 348h132z" />
    <glyph glyph-name="y" unicode="y" horiz-adv-x="890" 
d="M159 -478l220 510l-371 876h125l307 -736l317 736h125l-604 -1386h-119z" />
    <glyph glyph-name="z" unicode="z" horiz-adv-x="857" 
d="M796 811v-3l-590 -703h611v-105h-751v100l591 704h-560v104h699v-97z" />
    <glyph glyph-name="braceleft" unicode="{" horiz-adv-x="604" 
d="M99 521v96q66 23 93.5 69t27.5 134v383q0 161 62 223q58 60 186 60h11l26 -1v-102q-101 0 -135 -32q-33 -33 -33 -134v-403q0 -100 -29 -157.5t-96 -90.5q68 -40 97 -96q28 -56 28 -159v-398q0 -103 35 -135q34 -30 133 -30v-102q-17 -1 -36 -1q-115 0 -174 48
q-75 60 -75 235v383q0 92 -26 139q-26 45 -95 71z" />
    <glyph glyph-name="bar" unicode="|" horiz-adv-x="1007" 
d="M446 -360v1851h116v-1851h-116z" />
    <glyph glyph-name="braceright" unicode="}" horiz-adv-x="604" 
d="M505 617v-96q-68 -24 -93 -70q-27 -47 -27 -140v-383q0 -182 -82 -241q-59 -42 -168 -42q-19 0 -36 1v102q101 0 136 32q33 33 33 133v398q0 103 28 158q28 57 96 97q-67 35 -95.5 92t-28.5 156v403q0 105 -36 136q-35 30 -133 30v102l26 1h11q128 0 187 -60
q62 -62 62 -223v-383q0 -88 27 -134t93 -69z" />
    <glyph glyph-name="asciitilde" unicode="~" horiz-adv-x="1343" 
d="M263 1211l-66 43q55 109 107 159q61 58 155 58q80 0 225 -68q138 -65 204 -65q58 0 101 29q43 30 89 104l68 -40q-49 -96 -104 -145q-32 -30 -78.5 -48.5t-86.5 -18.5q-50 0 -94 14q-34 11 -195 82q-87 38 -147 38q-93 0 -178 -142z" />
    <glyph glyph-name="nbspace" unicode="&#xa0;" horiz-adv-x="526" 
 />
    <glyph glyph-name="exclamdown" unicode="&#xa1;" horiz-adv-x="551" 
d="M208 -377l14 1051h107l14 -1051h-135zM275 1007q36 0 60.5 -25t24.5 -61q0 -34 -25 -58.5t-61 -24.5q-34 0 -58.5 25t-24.5 59q0 35 25 60t59 25z" />
    <glyph glyph-name="cent" unicode="&#xa2;" horiz-adv-x="1121" 
d="M535 0v213q-111 18 -198 81q-89 66 -137 164q-53 104 -53 225q0 179 107 309q107 128 281 159v214h118v-209q90 -9 153 -39q63 -32 137 -102l-78 -78q-109 115 -253 115q-156 0 -257 -110q-90 -99 -90 -259q0 -183 114 -285q98 -86 236 -86q81 0 140 28t117 95l78 -79
q-120 -131 -297 -148v-208h-118z" />
    <glyph glyph-name="sterling" unicode="&#xa3;" horiz-adv-x="1140" 
d="M829 628h-403l4 -19q29 -145 29 -231q0 -75 -31 -134q-32 -60 -108 -132h711v-112h-871v119q65 55 93 83q85 82 85 190q0 76 -31 222l-3 14h-144v108h121l-5 26q-22 101 -22 203q0 218 124 324q116 98 271 98q212 0 334 -197l-96 -62q-98 147 -244 147q-122 0 -199 -83
q-72 -76 -72 -218q0 -87 27 -219l4 -19h426v-108z" />
    <glyph glyph-name="currency" unicode="&#xa4;" horiz-adv-x="1484" 
d="M382 986l-187 190l65 63l185 -189q123 108 298 108q169 0 297 -107l185 188l65 -63l-187 -190q103 -133 103 -303q0 -174 -103 -302l187 -190l-63 -65l-187 190q-127 -109 -297 -109q-171 0 -299 109l-186 -190l-63 65l187 190q-103 136 -103 301q0 171 103 304z
M739 1052q-96 0 -176 -49q-166 -99 -166 -320q0 -183 116 -285q95 -85 229 -85q155 0 255 109q91 100 91 264q0 179 -116 281q-94 85 -233 85z" />
    <glyph glyph-name="yen" unicode="&#xa5;" horiz-adv-x="1219" 
d="M548 0v489h-340v108h324v4l-93 167h-231v108h171l-270 489h132l368 -680l369 680h131l-271 -489h172v-108h-232l-93 -167v-4h325v-108h-341v-489h-121z" />
    <glyph glyph-name="brokenbar" unicode="&#xa6;" horiz-adv-x="1007" 
d="M562 1491v-696h-116v696h116zM446 -360v696h116v-696h-116z" />
    <glyph glyph-name="section" unicode="&#xa7;" horiz-adv-x="1096" 
d="M820 94q102 -93 102 -235q0 -164 -113 -265q-105 -93 -277 -93q-214 0 -344 153q-35 41 -72 104l97 64q44 -75 97 -125q92 -83 225 -83q131 0 205 83q62 70 62 163q0 85 -59 145.5t-194 113.5l-129 51q-168 66 -230 166q-45 74 -45 168q0 81 32 147q31 62 108 136
q-116 96 -116 242q0 158 115 260q112 98 273 98q218 0 341 -196l-96 -63q-53 78 -112.5 112.5t-139.5 34.5q-124 0 -198 -84q-63 -72 -63 -163q0 -151 211 -233l135 -53q197 -76 265 -185q46 -73 46 -169q0 -150 -97 -260q-8 -9 -18.5 -21t-10.5 -13zM390 721
q-125 -90 -125 -218q0 -153 210 -235l136 -53q44 -17 111 -52q102 103 102 223q0 88 -56 147q-57 59 -194 113l-130 51q-28 11 -54 24z" />
    <glyph glyph-name="dieresis" unicode="&#xa8;" horiz-adv-x="975" 
d="M300 1293q35 0 60 -25t25 -60t-25.5 -60.5t-60.5 -25.5t-60 25.5t-25 59.5q0 36 25 61t61 25zM677 1293q34 0 59 -25t25 -60q0 -36 -25 -61t-60 -25t-60.5 25.5t-25.5 59.5q0 36 25.5 61t61.5 25z" />
    <glyph glyph-name="copyright" unicode="&#xa9;" horiz-adv-x="1768" 
d="M1250 1008l-72 -72q-115 121 -259 121q-162 0 -267 -118q-95 -109 -95 -258q0 -172 121 -281q104 -92 241 -92q75 0 135 28.5t129 95.5l72 -72q-80 -80 -159 -116t-175 -36q-211 0 -351 156q-120 136 -120 318q0 211 154 353q133 122 316 122q181 0 330 -149zM897 1457
q198 0 374 -104q179 -105 284 -283q104 -179 104 -387q0 -207 -104 -388q-103 -179 -284 -283t-387 -104q-208 0 -387 103q-179 102 -284 283q-104 181 -104 393q0 334 257 570q220 200 531 200zM878 1366q-176 0 -336 -92q-159 -92 -250 -251q-92 -160 -92 -342
q0 -183 92 -341q93 -159 250 -250q158 -91 342 -91q182 0 342 92q159 91 251 250q91 158 91 345q0 298 -227 504q-194 176 -463 176z" />
    <glyph glyph-name="ordfeminine" unicode="&#xaa;" horiz-adv-x="738" 
d="M643 1375v-543h-90v77q-83 -90 -194 -90q-126 0 -212 95q-72 80 -72 190q0 128 93 210q83 74 191 74q111 0 194 -90v77h90zM359 1306q-87 0 -144 -62q-50 -55 -50 -140q0 -98 63 -154q55 -49 134 -49q89 0 145 62q50 55 50 143q0 95 -63 152q-52 48 -135 48z" />
    <glyph glyph-name="guillemotleft" unicode="&#xab;" horiz-adv-x="861" 
d="M509 454l241 -298l-74 -59l-290 358l290 365l74 -59zM205 454l242 -298l-75 -59l-290 358l291 365l74 -59z" />
    <glyph glyph-name="logicalnot" unicode="&#xac;" horiz-adv-x="1353" 
d="M1209 690v-511h-114v406h-952v105h1066z" />
    <glyph glyph-name="uni00AD" unicode="&#xad;" horiz-adv-x="509" 
d="M82 420v104h345v-104h-345z" />
    <glyph glyph-name="registered" unicode="&#xae;" horiz-adv-x="1768" 
d="M1010 613l226 -391h-120l-215 375q-67 -3 -122 -3h-45v-372h-105v921h227q129 0 197 -38q57 -32 91 -92q38 -68 38 -145q0 -90 -46 -158t-126 -97zM734 1046v-355h135q208 0 208 177q0 178 -208 178h-135zM897 1457q198 0 374 -104q179 -105 284 -283q104 -179 104 -387
q0 -207 -104 -388q-103 -179 -284 -283t-387 -104q-208 0 -387 103q-179 102 -284 283q-104 181 -104 393q0 334 257 570q220 200 531 200zM878 1366q-176 0 -336 -92q-159 -92 -250 -251q-92 -160 -92 -342q0 -183 92 -341q93 -159 250 -250q158 -91 342 -91q182 0 342 92
q159 91 251 250q91 158 91 345q0 298 -227 504q-194 176 -463 176z" />
    <glyph glyph-name="overscore" unicode="&#xaf;" horiz-adv-x="975" 
d="M221 1158v104h533v-104h-533z" />
    <glyph glyph-name="degree" unicode="&#xb0;" horiz-adv-x="717" 
d="M431 1513q121 0 207 -95q72 -78 72 -188q0 -128 -94 -212q-80 -73 -189 -73q-127 0 -212 94q-72 81 -72 190q0 121 83 201q86 83 205 83zM426 1422q-85 0 -143 -64q-49 -55 -49 -130q0 -85 63 -142q56 -50 132 -50q77 0 134 57q56 58 56 136q0 85 -63 143q-56 50 -130 50
z" />
    <glyph glyph-name="plusminus" unicode="&#xb1;" horiz-adv-x="1139" 
d="M109 102h921v-102h-921v102zM109 788h407v410h107v-410h407v-100h-407v-410h-107v410h-407v100z" />
    <glyph glyph-name="twosuperior" unicode="&#xb2;" 
d="M658 832h-518v83l306 328q97 103 97 187q0 60 -42.5 97.5t-110.5 37.5q-66 0 -104 -31t-61 -104l-89 24q53 200 257 200q123 0 190 -75q56 -62 56 -150q0 -113 -103 -222l-267 -287h389v-88z" />
    <glyph glyph-name="threesuperior" unicode="&#xb3;" 
d="M129 999l-5 20l94 25q18 -60 44 -89q39 -46 120 -46q86 0 132 51q38 44 38 104q0 69 -44 108.5t-120 39.5h-49v88h49q64 0 105 37t41 95q0 60 -40 96.5t-106 36.5q-48 0 -82 -18.5t-69 -65.5l-81 44q4 4 12 17q76 112 222 112q117 0 185 -74q54 -62 54 -146
q0 -108 -84 -172q103 -69 103 -196q0 -113 -77 -181q-75 -66 -187 -66q-94 0 -160.5 47t-94.5 133z" />
    <glyph glyph-name="acute" unicode="&#xb4;" horiz-adv-x="975" 
d="M489 1071l-70 40l189 261l118 -63z" />
    <glyph glyph-name="mu" unicode="&#xb5;" horiz-adv-x="1044" 
d="M252 105v-583h-116v1386h116v-475q0 -154 41 -231q29 -52 81 -80q62 -33 138 -33q78 0 142 33t95 89q43 76 43 243v454h116v-908h-116v116q-105 -138 -284 -138q-162 0 -256 127z" />
    <glyph glyph-name="paragraph" unicode="&#xb6;" horiz-adv-x="1312" 
d="M618 -478v939h-39q-195 0 -321 143q-115 128 -115 310q0 207 146 341q122 110 290 110h623v-101h-134v-1742h-106v1742h-236h-2v-1742h-106z" />
    <glyph glyph-name="middot" unicode="&#xb7;" horiz-adv-x="445" 
d="M224 767q34 0 58.5 -25t24.5 -59q0 -35 -24.5 -60t-59.5 -25t-60 25t-25 60t25 59.5t61 24.5z" />
    <glyph glyph-name="cedilla" unicode="&#xb8;" horiz-adv-x="975" 
d="M525 -112l109 -47l-189 -241l-78 39z" />
    <glyph glyph-name="onesuperior" unicode="&#xb9;" 
d="M477 1641v-810h-97v702l-129 -72l-46 77l185 103h87z" />
    <glyph glyph-name="ordmasculine" unicode="&#xba;" horiz-adv-x="726" 
d="M367 1387q127 0 212 -94q72 -79 72 -189q0 -127 -93 -211q-80 -73 -195 -73q-131 0 -216 94q-72 80 -72 190q0 106 68 185q86 98 224 98zM360 1306q-84 0 -140 -57q-55 -56 -55 -145q0 -99 64 -154q55 -49 134 -49q91 0 148 63q50 55 50 142q0 96 -63 151q-55 49 -138 49
z" />
    <glyph glyph-name="guillemotright" unicode="&#xbb;" horiz-adv-x="861" 
d="M489 97l-74 59l241 298l-241 307l74 59l290 -365zM186 97l-75 59l242 298l-242 307l74 59l291 -365z" />
    <glyph glyph-name="onequarter" unicode="&#xbc;" horiz-adv-x="1707" 
d="M336 22l786 1360l69 -40l-787 -1359zM1267 825l79 -48l-325 -511h262v212h97v-212h102v-88h-102v-178h-97v178h-372v88zM402 1365v-809h-97v701l-129 -72l-46 77l185 103h87z" />
    <glyph glyph-name="onehalf" unicode="&#xbd;" horiz-adv-x="1707" 
d="M336 22l786 1360l68 -40l-786 -1359zM1536 0h-518v83l306 328q97 103 97 188q0 60 -42.5 97.5t-110.5 37.5q-66 0 -104 -31t-61 -104l-89 24q20 72 56 115q72 85 201 85q124 0 191 -76q55 -61 55 -149q0 -114 -102 -223l-268 -287h389v-88zM402 1365v-809h-97v701
l-129 -72l-46 77l185 103h87z" />
    <glyph glyph-name="threequarters" unicode="&#xbe;" horiz-adv-x="1707" 
d="M462 22l786 1360l69 -40l-787 -1359zM1347 825l79 -48l-324 -511h261v212h97v-212h103v-88h-103v-178h-97v178h-371v88zM118 723l-5 20l94 24q18 -59 44 -88q39 -46 121 -46q84 0 131 51q38 44 38 104q0 69 -44 108.5t-120 39.5h-49v88h49q65 0 105.5 36.5t40.5 95.5
q0 60 -40 96.5t-106 36.5q-88 0 -151 -84l-81 44q6 6 12 17q76 112 222 112q117 0 185 -74q54 -62 54 -146q0 -108 -84 -172q103 -70 103 -197q0 -113 -77 -181q-76 -65 -188 -65q-94 0 -160.5 47t-93.5 133z" />
    <glyph glyph-name="questiondown" unicode="&#xbf;" horiz-adv-x="852" 
d="M422 674h118v-137q0 -94 -21 -139q-21 -46 -93 -107l-91 -79q-141 -121 -141 -260q0 -108 74 -176q70 -62 186 -62q90 0 152 35q58 33 118 121l87 -73q-120 -195 -348 -195q-201 0 -302 111q-86 97 -86 241q0 87 29 150q41 87 135 172l106 97q51 47 64 74t13 107v120z
M482 1007q34 0 59 -25t25 -59q0 -36 -25 -60.5t-61 -24.5q-34 0 -58.5 25t-24.5 59q0 35 25 60t60 25z" />
    <glyph glyph-name="Agrave" unicode="&#xc0;" horiz-adv-x="1259" 
d="M509 1782l190 -261l-71 -40l-236 237zM298 395l-152 -395h-126l535 1365h148l535 -1365h-127l-153 395h-660zM627 1247l-286 -739h573z" />
    <glyph glyph-name="Aacute" unicode="&#xc1;" horiz-adv-x="1259" 
d="M624 1481l-70 40l189 261l117 -64zM298 395l-152 -395h-126l535 1365h148l535 -1365h-127l-153 395h-660zM627 1247l-286 -739h573z" />
    <glyph glyph-name="Acircumflex" unicode="&#xc2;" horiz-adv-x="1259" 
d="M629 1660l-191 -179l-81 40l220 241h104l220 -241l-81 -40zM298 395l-152 -395h-126l535 1365h148l535 -1365h-127l-153 395h-660zM627 1247l-286 -739h573z" />
    <glyph glyph-name="Atilde" unicode="&#xc3;" horiz-adv-x="1259" 
d="M456 1533l-91 21q24 151 147 151q50 0 138 -42q57 -27 96 -27q45 0 55 70l92 -22q-18 -150 -146 -150q-59 0 -133 37q-66 32 -99 32q-43 0 -59 -70zM298 395l-152 -395h-126l535 1365h148l535 -1365h-127l-153 395h-660zM627 1247l-286 -739h573z" />
    <glyph glyph-name="Adieresis" unicode="&#xc4;" horiz-adv-x="1259" 
d="M298 395l-152 -395h-126l535 1365h148l535 -1365h-127l-153 395h-660zM627 1247l-286 -739h573zM818 1705q34 0 59 -25t25 -60q0 -36 -25 -61t-60 -25q-36 0 -61 25.5t-25 60.5t25.5 60t61.5 25zM442 1705q35 0 60 -25t25 -60t-25.5 -60.5t-60.5 -25.5t-60 25.5t-25 60.5
t25.5 60t60.5 25z" />
    <glyph glyph-name="Aring" unicode="&#xc5;" horiz-adv-x="1259" 
d="M298 395l-152 -395h-126l535 1365h148l535 -1365h-127l-153 395h-660zM627 1247l-286 -739h573zM628 1786q76 0 129 -56q42 -46 42 -110q0 -74 -55 -123q-50 -44 -115 -44q-72 0 -121 49q-50 50 -50 120q0 66 51 116q49 48 119 48zM628 1726q-44 0 -74.5 -31.5
t-30.5 -76.5q0 -41 32 -73q31 -31 73 -31q44 0 75 31t31 75q0 45 -31 75.5t-75 30.5z" />
    <glyph glyph-name="AE" unicode="&#xc6;" horiz-adv-x="1722" 
d="M925 0v395h-571l-200 -395h-134l700 1365h887v-112h-561v-504h499v-113h-499v-523h582v-113h-703zM411 508h514v745h-136z" />
    <glyph glyph-name="Ccedilla" unicode="&#xc7;" horiz-adv-x="1349" 
d="M712 -112l109 -47l-189 -241l-78 39zM1267 1180l-83 -83q-71 72 -134 109q-118 67 -262 67q-256 0 -422 -187q-151 -169 -151 -405q0 -269 192 -442q163 -147 382 -147q117 0 211.5 42.5t191.5 137.5l82 -83q-82 -82 -163 -128q-146 -83 -319 -83q-190 0 -351 93
t-255 258q-93 165 -93 353q0 187 93 352q94 166 254 260q160 93 350 93q141 0 252 -49q114 -50 225 -158z" />
    <glyph glyph-name="Egrave" unicode="&#xc8;" horiz-adv-x="967" 
d="M420 1782l189 -261l-70 -40l-237 237zM854 1365v-112h-562v-504h499v-113h-499v-523h583v-113h-704v1365h683z" />
    <glyph glyph-name="Eacute" unicode="&#xc9;" horiz-adv-x="967" 
d="M507 1481l-71 40l190 261l117 -64zM854 1365v-112h-562v-504h499v-113h-499v-523h583v-113h-704v1365h683z" />
    <glyph glyph-name="Ecircumflex" unicode="&#xca;" horiz-adv-x="967" 
d="M523 1660l-191 -179l-81 40l220 241h104l220 -241l-81 -40zM854 1365v-112h-562v-504h499v-113h-499v-523h583v-113h-704v1365h683z" />
    <glyph glyph-name="Edieresis" unicode="&#xcb;" horiz-adv-x="967" 
d="M854 1365v-112h-562v-504h499v-113h-499v-523h583v-113h-704v1365h683zM710 1705q34 0 59 -25t25 -60q0 -36 -25 -61t-60 -25t-60.5 25.5t-25.5 60.5t25.5 60t61.5 25zM333 1705q35 0 60 -25t25 -60q0 -36 -25 -61t-61 -25q-35 0 -60 25.5t-25 60.5t25 60t61 25z" />
    <glyph glyph-name="Igrave" unicode="&#xcc;" horiz-adv-x="463" 
d="M110 1782l189 -261l-70 -40l-237 237zM171 1365h121v-1365h-121v1365z" />
    <glyph glyph-name="Iacute" unicode="&#xcd;" horiz-adv-x="463" 
d="M234 1481l-70 40l189 261l118 -64zM171 1365h121v-1365h-121v1365z" />
    <glyph glyph-name="Icircumflex" unicode="&#xce;" horiz-adv-x="463" 
d="M231 1660l-191 -179l-81 40l220 241h104l220 -241l-81 -40zM170 1365h121v-1365h-121v1365z" />
    <glyph glyph-name="Idieresis" unicode="&#xcf;" horiz-adv-x="463" 
d="M171 1365h121v-1365h-121v1365zM370 1705q34 0 59 -25t25 -60q0 -36 -25 -61t-60 -25q-36 0 -61 25.5t-25 60.5t25.5 60t61.5 25zM96 1705q34 0 59 -25.5t25 -59.5q0 -35 -25.5 -60.5t-60.5 -25.5t-60 25.5t-25 60.5t25.5 60t61.5 25z" />
    <glyph glyph-name="Eth" unicode="&#xd0;" horiz-adv-x="1288" 
d="M192 0v683h-127v108h127v574h268q250 0 426 -101q146 -84 222 -219q88 -157 88 -361q0 -291 -163 -466q-203 -218 -573 -218h-268zM648 791v-108h-335v-570h154q203 0 345 82q122 71 186 184q76 134 76 305q0 237 -137 386q-168 182 -470 182h-154v-461h335z" />
    <glyph glyph-name="Ntilde" unicode="&#xd1;" horiz-adv-x="1456" 
d="M572 1533l-90 21q24 151 147 151q49 0 137 -42q58 -27 96 -27q44 0 56 70l92 -22q-20 -150 -147 -150q-58 0 -133 37q-64 32 -99 32q-43 0 -59 -70zM1165 0l-873 1178v-1178h-121v1365h122l872 -1178v1178h121v-1365h-121z" />
    <glyph glyph-name="Ograve" unicode="&#xd2;" horiz-adv-x="1567" 
d="M667 1782l189 -261l-70 -40l-237 237zM783 1387q183 0 341 -93q164 -98 256 -260q94 -163 94 -352t-94 -353q-94 -163 -259 -259q-160 -92 -337 -92q-246 0 -439 163q-96 81 -158 188q-94 166 -94 363q0 185 94 342q101 168 257 260q159 93 339 93zM779 1273
q-242 0 -412 -189q-152 -170 -152 -412q0 -155 79 -291q78 -135 214 -213q130 -76 275 -76q146 0 276 76q138 79 214 213q79 137 79 301q0 268 -194 445q-160 146 -379 146z" />
    <glyph glyph-name="Oacute" unicode="&#xd3;" horiz-adv-x="1567" 
d="M782 1481l-71 40l190 261l117 -64zM783 1387q183 0 341 -93q164 -98 256 -260q94 -163 94 -352t-94 -353q-94 -163 -259 -259q-160 -92 -337 -92q-246 0 -439 163q-96 81 -158 188q-94 166 -94 363q0 185 94 342q101 168 257 260q159 93 339 93zM779 1273
q-242 0 -412 -189q-152 -170 -152 -412q0 -155 79 -291q78 -135 214 -213q130 -76 275 -76q146 0 276 76q138 79 214 213q79 137 79 301q0 268 -194 445q-160 146 -379 146z" />
    <glyph glyph-name="Ocircumflex" unicode="&#xd4;" horiz-adv-x="1567" 
d="M784 1660l-191 -179l-81 40l220 241h104l220 -241l-82 -40zM783 1387q183 0 341 -93q164 -98 256 -260q94 -163 94 -352t-94 -353q-94 -163 -259 -259q-160 -92 -337 -92q-246 0 -439 163q-96 81 -158 188q-94 166 -94 363q0 185 94 342q101 168 257 260q159 93 339 93z
M779 1273q-242 0 -412 -189q-152 -170 -152 -412q0 -155 79 -291q78 -135 214 -213q130 -76 275 -76q146 0 276 76q138 79 214 213q79 137 79 301q0 268 -194 445q-160 146 -379 146z" />
    <glyph glyph-name="Otilde" unicode="&#xd5;" horiz-adv-x="1567" 
d="M610 1533l-90 21q24 151 147 151q49 0 137 -42q58 -27 97 -27q45 0 55 70l92 -22q-18 -150 -146 -150q-59 0 -134 37q-64 32 -98 32q-44 0 -60 -70zM783 1387q183 0 341 -93q164 -98 256 -260q94 -163 94 -352t-94 -353q-94 -163 -259 -259q-160 -92 -337 -92
q-246 0 -439 163q-96 81 -158 188q-94 166 -94 363q0 185 94 342q101 168 257 260q159 93 339 93zM779 1273q-242 0 -412 -189q-152 -170 -152 -412q0 -155 79 -291q78 -135 214 -213q130 -76 275 -76q146 0 276 76q138 79 214 213q79 137 79 301q0 268 -194 445
q-160 146 -379 146z" />
    <glyph glyph-name="Odieresis" unicode="&#xd6;" horiz-adv-x="1567" 
d="M783 1387q183 0 341 -93q164 -98 256 -260q94 -163 94 -352t-94 -353q-94 -163 -259 -259q-160 -92 -337 -92q-246 0 -439 163q-96 81 -158 188q-94 166 -94 363q0 185 94 342q101 168 257 260q159 93 339 93zM779 1273q-242 0 -412 -189q-152 -170 -152 -412
q0 -155 79 -291q78 -135 214 -213q130 -76 275 -76q146 0 276 76q138 79 214 213q79 137 79 301q0 268 -194 445q-160 146 -379 146zM973 1705q34 0 59 -25t25 -60q0 -36 -25 -61t-60 -25t-60.5 25.5t-25.5 59.5q0 36 25.5 61t61.5 25zM596 1705q35 0 60 -25.5t25 -59.5
q0 -35 -25.5 -60.5t-60.5 -25.5t-60 25.5t-25 59.5q0 36 25 61t61 25z" />
    <glyph glyph-name="multiply" unicode="&#xd7;" horiz-adv-x="1139" 
d="M281 277l-73 73l289 289l-289 289l73 73l289 -289l288 289l73 -73l-288 -289l288 -289l-73 -73l-288 289z" />
    <glyph glyph-name="Oslash" unicode="&#xd8;" horiz-adv-x="1582" 
d="M1244 1211l154 157l66 -64l-156 -159q173 -205 173 -462q0 -190 -94 -354q-94 -163 -259 -259q-160 -92 -339 -92q-249 0 -452 176l-154 -157l-66 64l155 159q-172 203 -172 461q0 189 94 353q95 167 257 260q161 93 341 93q255 0 452 -176zM355 304l808 825
q-165 144 -370 144q-149 0 -280 -74q-132 -76 -210 -212q-81 -141 -81 -309q0 -208 133 -374zM1226 1062l-807 -825q166 -145 371 -145q146 0 276 76q136 78 214 213q79 136 79 302q0 213 -133 379z" />
    <glyph glyph-name="Ugrave" unicode="&#xd9;" horiz-adv-x="1300" 
d="M548 1782l189 -261l-70 -40l-237 237zM171 1365h121v-848q0 -108 10 -161q11 -60 35 -101q38 -66 116 -110q92 -53 198 -53q143 0 250 90q64 53 86 123q22 67 22 212v848h121v-890q0 -171 -57 -268q-57 -99 -163 -160q-120 -69 -260 -69q-194 0 -334 123q-78 66 -112 154
q-33 86 -33 220v890z" />
    <glyph glyph-name="Uacute" unicode="&#xda;" horiz-adv-x="1300" 
d="M634 1481l-70 40l189 261l118 -64zM171 1365h121v-848q0 -108 10 -161q11 -60 35 -101q38 -66 116 -110q92 -53 198 -53q143 0 250 90q64 53 86 123q22 67 22 212v848h121v-890q0 -171 -57 -268q-57 -99 -163 -160q-120 -69 -260 -69q-194 0 -334 123q-78 66 -112 154
q-33 86 -33 220v890z" />
    <glyph glyph-name="Ucircumflex" unicode="&#xdb;" horiz-adv-x="1300" 
d="M651 1660l-191 -179l-82 40l220 241h105l219 -241l-81 -40zM171 1365h121v-848q0 -108 10 -161q11 -60 35 -101q38 -66 116 -110q92 -53 198 -53q143 0 250 90q64 53 86 123q22 67 22 212v848h121v-890q0 -171 -57 -268q-57 -99 -163 -160q-120 -69 -260 -69
q-194 0 -334 123q-78 66 -112 154q-33 86 -33 220v890z" />
    <glyph glyph-name="Udieresis" unicode="&#xdc;" horiz-adv-x="1300" 
d="M171 1365h121v-848q0 -108 10 -161q11 -60 35 -101q38 -66 116 -110q92 -53 198 -53q143 0 250 90q64 53 86 123q22 67 22 212v848h121v-890q0 -171 -57 -268q-57 -99 -163 -160q-120 -69 -260 -69q-194 0 -334 123q-78 66 -112 154q-33 86 -33 220v890zM840 1705
q34 0 59 -25t25 -60q0 -36 -25 -61t-60 -25t-60.5 25.5t-25.5 59.5q0 36 25.5 61t61.5 25zM463 1705q35 0 60 -25t25 -60t-25.5 -60.5t-60.5 -25.5t-60 25t-25 60q0 36 25 61t61 25z" />
    <glyph glyph-name="Yacute" unicode="&#xdd;" horiz-adv-x="1014" 
d="M491 1481l-70 40l189 261l117 -64zM446 0v572l-439 793h132l368 -680l368 680h131l-439 -793v-572h-121z" />
    <glyph glyph-name="Thorn" unicode="&#xde;" horiz-adv-x="950" 
d="M171 0v1365h121v-211h147q185 0 280 -54q80 -46 129 -130q55 -97 55 -214q0 -166 -100 -278q-58 -66 -143 -95t-221 -29h-147v-354h-121zM458 1042h-166v-577h166q127 0 197 40q55 31 87 87q42 74 42 164q0 82 -33.5 147t-93.5 99q-70 40 -199 40z" />
    <glyph glyph-name="germandbls" unicode="&#xdf;" horiz-adv-x="1054" 
d="M252 0h-116v1026q0 214 172 314q80 47 177 47q166 0 267 -104q97 -98 97 -256q0 -89 -38 -173q-39 -82 -94 -110q85 -31 136 -85q103 -106 103 -269q0 -175 -122 -288q-111 -102 -310 -102h-102v110h108q156 0 237 93q71 80 71 190q0 127 -87 210q-73 70 -213 70h-7v105
h7q87 0 139 61q58 65 58 183q0 133 -79 203q-64 58 -161 58q-114 0 -182 -77q-61 -68 -61 -180v-1026z" />
    <glyph glyph-name="agrave" unicode="&#xe0;" horiz-adv-x="1127" 
d="M418 1372l190 -261l-71 -40l-236 238zM991 908v-908h-116v149q-65 -78 -125 -113q-100 -58 -216 -58q-200 0 -336 151q-121 136 -121 326q0 218 155 358q130 117 303 117q104 0 184 -40t156 -131v149h116zM533 824q-147 0 -247 -109q-91 -98 -91 -260q0 -184 116 -286
q95 -85 228 -85q150 0 248 107q91 100 91 270q0 177 -115 280q-94 83 -230 83z" />
    <glyph glyph-name="aacute" unicode="&#xe1;" horiz-adv-x="1127" 
d="M546 1071l-70 40l189 261l118 -63zM991 908v-908h-116v149q-65 -78 -125 -113q-100 -58 -216 -58q-200 0 -336 151q-121 136 -121 326q0 218 155 358q130 117 303 117q104 0 184 -40t156 -131v149h116zM533 824q-147 0 -247 -109q-91 -98 -91 -260q0 -184 116 -286
q95 -85 228 -85q150 0 248 107q91 100 91 270q0 177 -115 280q-94 83 -230 83z" />
    <glyph glyph-name="acircumflex" unicode="&#xe2;" horiz-adv-x="1127" 
d="M535 1250l-191 -179l-81 40l220 241h104l220 -241l-81 -40zM991 908v-908h-116v149q-65 -78 -125 -113q-100 -58 -216 -58q-200 0 -336 151q-121 136 -121 326q0 218 155 358q130 117 303 117q104 0 184 -40t156 -131v149h116zM533 824q-147 0 -247 -109
q-91 -98 -91 -260q0 -184 116 -286q95 -85 228 -85q150 0 248 107q91 100 91 270q0 177 -115 280q-94 83 -230 83z" />
    <glyph glyph-name="atilde" unicode="&#xe3;" horiz-adv-x="1127" 
d="M362 1123l-91 22q24 150 147 150q50 0 138 -42q58 -27 96 -27q44 0 56 70l91 -21q-18 -151 -146 -151q-58 0 -133 37q-66 32 -99 32q-43 0 -59 -70zM991 908v-908h-116v149q-65 -78 -125 -113q-100 -58 -216 -58q-200 0 -336 151q-121 136 -121 326q0 218 155 358
q130 117 303 117q104 0 184 -40t156 -131v149h116zM533 824q-147 0 -247 -109q-91 -98 -91 -260q0 -184 116 -286q95 -85 228 -85q150 0 248 107q91 100 91 270q0 177 -115 280q-94 83 -230 83z" />
    <glyph glyph-name="adieresis" unicode="&#xe4;" horiz-adv-x="1127" 
d="M991 908v-908h-116v149q-65 -78 -125 -113q-100 -58 -216 -58q-200 0 -336 151q-121 136 -121 326q0 218 155 358q130 117 303 117q104 0 184 -40t156 -131v149h116zM533 824q-147 0 -247 -109q-91 -98 -91 -260q0 -184 116 -286q95 -85 228 -85q150 0 248 107
q91 100 91 270q0 177 -115 280q-94 83 -230 83zM365 1293q35 0 60 -25t25 -60t-25.5 -60.5t-60.5 -25.5t-60 25.5t-25 59.5q0 36 25 61t61 25zM742 1293q34 0 59 -25t25 -60q0 -36 -25 -61t-60 -25t-60.5 25.5t-25.5 60.5t25.5 60t61.5 25z" />
    <glyph glyph-name="aring" unicode="&#xe5;" horiz-adv-x="1127" 
d="M558 1376q76 0 129 -56q42 -46 42 -110q0 -74 -55 -123q-50 -44 -117 -44q-75 0 -126 56q-43 47 -43 113t51 116q50 48 119 48zM558 1316q-44 0 -74.5 -31.5t-30.5 -76.5q0 -43 31 -74t74 -31q44 0 75 31t31 76q0 44 -31 75t-75 31zM991 908v-908h-116v149
q-65 -78 -125 -113q-100 -58 -216 -58q-200 0 -336 151q-121 136 -121 326q0 218 155 358q130 117 303 117q104 0 184 -40t156 -131v149h116zM533 824q-147 0 -247 -109q-91 -98 -91 -260q0 -184 116 -286q95 -85 228 -85q150 0 248 107q91 100 91 270q0 177 -115 280
q-94 83 -230 83z" />
    <glyph glyph-name="ae" unicode="&#xe6;" horiz-adv-x="1704" 
d="M1499 246l104 -44q-144 -224 -391 -224q-116 0 -212.5 52.5t-154.5 145.5q-77 -198 -367 -198q-158 0 -264 61q-136 79 -136 241q0 134 90 213q44 38 120 61t160 23h314q-9 95 -46 147q-70 100 -251 100q-155 0 -289 -99l-54 78q172 127 363 127q277 0 353 -208
q33 62 87 107q119 101 274 101q183 0 307 -138q56 -64 88 -157t32 -196q0 -19 -1 -34h-743q15 -122 74 -199q95 -122 254 -122q186 0 289 162zM765 288v190h-288q-170 0 -238 -77q-46 -52 -46 -124q0 -101 87 -150q77 -44 200 -44q78 0 142 20.5t96 56.5q47 53 47 128z
M882 504h628q-17 125 -75 203q-87 117 -236 117q-152 0 -245 -123q-55 -73 -72 -197z" />
    <glyph glyph-name="ccedilla" unicode="&#xe7;" horiz-adv-x="932" 
d="M474 -112l109 -47l-190 -241l-78 39zM874 787l-78 -78q-108 115 -252 115q-159 0 -258 -110q-90 -99 -90 -259q0 -183 114 -285q98 -86 236 -86q82 0 141 28t116 95l78 -79q-60 -63 -115 -94q-100 -56 -221 -56q-211 0 -346 151q-121 136 -121 326q0 218 155 359
q130 116 313 116q95 0 171 -32q74 -33 157 -111z" />
    <glyph glyph-name="egrave" unicode="&#xe8;" horiz-adv-x="1019" 
d="M404 1372l190 -261l-71 -40l-236 238zM941 405h-743q9 -102 61 -182q91 -139 267 -139q188 0 288 162l105 -44q-143 -224 -392 -224q-201 0 -328 145q-121 137 -121 332q0 223 153 364q120 111 283 111q185 0 308 -139q120 -135 120 -352q0 -18 -1 -34zM197 504h629
q-17 126 -75 202q-88 118 -236 118q-128 0 -214 -86q-86 -88 -104 -234z" />
    <glyph glyph-name="eacute" unicode="&#xe9;" horiz-adv-x="1019" 
d="M498 1071l-70 40l189 261l118 -63zM941 405h-743q9 -102 61 -182q91 -139 267 -139q188 0 288 162l105 -44q-143 -224 -392 -224q-201 0 -328 145q-121 137 -121 332q0 223 153 364q120 111 283 111q185 0 308 -139q120 -135 120 -352q0 -18 -1 -34zM197 504h629
q-17 126 -75 202q-88 118 -236 118q-128 0 -214 -86q-86 -88 -104 -234z" />
    <glyph glyph-name="ecircumflex" unicode="&#xea;" horiz-adv-x="1019" 
d="M510 1250l-191 -179l-81 40l220 241h104l220 -241l-81 -40zM941 405h-743q9 -102 61 -182q91 -139 267 -139q188 0 288 162l105 -44q-143 -224 -392 -224q-201 0 -328 145q-121 137 -121 332q0 223 153 364q120 111 283 111q185 0 308 -139q120 -135 120 -352
q0 -18 -1 -34zM197 504h629q-17 126 -75 202q-88 118 -236 118q-128 0 -214 -86q-86 -88 -104 -234z" />
    <glyph glyph-name="edieresis" unicode="&#xeb;" horiz-adv-x="1019" 
d="M941 405h-743q9 -102 61 -182q91 -139 267 -139q188 0 288 162l105 -44q-143 -224 -392 -224q-201 0 -328 145q-121 137 -121 332q0 223 153 364q120 111 283 111q185 0 308 -139q120 -135 120 -352q0 -18 -1 -34zM197 504h629q-17 126 -75 202q-88 118 -236 118
q-128 0 -214 -86q-86 -88 -104 -234zM324 1293q34 0 59 -25.5t25 -59.5q0 -35 -25.5 -60.5t-60.5 -25.5t-60 25.5t-25 60.5t25.5 60t61.5 25zM700 1293q34 0 59 -25t25 -60q0 -36 -25 -61t-60 -25t-60.5 25.5t-25.5 60.5t25.5 60t61.5 25z" />
    <glyph glyph-name="igrave" unicode="&#xec;" horiz-adv-x="390" 
d="M67 1372l189 -261l-70 -40l-237 238zM137 908h116v-908h-116v908z" />
    <glyph glyph-name="iacute" unicode="&#xed;" horiz-adv-x="390" 
d="M204 1071l-70 40l189 261l118 -63zM137 908h116v-908h-116v908z" />
    <glyph glyph-name="icircumflex" unicode="&#xee;" horiz-adv-x="390" 
d="M195 1250l-191 -179l-81 40l220 241h104l220 -241l-81 -40zM137 908h116v-908h-116v908z" />
    <glyph glyph-name="idieresis" unicode="&#xef;" horiz-adv-x="390" 
d="M137 908h116v-908h-116v908zM57 1293q35 0 60 -25t25 -60t-25.5 -60.5t-60.5 -25.5t-60 25.5t-25 59.5q0 36 25 61t61 25zM331 1293q34 0 59 -25t25 -60q0 -36 -25 -61t-60 -25t-60.5 25.5t-25.5 59.5q0 36 25.5 61t61.5 25z" />
    <glyph glyph-name="eth" unicode="&#xf0;" horiz-adv-x="1083" 
d="M564 1276l-198 -103l-73 67l184 96q-117 75 -272 118l48 72q164 -45 325 -138l204 103l67 -65l-191 -100q118 -107 216 -281q61 -109 96 -256q35 -149 35 -295q0 -170 -69 -289q-61 -106 -166 -167q-104 -60 -229 -60q-207 0 -342 151q-121 136 -121 326q0 218 155 358
q129 117 306 117q94 0 169.5 -32t147.5 -104q-78 301 -292 482zM539 824q-152 0 -252 -109q-91 -98 -91 -266q0 -164 104 -268q97 -97 240 -97q156 0 255 109q91 100 91 262q0 182 -115 284q-95 85 -232 85z" />
    <glyph glyph-name="ntilde" unicode="&#xf1;" horiz-adv-x="1044" 
d="M359 1123l-91 22q24 150 147 150q49 0 138 -42q59 -27 96 -27q44 0 56 70l91 -21q-19 -151 -146 -151q-59 0 -133 37q-66 32 -99 32q-43 0 -59 -70zM136 908h116v-125q102 147 291 147q148 0 247 -87q63 -55 90.5 -137t27.5 -213v-493h-116v475q0 154 -41 231
q-29 52 -81 80q-62 33 -138 33q-78 0 -142 -33t-95 -89q-43 -76 -43 -243v-454h-116v908z" />
    <glyph glyph-name="ograve" unicode="&#xf2;" horiz-adv-x="1082" 
d="M424 1372l190 -261l-71 -40l-236 238zM549 930q198 0 334 -151q121 -134 121 -324q0 -219 -155 -360q-129 -117 -308 -117q-207 0 -342 151q-121 136 -121 330q0 213 155 354q129 117 316 117zM538 824q-97 0 -177 -49q-76 -46 -116 -119q-49 -89 -49 -201
q0 -182 116 -286q95 -85 229 -85q155 0 254 109q91 100 91 264q0 180 -115 282q-95 85 -233 85z" />
    <glyph glyph-name="oacute" unicode="&#xf3;" horiz-adv-x="1082" 
d="M539 1071l-71 40l190 261l118 -63zM549 930q198 0 334 -151q121 -134 121 -324q0 -219 -155 -360q-129 -117 -308 -117q-207 0 -342 151q-121 136 -121 330q0 213 155 354q129 117 316 117zM538 824q-97 0 -177 -49q-76 -46 -116 -119q-49 -89 -49 -201q0 -182 116 -286
q95 -85 229 -85q155 0 254 109q91 100 91 264q0 180 -115 282q-95 85 -233 85z" />
    <glyph glyph-name="ocircumflex" unicode="&#xf4;" horiz-adv-x="1082" 
d="M813 1111l-81 -40l-191 179l-191 -179l-81 40l220 241h104zM548 930q199 0 335 -151q121 -134 121 -325q0 -219 -155 -359q-129 -117 -308 -117q-207 0 -342 151q-121 136 -121 326q0 184 112 314q140 161 358 161zM535 824q-148 0 -248 -109q-91 -98 -91 -260
q0 -184 116 -286q95 -85 229 -85q154 0 254 109q91 100 91 265q0 179 -115 281q-95 85 -236 85z" />
    <glyph glyph-name="otilde" unicode="&#xf5;" horiz-adv-x="1082" 
d="M368 1123l-91 22q24 150 147 150q50 0 138 -42q58 -27 96 -27q44 0 56 70l91 -21q-18 -151 -146 -151q-58 0 -133 37q-66 32 -99 32q-43 0 -59 -70zM549 930q198 0 334 -151q121 -134 121 -324q0 -219 -155 -360q-129 -117 -308 -117q-207 0 -342 151q-121 136 -121 330
q0 213 155 354q129 117 316 117zM538 824q-97 0 -177 -49q-76 -46 -116 -119q-49 -89 -49 -201q0 -182 116 -286q95 -85 229 -85q155 0 254 109q91 100 91 264q0 180 -115 282q-95 85 -233 85z" />
    <glyph glyph-name="odieresis" unicode="&#xf6;" horiz-adv-x="1082" 
d="M549 930q198 0 334 -151q121 -134 121 -324q0 -219 -155 -360q-129 -117 -308 -117q-207 0 -342 151q-121 136 -121 330q0 213 155 354q129 117 316 117zM538 824q-97 0 -177 -49q-76 -46 -116 -119q-49 -89 -49 -201q0 -182 116 -286q95 -85 229 -85q155 0 254 109
q91 100 91 264q0 180 -115 282q-95 85 -233 85zM731 1293q34 0 59 -25t25 -60q0 -36 -25 -61t-60 -25q-36 0 -61 25.5t-25 60.5t25.5 60t61.5 25zM354 1293q35 0 60 -25.5t25 -59.5q0 -35 -25.5 -60.5t-60.5 -25.5t-60 25.5t-25 60.5t25.5 60t60.5 25z" />
    <glyph glyph-name="divide" unicode="&#xf7;" horiz-adv-x="1139" 
d="M144 690h852v-102h-852v102zM569 376q39 0 66 -27.5t27 -65.5q0 -39 -27.5 -66t-66.5 -27q-37 0 -64 28t-27 67q0 37 27.5 64t64.5 27zM569 1088q39 0 66 -27.5t27 -65.5t-27.5 -65.5t-66.5 -27.5q-37 0 -64 28t-27 67q0 37 27.5 64t64.5 27z" />
    <glyph glyph-name="oslash" unicode="&#xf8;" horiz-adv-x="1109" 
d="M1017 852l-100 -98q100 -133 100 -297q0 -221 -155 -362q-129 -117 -310 -117q-172 0 -303 115l-97 -96l-61 59l100 99q-100 133 -100 298q0 220 155 360q129 117 310 117q172 0 304 -114l96 95zM840 677l-516 -510q98 -83 225 -83q160 0 259 109q91 100 91 266
q0 123 -59 218zM269 231l516 511q-100 82 -227 82q-159 0 -259 -109q-90 -99 -90 -268q0 -114 60 -216z" />
    <glyph glyph-name="ugrave" unicode="&#xf9;" horiz-adv-x="1044" 
d="M409 1372l189 -261l-70 -40l-237 238zM908 0h-116v125q-104 -147 -291 -147q-148 0 -247 87q-63 55 -90.5 137t-27.5 213v493h116v-475q0 -154 41 -231q29 -52 81 -80q62 -33 138 -33q78 0 142 33t95 89q43 76 43 243v454h116v-908z" />
    <glyph glyph-name="uacute" unicode="&#xfa;" horiz-adv-x="1044" 
d="M510 1071l-71 40l190 261l117 -63zM908 0h-116v125q-104 -147 -291 -147q-148 0 -247 87q-63 55 -90.5 137t-27.5 213v493h116v-475q0 -154 41 -231q29 -52 81 -80q62 -33 138 -33q78 0 142 33t95 89q43 76 43 243v454h116v-908z" />
    <glyph glyph-name="ucircumflex" unicode="&#xfb;" horiz-adv-x="1044" 
d="M522 1250l-191 -179l-81 40l220 241h105l219 -241l-81 -40zM908 0h-116v125q-104 -147 -291 -147q-148 0 -247 87q-63 55 -90.5 137t-27.5 213v493h116v-475q0 -154 41 -231q29 -52 81 -80q62 -33 138 -33q78 0 142 33t95 89q43 76 43 243v454h116v-908z" />
    <glyph glyph-name="udieresis" unicode="&#xfc;" horiz-adv-x="1044" 
d="M908 0h-116v125q-104 -147 -291 -147q-148 0 -247 87q-63 55 -90.5 137t-27.5 213v493h116v-475q0 -154 41 -231q29 -52 81 -80q62 -33 138 -33q78 0 142 33t95 89q43 76 43 243v454h116v-908zM335 1293q35 0 60 -25t25 -60t-25.5 -60.5t-60.5 -25.5t-60 25t-25 60
q0 36 25 61t61 25zM712 1293q34 0 59 -25t25 -60q0 -36 -25 -61t-60 -25t-60.5 25.5t-25.5 59.5q0 36 25.5 61t61.5 25z" />
    <glyph glyph-name="yacute" unicode="&#xfd;" horiz-adv-x="890" 
d="M438 1071l-71 40l190 261l117 -63zM159 -478l220 510l-371 876h125l307 -736l317 736h125l-604 -1386h-119z" />
    <glyph glyph-name="thorn" unicode="&#xfe;" horiz-adv-x="1129" 
d="M254 -478h-116v1843h116v-606q134 171 340 171q201 0 337 -151q121 -136 121 -325q0 -218 -155 -359q-131 -117 -303 -117q-205 0 -340 171v-627zM586 824q-144 0 -242 -107q-91 -100 -91 -263q0 -185 115 -287q94 -83 223 -83q152 0 252 109q91 100 91 259
q0 160 -87 259q-101 113 -261 113z" />
    <glyph glyph-name="ydieresis" unicode="&#xff;" horiz-adv-x="890" 
d="M159 -478l220 510l-371 876h125l307 -736l317 736h125l-604 -1386h-119zM258 1293q35 0 60 -25.5t25 -59.5q0 -35 -25.5 -60.5t-60.5 -25.5t-60 25.5t-25 59.5q0 36 25 61t61 25zM634 1293q34 0 59 -25t25 -60q0 -36 -25 -61t-60 -25q-36 0 -61 25.5t-25 60.5t25.5 60
t61.5 25z" />
    <glyph glyph-name="Amacron" unicode="&#x100;" horiz-adv-x="1259" 
d="M362 1567v104h533v-104h-533zM298 395l-152 -395h-126l535 1365h148l535 -1365h-127l-153 395h-660zM627 1247l-286 -739h573z" />
    <glyph glyph-name="amacron" unicode="&#x101;" horiz-adv-x="1127" 
d="M293 1158v104h533v-104h-533zM991 908v-908h-116v149q-65 -78 -125 -113q-100 -58 -216 -58q-200 0 -336 151q-121 136 -121 326q0 218 155 358q130 117 303 117q104 0 184 -40t156 -131v149h116zM533 824q-147 0 -247 -109q-91 -98 -91 -260q0 -184 116 -286
q95 -85 228 -85q150 0 248 107q91 100 91 270q0 177 -115 280q-94 83 -230 83z" />
    <glyph glyph-name="Abreve" unicode="&#x102;" horiz-adv-x="1259" 
d="M373 1722l99 8q6 -70 47 -111t107 -41q64 0 105.5 39.5t52.5 112.5l100 -8q-13 -92 -64 -154q-75 -90 -193 -90q-110 0 -178 67q-68 65 -76 177zM298 395l-152 -395h-126l535 1365h148l535 -1365h-127l-153 395h-660zM627 1247l-286 -739h573z" />
    <glyph glyph-name="abreve" unicode="&#x103;" horiz-adv-x="1127" 
d="M282 1312l99 9q6 -71 47 -112t107 -41q65 0 106 39.5t53 113.5l99 -9q-13 -92 -64 -154q-75 -90 -193 -90q-110 0 -178 67q-68 65 -76 177zM991 908v-908h-116v149q-65 -78 -125 -113q-100 -58 -216 -58q-200 0 -336 151q-121 136 -121 326q0 218 155 358
q130 117 303 117q104 0 184 -40t156 -131v149h116zM533 824q-147 0 -247 -109q-91 -98 -91 -260q0 -184 116 -286q95 -85 228 -85q150 0 248 107q91 100 91 270q0 177 -115 280q-94 83 -230 83z" />
    <glyph glyph-name="Aogonek" unicode="&#x104;" horiz-adv-x="1259" 
d="M1122 0h-11l-153 395h-660l-152 -395h-126l535 1365h148l535 -1365q-73 -85 -73 -138q0 -63 78 -63q28 0 68 14l33 -83q-66 -23 -115 -23q-86 0 -134 53q-36 41 -36 94q0 70 63 146zM627 1247l-286 -739h573z" />
    <glyph glyph-name="aogonek" unicode="&#x105;" horiz-adv-x="1127" 
d="M875 908h116v-908q-73 -83 -73 -138q0 -63 78 -63q29 0 69 14l32 -83q-64 -23 -115 -23q-86 0 -134 53q-36 40 -36 93q0 69 63 147v149q-65 -78 -125 -113q-100 -58 -216 -58q-200 0 -336 151q-121 136 -121 326q0 218 155 358q130 117 303 117q104 0 184 -40t156 -131
v149zM533 824q-147 0 -247 -109q-91 -98 -91 -260q0 -184 116 -286q95 -85 228 -85q150 0 248 107q91 100 91 270q0 177 -115 280q-94 83 -230 83z" />
    <glyph glyph-name="Cacute" unicode="&#x106;" horiz-adv-x="1349" 
d="M785 1481l-71 40l190 261l118 -64zM1267 1180l-83 -83q-71 72 -134 109q-118 67 -262 67q-256 0 -422 -187q-151 -169 -151 -405q0 -269 192 -442q163 -147 382 -147q117 0 211.5 42.5t191.5 137.5l82 -83q-82 -82 -163 -128q-146 -83 -319 -83q-190 0 -351 93t-255 258
q-93 165 -93 353q0 187 93 352q94 166 254 260q160 93 350 93q141 0 252 -49q114 -50 225 -158z" />
    <glyph glyph-name="cacute" unicode="&#x107;" horiz-adv-x="932" 
d="M505 1071l-70 40l189 261l118 -63zM874 787l-78 -78q-108 115 -252 115q-159 0 -258 -110q-90 -99 -90 -259q0 -183 114 -285q98 -86 236 -86q82 0 141 28t116 95l78 -79q-60 -63 -115 -94q-100 -56 -221 -56q-211 0 -346 151q-121 136 -121 326q0 218 155 359
q130 116 313 116q95 0 171 -32q74 -33 157 -111z" />
    <glyph glyph-name="Ccircumflex" unicode="&#x108;" horiz-adv-x="1349" 
d="M753 1660l-191 -179l-81 40l220 241h104l220 -241l-81 -40zM1267 1180l-83 -83q-71 72 -134 109q-118 67 -262 67q-256 0 -422 -187q-151 -169 -151 -405q0 -269 192 -442q163 -147 382 -147q117 0 211.5 42.5t191.5 137.5l82 -83q-82 -82 -163 -128q-146 -83 -319 -83
q-190 0 -351 93t-255 258q-93 165 -93 353q0 187 93 352q94 166 254 260q160 93 350 93q141 0 252 -49q114 -50 225 -158z" />
    <glyph glyph-name="ccircumflex" unicode="&#x109;" horiz-adv-x="932" 
d="M511 1250l-190 -179l-81 40l219 241h105l220 -241l-82 -40zM874 787l-78 -78q-108 115 -252 115q-159 0 -258 -110q-90 -99 -90 -259q0 -183 114 -285q98 -86 236 -86q82 0 141 28t116 95l78 -79q-60 -63 -115 -94q-100 -56 -221 -56q-211 0 -346 151q-121 136 -121 326
q0 218 155 359q130 116 313 116q95 0 171 -32q74 -33 157 -111z" />
    <glyph glyph-name="Cdotaccent" unicode="&#x10a;" horiz-adv-x="1349" 
d="M1267 1180l-83 -83q-71 72 -134 109q-118 67 -262 67q-256 0 -422 -187q-151 -169 -151 -405q0 -269 192 -442q163 -147 382 -147q117 0 211.5 42.5t191.5 137.5l82 -83q-82 -82 -163 -128q-146 -83 -319 -83q-190 0 -351 93t-255 258q-93 165 -93 353q0 187 93 352
q94 166 254 260q160 93 350 93q141 0 252 -49q114 -50 225 -158zM771 1705q35 0 60 -25t25 -60t-25.5 -60.5t-60.5 -25.5t-60 25.5t-25 60.5t25.5 60t60.5 25z" />
    <glyph glyph-name="cdotaccent" unicode="&#x10b;" horiz-adv-x="932" 
d="M874 787l-78 -78q-108 115 -252 115q-159 0 -258 -110q-90 -99 -90 -259q0 -183 114 -285q98 -86 236 -86q82 0 141 28t116 95l78 -79q-60 -63 -115 -94q-100 -56 -221 -56q-211 0 -346 151q-121 136 -121 326q0 218 155 359q130 116 313 116q95 0 171 -32
q74 -33 157 -111zM521 1293q34 0 59 -25t25 -60q0 -36 -25 -61t-61 -25q-35 0 -60 25.5t-25 60.5t25.5 60t61.5 25z" />
    <glyph glyph-name="Ccaron" unicode="&#x10c;" horiz-adv-x="1349" 
d="M481 1730l81 40l191 -179l191 179l81 -40l-220 -241h-104zM1267 1180l-83 -83q-71 72 -134 109q-118 67 -262 67q-256 0 -422 -187q-151 -169 -151 -405q0 -269 192 -442q163 -147 382 -147q117 0 211.5 42.5t191.5 137.5l82 -83q-82 -82 -163 -128q-146 -83 -319 -83
q-190 0 -351 93t-255 258q-93 165 -93 353q0 187 93 352q94 166 254 260q160 93 350 93q141 0 252 -49q114 -50 225 -158z" />
    <glyph glyph-name="ccaron" unicode="&#x10d;" horiz-adv-x="932" 
d="M240 1320l81 41l190 -180l191 180l82 -41l-220 -240h-105zM874 787l-78 -78q-108 115 -252 115q-159 0 -258 -110q-90 -99 -90 -259q0 -183 114 -285q98 -86 236 -86q82 0 141 28t116 95l78 -79q-60 -63 -115 -94q-100 -56 -221 -56q-211 0 -346 151q-121 136 -121 326
q0 218 155 359q130 116 313 116q95 0 171 -32q74 -33 157 -111z" />
    <glyph glyph-name="Dcaron" unicode="&#x10e;" horiz-adv-x="1267" 
d="M322 1730l82 40l190 -179l191 179l81 -40l-219 -241h-105zM171 0v1365h268q249 0 425 -101q146 -84 222 -219q88 -157 88 -361q0 -291 -163 -466q-201 -218 -572 -218h-268zM446 1252h-154v-1139h154q202 0 344 82q122 71 186 184q76 134 76 305q0 238 -137 387
q-166 181 -469 181z" />
    <glyph glyph-name="dcaron" unicode="&#x10f;" horiz-adv-x="1306" 
d="M1107 1091l88 298l115 -35l-124 -287zM991 1365v-1365h-116v149q-133 -171 -340 -171q-201 0 -337 151q-121 136 -121 326q0 218 155 358q130 117 303 117q203 0 340 -171v606h116zM533 824q-147 0 -247 -109q-91 -98 -91 -260q0 -184 116 -286q97 -85 227 -85
q149 0 247 107q91 100 91 270q0 178 -115 280q-92 83 -228 83z" />
    <glyph glyph-name="Dcroat" unicode="&#x110;" horiz-adv-x="1288" 
d="M192 0v683h-127v108h127v574h268q250 0 426 -101q146 -84 222 -219q88 -157 88 -361q0 -291 -163 -466q-203 -218 -573 -218h-268zM648 791v-108h-335v-570h154q203 0 345 82q122 71 186 184q76 134 76 305q0 237 -137 386q-168 182 -470 182h-154v-461h335z" />
    <glyph glyph-name="dslash" unicode="&#x111;" horiz-adv-x="1128" 
d="M991 1080v-1080h-116v149q-133 -171 -339 -171q-201 0 -337 151q-121 136 -121 325q0 219 155 359q129 117 303 117q206 0 339 -171v321h-249v105h249v180h116v-180h126v-105h-126zM534 824q-147 0 -247 -109q-91 -98 -91 -260q0 -184 116 -286q97 -85 227 -85
q150 0 246 107q91 100 91 270q0 177 -114 280q-92 83 -228 83z" />
    <glyph glyph-name="Emacron" unicode="&#x112;" horiz-adv-x="967" 
d="M256 1567v104h533v-104h-533zM854 1365v-112h-562v-504h499v-113h-499v-523h583v-113h-704v1365h683z" />
    <glyph glyph-name="emacron" unicode="&#x113;" horiz-adv-x="1019" 
d="M243 1158v104h533v-104h-533zM941 405h-743q9 -102 61 -182q91 -139 267 -139q188 0 288 162l105 -44q-143 -224 -392 -224q-201 0 -328 145q-121 137 -121 332q0 223 153 364q120 111 283 111q185 0 308 -139q120 -135 120 -352q0 -18 -1 -34zM197 504h629
q-17 126 -75 202q-88 118 -236 118q-128 0 -214 -86q-86 -88 -104 -234z" />
    <glyph glyph-name="Ebreve" unicode="&#x114;" horiz-adv-x="967" 
d="M267 1722l99 8q6 -70 47 -111t107 -41q65 0 106 39.5t52 112.5l100 -8q-13 -92 -64 -154q-75 -90 -193 -90q-110 0 -178 67q-68 65 -76 177zM854 1365v-112h-562v-504h499v-113h-499v-523h583v-113h-704v1365h683z" />
    <glyph glyph-name="ebreve" unicode="&#x115;" horiz-adv-x="1019" 
d="M261 1312l99 8q6 -70 47.5 -111t106.5 -41t106 39.5t53 112.5l99 -8q-13 -92 -64 -154q-75 -90 -193 -90q-110 0 -178 67q-68 65 -76 177zM941 405h-743q9 -102 61 -182q91 -139 267 -139q188 0 288 162l105 -44q-143 -224 -392 -224q-201 0 -328 145q-121 137 -121 332
q0 223 153 364q120 111 283 111q185 0 308 -139q120 -135 120 -352q0 -18 -1 -34zM197 504h629q-17 126 -75 202q-88 118 -236 118q-128 0 -214 -86q-86 -88 -104 -234z" />
    <glyph glyph-name="Edotaccent" unicode="&#x116;" horiz-adv-x="967" 
d="M854 1365v-112h-562v-504h499v-113h-499v-523h583v-113h-704v1365h683zM524 1705q35 0 60 -25.5t25 -59.5q0 -35 -25.5 -60.5t-60.5 -25.5t-60 25.5t-25 60.5t25.5 60t60.5 25z" />
    <glyph glyph-name="edotaccent" unicode="&#x117;" horiz-adv-x="1019" 
d="M941 405h-743q9 -102 61 -182q91 -139 267 -139q188 0 288 162l105 -44q-143 -224 -392 -224q-201 0 -328 145q-121 137 -121 332q0 223 153 364q120 111 283 111q185 0 308 -139q120 -135 120 -352q0 -18 -1 -34zM197 504h629q-17 126 -75 202q-88 118 -236 118
q-128 0 -214 -86q-86 -88 -104 -234zM511 1293q35 0 60 -25t25 -60t-25.5 -60.5t-60.5 -25.5t-60 25t-25 60q0 36 25 61t61 25z" />
    <glyph glyph-name="Eogonek" unicode="&#x118;" horiz-adv-x="967" 
d="M875 113v-113q-73 -83 -73 -138q0 -63 78 -63q29 0 69 14l32 -83q-64 -23 -115 -23q-86 0 -134 53q-36 41 -36 94q0 70 63 146h-588v1365h683v-112h-562v-504h499v-113h-499v-523h583z" />
    <glyph glyph-name="eogonek" unicode="&#x119;" horiz-adv-x="1019" 
d="M570 -19q-56 -70 -56 -119q0 -63 77 -63q29 0 69 14l33 -83q-66 -23 -115 -23q-86 0 -134 53q-36 40 -36 92q0 65 50 132q-106 16 -189 75q-86 62 -136 161q-55 107 -55 235q0 223 153 364q120 111 283 111q185 0 308 -139q120 -135 120 -352q0 -18 -1 -34h-743
q9 -102 61 -182q91 -139 267 -139q188 0 288 162l105 -44q-130 -198 -349 -221zM197 504h629q-17 126 -75 202q-88 118 -236 118q-128 0 -214 -86q-86 -88 -104 -234z" />
    <glyph glyph-name="Ecaron" unicode="&#x11a;" horiz-adv-x="967" 
d="M251 1730l81 40l191 -179l191 179l81 -40l-220 -241h-104zM854 1365v-112h-562v-504h499v-113h-499v-523h583v-113h-704v1365h683z" />
    <glyph glyph-name="ecaron" unicode="&#x11b;" horiz-adv-x="1019" 
d="M238 1320l81 41l191 -180l191 180l81 -41l-220 -240h-104zM941 405h-743q9 -102 61 -182q91 -139 267 -139q188 0 288 162l105 -44q-143 -224 -392 -224q-201 0 -328 145q-121 137 -121 332q0 223 153 364q120 111 283 111q185 0 308 -139q120 -135 120 -352
q0 -18 -1 -34zM197 504h629q-17 126 -75 202q-88 118 -236 118q-128 0 -214 -86q-86 -88 -104 -234z" />
    <glyph glyph-name="Gcircumflex" unicode="&#x11c;" horiz-adv-x="1491" 
d="M757 1660l-191 -179l-81 40l220 241h104l220 -241l-81 -40zM1271 577h-411v112h535v-60q0 -207 -90 -372q-70 -129 -201 -202q-137 -77 -309 -77q-193 0 -353 93q-162 94 -256 259q-93 164 -93 351q0 193 97 360q94 162 250 253q160 93 350 93q142 0 253 -49
q113 -50 224 -158l-82 -83q-69 70 -134 109q-118 67 -263 67q-257 0 -422 -187q-151 -169 -151 -405q0 -165 79 -302q77 -135 210 -211q131 -76 288 -76q267 0 400 205q73 112 79 280z" />
    <glyph glyph-name="gcircumflex" unicode="&#x11d;" horiz-adv-x="1127" 
d="M807 1111l-82 -40l-190 179l-191 -179l-81 40l220 241h104zM875 908h116v-925q0 -237 -145 -366q-131 -116 -327 -116q-123 0 -218 45t-183 145l77 77q60 -70 108 -102q92 -59 213 -59q175 0 271 108q88 97 88 268v15v151q-133 -171 -340 -171q-200 0 -337 152
q-121 134 -121 325q0 218 155 358q130 117 303 117q205 0 340 -171v149zM536 824q-96 0 -176 -49q-165 -99 -165 -320q0 -184 116 -286q97 -85 228 -85q149 0 247 107q91 100 91 269q0 178 -115 281q-92 83 -226 83z" />
    <glyph glyph-name="Gbreve" unicode="&#x11e;" horiz-adv-x="1491" 
d="M538 1722l99 8q6 -70 47 -111t107 -41q65 0 106 39.5t53 112.5l99 -8q-13 -92 -64 -154q-75 -90 -193 -90q-110 0 -178 67q-68 65 -76 177zM1271 577h-411v112h535v-60q0 -207 -90 -372q-70 -129 -201 -202q-137 -77 -309 -77q-193 0 -353 93q-162 94 -256 259
q-93 164 -93 351q0 193 97 360q94 162 250 253q160 93 350 93q142 0 253 -49q113 -50 224 -158l-82 -83q-69 70 -134 109q-118 67 -263 67q-257 0 -422 -187q-151 -169 -151 -405q0 -165 79 -302q77 -135 210 -211q131 -76 288 -76q267 0 400 205q73 112 79 280z" />
    <glyph glyph-name="gbreve" unicode="&#x11f;" horiz-adv-x="1127" 
d="M282 1312l99 8q6 -70 47 -111t107 -41q65 0 106 39.5t53 112.5l99 -8q-13 -92 -64 -154q-75 -90 -193 -90q-110 0 -178 67q-68 65 -76 177zM875 908h116v-925q0 -237 -145 -366q-131 -116 -327 -116q-123 0 -218 45t-183 145l77 77q60 -70 108 -102q92 -59 213 -59
q175 0 271 108q88 97 88 268v15v151q-133 -171 -340 -171q-200 0 -337 152q-121 134 -121 325q0 218 155 358q130 117 303 117q205 0 340 -171v149zM536 824q-96 0 -176 -49q-165 -99 -165 -320q0 -184 116 -286q97 -85 228 -85q149 0 247 107q91 100 91 269q0 178 -115 281
q-92 83 -226 83z" />
    <glyph glyph-name="Gdotaccent" unicode="&#x120;" horiz-adv-x="1491" 
d="M1271 577h-411v112h535v-60q0 -207 -90 -372q-70 -129 -201 -202q-137 -77 -309 -77q-193 0 -353 93q-162 94 -256 259q-93 164 -93 351q0 193 97 360q94 162 250 253q160 93 350 93q142 0 253 -49q113 -50 224 -158l-82 -83q-69 70 -134 109q-118 67 -263 67
q-257 0 -422 -187q-151 -169 -151 -405q0 -165 79 -302q77 -135 210 -211q131 -76 288 -76q267 0 400 205q73 112 79 280zM793 1705q34 0 59 -25.5t25 -59.5q0 -35 -25.5 -60.5t-60.5 -25.5t-60 25.5t-25 60.5t25.5 60t61.5 25z" />
    <glyph glyph-name="gdotaccent" unicode="&#x121;" horiz-adv-x="1127" 
d="M875 908h116v-925q0 -237 -145 -366q-131 -116 -327 -116q-123 0 -218 45t-183 145l77 77q60 -70 108 -102q92 -59 213 -59q175 0 271 108q88 97 88 268v15v151q-133 -171 -340 -171q-200 0 -337 152q-121 134 -121 325q0 218 155 358q130 117 303 117q205 0 340 -171
v149zM536 824q-96 0 -176 -49q-165 -99 -165 -320q0 -184 116 -286q97 -85 228 -85q149 0 247 107q91 100 91 269q0 178 -115 281q-92 83 -226 83zM536 1293q35 0 60 -25t25 -60q0 -36 -25 -61t-61 -25q-35 0 -60 25.5t-25 60.5t25 60t61 25z" />
    <glyph glyph-name="Gcommaaccent" unicode="&#x122;" horiz-adv-x="1491" 
d="M642 -410l88 298l114 -35l-124 -287zM1271 577h-411v112h535v-60q0 -207 -90 -372q-70 -129 -201 -202q-137 -77 -309 -77q-193 0 -353 93q-162 94 -256 259q-93 164 -93 351q0 193 97 360q94 162 250 253q160 93 350 93q142 0 253 -49q113 -50 224 -158l-82 -83
q-69 70 -134 109q-118 67 -263 67q-257 0 -422 -187q-151 -169 -151 -405q0 -165 79 -302q77 -135 210 -211q131 -76 288 -76q267 0 400 205q73 112 79 280z" />
    <glyph glyph-name="gcommaaccent" unicode="&#x123;" horiz-adv-x="1127" 
d="M691 1348l-88 -298l-115 35l124 288zM875 908h116v-925q0 -237 -145 -366q-131 -116 -327 -116q-123 0 -218 45t-183 145l77 77q60 -70 108 -102q92 -59 213 -59q175 0 271 108q88 97 88 268v15v151q-133 -171 -340 -171q-200 0 -337 152q-121 134 -121 325
q0 218 155 358q130 117 303 117q205 0 340 -171v149zM536 824q-96 0 -176 -49q-165 -99 -165 -320q0 -184 116 -286q97 -85 228 -85q149 0 247 107q91 100 91 269q0 178 -115 281q-92 83 -226 83z" />
    <glyph glyph-name="Hcircumflex" unicode="&#x124;" horiz-adv-x="1331" 
d="M666 1660l-191 -179l-81 40l220 241h104l220 -241l-81 -40zM292 1365v-616h748v616h121v-1365h-121v636h-748v-636h-121v1365h121z" />
    <glyph glyph-name="hcircumflex" unicode="&#x125;" horiz-adv-x="1044" 
d="M529 1660l-191 -179l-81 40l220 241h104l220 -241l-82 -40zM252 1365v-582q102 147 291 147q148 0 247 -87q63 -55 90.5 -137t27.5 -213v-493h-116v475q0 154 -41 231q-29 52 -81 80q-62 33 -138 33q-78 0 -142 -33t-95 -89q-43 -76 -43 -243v-454h-116v1365h116z" />
    <glyph glyph-name="Hbar" unicode="&#x126;" horiz-adv-x="1343" 
d="M1166 1185h125v-105h-125v-1080h-121v636h-748v-636h-121v1080h-125v105h125v180h121v-180h748v180h121v-180zM1045 749v331h-748v-331h748z" />
    <glyph glyph-name="hbar" unicode="&#x127;" horiz-adv-x="1045" 
d="M12 1185h125v180h116v-180h250v-105h-250v-297q103 147 292 147q147 0 246 -87q63 -55 90.5 -137t27.5 -213v-493h-116v475q0 154 -41 231q-29 52 -81 80q-61 33 -138 33q-76 0 -140.5 -33t-95.5 -89q-44 -77 -44 -243v-454h-116v1080h-125v105z" />
    <glyph glyph-name="Itilde" unicode="&#x128;" horiz-adv-x="463" 
d="M59 1533l-91 21q24 151 147 151q49 0 138 -42q57 -27 96 -27q45 0 55 70l92 -22q-20 -150 -146 -150q-59 0 -134 37q-64 32 -98 32q-43 0 -59 -70zM171 1365h121v-1365h-121v1365z" />
    <glyph glyph-name="itilde" unicode="&#x129;" horiz-adv-x="390" 
d="M22 1123l-91 22q24 150 147 150q50 0 138 -42q57 -27 96 -27q45 0 55 70l92 -21q-19 -151 -146 -151q-59 0 -134 37q-64 32 -98 32q-43 0 -59 -70zM137 908h116v-908h-116v908z" />
    <glyph glyph-name="Imacron" unicode="&#x12a;" horiz-adv-x="463" 
d="M-35 1567v104h533v-104h-533zM171 1365h121v-1365h-121v1365z" />
    <glyph glyph-name="imacron" unicode="&#x12b;" horiz-adv-x="390" 
d="M-72 1158v104h533v-104h-533zM137 908h116v-908h-116v908z" />
    <glyph glyph-name="Ibreve" unicode="&#x12c;" horiz-adv-x="463" 
d="M171 1365h121v-1365h-121v1365zM-24 1722l99 8q6 -70 47 -111t107 -41q64 0 105.5 39.5t53.5 112.5l99 -8q-13 -92 -64 -154q-75 -90 -193 -90q-110 0 -178 67q-68 65 -76 177z" />
    <glyph glyph-name="ibreve" unicode="&#x12d;" horiz-adv-x="390" 
d="M138 908h116v-908h-116v908zM-60 1312l99 8q6 -70 47 -111t107 -41q64 0 105.5 39.5t53.5 112.5l99 -8q-13 -92 -64 -154q-75 -90 -193 -90q-110 0 -178 67q-68 65 -76 177z" />
    <glyph glyph-name="Iogonek" unicode="&#x12e;" horiz-adv-x="463" 
d="M365 -187l33 -83q-64 -23 -115 -23q-86 0 -134 53q-36 40 -36 93q0 68 62 147h-5v1365h121v-1365q-72 -86 -72 -138q0 -63 77 -63q29 0 69 14z" />
    <glyph glyph-name="iogonek" unicode="&#x12f;" horiz-adv-x="390" 
d="M327 -187l32 -83q-64 -23 -114 -23q-87 0 -135 53q-36 40 -36 94q0 72 63 146v908h116v-908q-72 -86 -72 -138q0 -63 77 -63q29 0 69 14zM196 1295q35 0 60 -25.5t25 -61.5t-25.5 -61.5t-60.5 -25.5q-36 0 -61.5 26t-25.5 62t25.5 61t62.5 25z" />
    <glyph glyph-name="Idot" unicode="&#x130;" horiz-adv-x="463" 
d="M171 1365h121v-1365h-121v1365zM233 1705q34 0 59 -25.5t25 -59.5q0 -35 -25.5 -60.5t-60.5 -25.5t-60 25.5t-25 60.5t25.5 60t61.5 25z" />
    <glyph glyph-name="dotlessi" unicode="&#x131;" horiz-adv-x="390" 
d="M137 908h116v-908h-116v908z" />
    <glyph glyph-name="IJ" unicode="&#x132;" horiz-adv-x="1255" 
d="M171 1365h121v-1365h-121v1365zM963 1365h121v-960q0 -181 -57 -282q-36 -64 -104 -102q-74 -43 -167 -43q-81 0 -147 31q-69 30 -150 103l74 87q118 -107 220 -107q108 0 159 76.5t51 236.5v960z" />
    <glyph glyph-name="ij" unicode="&#x133;" 
d="M137 908h116v-908h-116v908zM196 1295q35 0 60 -25.5t25 -61.5t-25.5 -61.5t-60.5 -25.5q-36 0 -61.5 26t-25.5 62t25.5 61t62.5 25zM371 -478v106q35 -9 59 -9q56 0 82.5 42t26.5 131v1116h116v-1116q0 -171 -73 -235q-55 -47 -130 -47q-36 0 -81 12zM598 1295
q35 0 60 -25.5t25 -61.5t-25.5 -61.5t-61.5 -25.5q-35 0 -60.5 25.5t-25.5 61.5t25.5 61.5t62.5 25.5z" />
    <glyph glyph-name="Jcircumflex" unicode="&#x134;" horiz-adv-x="809" 
d="M499 1660l-191 -179l-81 40l220 241h104l220 -241l-81 -40zM518 1365h121v-960q0 -181 -57 -282q-38 -65 -105 -102q-74 -43 -167 -43q-80 0 -146 31q-69 30 -150 103l73 87q118 -107 221 -107q107 0 158.5 76.5t51.5 236.5v960z" />
    <glyph glyph-name="jcircumflex" unicode="&#x135;" horiz-adv-x="409" 
d="M182 1250l-191 -179l-81 40l220 241h104l220 -241l-81 -40zM-13 -478v106q35 -9 59 -9q56 0 83 42t27 131v1116h116v-1116q0 -171 -73 -235q-55 -47 -131 -47q-36 0 -81 12z" />
    <glyph glyph-name="Kcommaaccent" unicode="&#x136;" horiz-adv-x="1146" 
d="M501 -410l88 298l115 -35l-124 -287zM1105 1365l-509 -561l530 -804h-142l-469 715l-223 -246v-469h-121v1365h121v-739l668 739h145z" />
    <glyph glyph-name="kcommaaccent" unicode="&#x137;" horiz-adv-x="938" 
d="M362 -410l88 298l114 -35l-124 -287zM726 908h148l-366 -364l420 -544h-143l-354 466l-179 -178v-288h-116v1365h116v-933z" />
    <glyph glyph-name="kgreenlandic" unicode="&#x138;" horiz-adv-x="938" 
d="M726 908h148l-366 -364l420 -544h-143l-354 466l-179 -178v-288h-116v908h116v-476z" />
    <glyph glyph-name="Lacute" unicode="&#x139;" horiz-adv-x="865" 
d="M240 1481l-70 40l189 261l118 -64zM171 0v1365h121v-1252h541v-113h-662z" />
    <glyph glyph-name="lacute" unicode="&#x13a;" horiz-adv-x="391" 
d="M205 1505l-70 40l189 261l118 -64zM254 1365v-1365h-116v1365h116z" />
    <glyph glyph-name="Lcommaaccent" unicode="&#x13b;" horiz-adv-x="865" 
d="M400 -410l88 298l115 -35l-124 -287zM171 0v1365h121v-1252h541v-113h-662z" />
    <glyph glyph-name="lcommaaccent" unicode="&#x13c;" horiz-adv-x="390" 
d="M58 -410l88 298l115 -35l-124 -287zM253 1365v-1365h-116v1365h116z" />
    <glyph glyph-name="Lcaron" unicode="&#x13d;" horiz-adv-x="865" 
d="M524 1091l89 298l114 -35l-124 -287zM171 0v1365h121v-1252h541v-113h-662z" />
    <glyph glyph-name="lcaron" unicode="&#x13e;" horiz-adv-x="568" 
d="M370 1091l88 298l114 -35l-124 -287zM254 1365v-1365h-116v1365h116z" />
    <glyph glyph-name="Ldot" unicode="&#x13f;" horiz-adv-x="865" 
d="M171 0v1365h121v-1252h541v-113h-662zM644 767q34 0 58.5 -25t24.5 -59q0 -35 -24.5 -60t-59.5 -25t-60 25t-25 60t25.5 59.5t60.5 24.5z" />
    <glyph glyph-name="ldot" unicode="&#x140;" horiz-adv-x="649" 
d="M138 1365h116v-1365h-116v1365zM521 767q34 0 58.5 -25t24.5 -59q0 -35 -24.5 -60t-59.5 -25t-60 25t-25 60t25 59.5t61 24.5z" />
    <glyph glyph-name="Lslash" unicode="&#x141;" horiz-adv-x="898" 
d="M204 0v608l-139 -95v122l139 95v635h121v-578l237 161v-121l-237 -162v-552h541v-113h-662z" />
    <glyph glyph-name="lslash" unicode="&#x142;" horiz-adv-x="500" 
d="M442 907v-124l-134 -91v-692h-116v615l-134 -91v125l134 90v626h116v-548z" />
    <glyph glyph-name="Nacute" unicode="&#x143;" horiz-adv-x="1456" 
d="M746 1481l-70 40l190 261l117 -64zM1165 0l-873 1178v-1178h-121v1365h122l872 -1178v1178h121v-1365h-121z" />
    <glyph glyph-name="nacute" unicode="&#x144;" horiz-adv-x="1044" 
d="M544 1071l-71 40l190 261l117 -63zM136 908h116v-125q102 147 291 147q148 0 247 -87q63 -55 90.5 -137t27.5 -213v-493h-116v475q0 154 -41 231q-29 52 -81 80q-62 33 -138 33q-78 0 -142 -33t-95 -89q-43 -76 -43 -243v-454h-116v908z" />
    <glyph glyph-name="Ncommaaccent" unicode="&#x145;" horiz-adv-x="1456" 
d="M626 -410l89 298l114 -35l-124 -287zM1165 0l-873 1178v-1178h-121v1365h122l872 -1178v1178h121v-1365h-121z" />
    <glyph glyph-name="ncommaaccent" unicode="&#x146;" horiz-adv-x="1044" 
d="M420 -410l88 298l115 -35l-124 -287zM136 908h116v-125q102 147 291 147q148 0 247 -87q63 -55 90.5 -137t27.5 -213v-493h-116v475q0 154 -41 231q-29 52 -81 80q-62 33 -138 33q-78 0 -142 -33t-95 -89q-43 -76 -43 -243v-454h-116v908z" />
    <glyph glyph-name="Ncaron" unicode="&#x147;" horiz-adv-x="1456" 
d="M491 1730l81 40l191 -179l190 179l82 -40l-220 -241h-104zM1165 0l-873 1178v-1178h-121v1365h122l872 -1178v1178h121v-1365h-121z" />
    <glyph glyph-name="ncaron" unicode="&#x148;" horiz-adv-x="1044" 
d="M260 1320l81 41l191 -180l191 180l81 -41l-219 -240h-105zM136 908h116v-125q102 147 291 147q148 0 247 -87q63 -55 90.5 -137t27.5 -213v-493h-116v475q0 154 -41 231q-29 52 -81 80q-62 33 -138 33q-78 0 -142 -33t-95 -89q-43 -76 -43 -243v-454h-116v908z" />
    <glyph glyph-name="napostrophe" unicode="&#x149;" horiz-adv-x="1198" 
d="M81 858l-74 29l161 447l108 -40zM290 908h116v-125q104 147 291 147q148 0 247 -87q63 -55 90.5 -137t27.5 -213v-493h-116v475q0 154 -41 231q-29 52 -81 80q-62 33 -138 33q-78 0 -142 -33t-95 -89q-43 -76 -43 -243v-454h-116v908z" />
    <glyph glyph-name="Eng" unicode="&#x14a;" horiz-adv-x="1456" 
d="M1165 1365h121v-1387q0 -170 -73 -234q-54 -48 -130 -48q-36 0 -81 13v105q36 -9 59 -9q56 0 83 42t27 131v24h-8l-871 1176v-1178h-121v1365h122l872 -1178v1178z" />
    <glyph glyph-name="eng" unicode="&#x14b;" horiz-adv-x="1044" 
d="M252 454v-454h-116v908h116v-125q104 147 291 147q148 0 247 -87q63 -55 90.5 -137t27.5 -213v-515q0 -170 -73 -234q-55 -48 -130 -48q-36 0 -81 13v105q34 -9 59 -9q56 0 82.5 42t26.5 131v497q0 154 -41 231q-29 52 -81 80q-62 33 -138 33q-78 0 -142 -33t-95 -89
q-43 -76 -43 -243z" />
    <glyph glyph-name="Omacron" unicode="&#x14c;" horiz-adv-x="1567" 
d="M517 1567v104h533v-104h-533zM783 1387q183 0 341 -93q164 -98 256 -260q94 -163 94 -352t-94 -353q-94 -163 -259 -259q-160 -92 -337 -92q-246 0 -439 163q-96 81 -158 188q-94 166 -94 363q0 185 94 342q101 168 257 260q159 93 339 93zM779 1273q-242 0 -412 -189
q-152 -170 -152 -412q0 -155 79 -291q78 -135 214 -213q130 -76 275 -76q146 0 276 76q138 79 214 213q79 137 79 301q0 268 -194 445q-160 146 -379 146z" />
    <glyph glyph-name="omacron" unicode="&#x14d;" horiz-adv-x="1082" 
d="M274 1158v104h533v-104h-533zM549 930q198 0 334 -151q121 -134 121 -324q0 -219 -155 -360q-129 -117 -308 -117q-207 0 -342 151q-121 136 -121 330q0 213 155 354q129 117 316 117zM538 824q-97 0 -177 -49q-76 -46 -116 -119q-49 -89 -49 -201q0 -182 116 -286
q95 -85 229 -85q155 0 254 109q91 100 91 264q0 180 -115 282q-95 85 -233 85z" />
    <glyph glyph-name="Obreve" unicode="&#x14e;" horiz-adv-x="1567" 
d="M528 1722l99 8q5 -70 46.5 -111t107.5 -41q64 0 105.5 39.5t52.5 112.5l99 -8q-13 -94 -63 -154q-75 -90 -193 -90q-110 0 -178 67q-68 65 -76 177zM783 1387q183 0 341 -93q164 -98 256 -260q94 -163 94 -352t-94 -353q-94 -163 -259 -259q-160 -92 -337 -92
q-246 0 -439 163q-96 81 -158 188q-94 166 -94 363q0 185 94 342q101 168 257 260q159 93 339 93zM779 1273q-242 0 -412 -189q-152 -170 -152 -412q0 -155 79 -291q78 -135 214 -213q130 -76 275 -76q146 0 276 76q138 79 214 213q79 137 79 301q0 268 -194 445
q-160 146 -379 146z" />
    <glyph glyph-name="obreve" unicode="&#x14f;" horiz-adv-x="1082" 
d="M285 1312l100 8q5 -70 46.5 -111t106.5 -41t106 39.5t53 112.5l99 -8q-13 -92 -64 -154q-75 -90 -193 -90q-109 0 -177 67q-70 67 -77 177zM549 930q198 0 334 -151q121 -134 121 -324q0 -219 -155 -360q-129 -117 -308 -117q-207 0 -342 151q-121 136 -121 330
q0 213 155 354q129 117 316 117zM538 824q-97 0 -177 -49q-76 -46 -116 -119q-49 -89 -49 -201q0 -182 116 -286q95 -85 229 -85q155 0 254 109q91 100 91 264q0 180 -115 282q-95 85 -233 85z" />
    <glyph glyph-name="Ohungarumlaut" unicode="&#x150;" horiz-adv-x="1567" 
d="M864 1521l190 260l111 -62l-237 -238zM577 1521l190 260l111 -62l-236 -238zM783 1387q183 0 341 -93q164 -98 256 -260q94 -163 94 -352t-94 -353q-94 -163 -259 -259q-160 -92 -337 -92q-246 0 -439 163q-96 81 -158 188q-94 166 -94 363q0 185 94 342q101 168 257 260
q159 93 339 93zM779 1273q-242 0 -412 -189q-152 -170 -152 -412q0 -155 79 -291q78 -135 214 -213q130 -76 275 -76q146 0 276 76q138 79 214 213q79 137 79 301q0 268 -194 445q-160 146 -379 146z" />
    <glyph glyph-name="ohungarumlaut" unicode="&#x151;" horiz-adv-x="1082" 
d="M355 1111l190 261l111 -63l-237 -238zM642 1111l190 261l111 -63l-237 -238zM549 930q198 0 334 -151q121 -134 121 -324q0 -219 -155 -360q-129 -117 -308 -117q-207 0 -342 151q-121 136 -121 330q0 213 155 354q129 117 316 117zM538 824q-97 0 -177 -49
q-76 -46 -116 -119q-49 -89 -49 -201q0 -182 116 -286q95 -85 229 -85q155 0 254 109q91 100 91 264q0 180 -115 282q-95 85 -233 85z" />
    <glyph glyph-name="OE" unicode="&#x152;" horiz-adv-x="2148" 
d="M2056 0h-704v295q-59 -90 -139 -158q-189 -159 -430 -159q-177 0 -337 92q-164 95 -259 259q-94 163 -94 353q0 189 94 352q96 166 257 259q160 94 339 94q168 0 317 -82q157 -86 252 -236v296h683v-112h-562v-504h499v-113h-499v-523h583v-113zM780 1273
q-243 0 -413 -189q-152 -170 -152 -412q0 -155 79 -291q78 -135 214 -213q130 -76 275 -76q146 0 276 76q138 79 214 213q79 137 79 301q0 267 -194 446q-158 145 -378 145z" />
    <glyph glyph-name="oe" unicode="&#x153;" horiz-adv-x="1828" 
d="M944 689q46 86 109 140q116 101 268 101q186 0 309 -139q56 -63 88 -157t32 -195v-34h-744q11 -103 62 -181q90 -140 266 -140q188 0 289 162l104 -44q-143 -224 -393 -224q-127 0 -230 64t-160 179q-41 -78 -105 -133q-128 -110 -297 -110q-208 0 -343 151
q-121 136 -121 325q0 219 155 359q129 117 309 117q127 0 234 -64t168 -177zM538 824q-97 0 -177 -49q-165 -99 -165 -320q0 -182 116 -286q95 -85 229 -85q155 0 254 109q91 100 91 264q0 180 -115 282q-95 85 -233 85zM1006 504h629q-16 124 -75 202q-88 118 -237 118
q-128 0 -214 -86q-87 -88 -103 -234z" />
    <glyph glyph-name="Racute" unicode="&#x154;" horiz-adv-x="1078" 
d="M511 1481l-70 40l189 261l117 -64zM171 0v1365h268q202 0 307 -60q84 -48 135 -135q56 -95 56 -210q0 -127 -65.5 -222.5t-181.5 -139.5l330 -598h-136l-313 572q-80 -7 -132 -7h-147v-565h-121zM292 1253v-577h166q151 0 231 46q129 74 129 237q0 81 -35.5 147.5
t-98.5 101.5q-80 45 -226 45h-166z" />
    <glyph glyph-name="racute" unicode="&#x155;" horiz-adv-x="592" 
d="M283 1071l-71 40l190 261l118 -63zM136 0v908h116v-125q87 126 263 126q7 0 29 -2v-104q-14 1 -27 1q-160 0 -222 -113q-24 -45 -33 -99q-10 -53 -10 -152v-440h-116z" />
    <glyph glyph-name="Rcommaaccent" unicode="&#x156;" horiz-adv-x="1078" 
d="M459 -410l88 298l115 -35l-124 -287zM171 0v1365h268q202 0 307 -60q84 -48 135 -135q56 -95 56 -210q0 -127 -65.5 -222.5t-181.5 -139.5l330 -598h-136l-313 572q-80 -7 -132 -7h-147v-565h-121zM292 1253v-577h166q151 0 231 46q129 74 129 237q0 81 -35.5 147.5
t-98.5 101.5q-80 45 -226 45h-166z" />
    <glyph glyph-name="rcommaaccent" unicode="&#x157;" horiz-adv-x="592" 
d="M60 -410l88 298l115 -35l-124 -287zM135 0v908h116v-125q87 126 263 126q7 0 29 -2v-104q-14 1 -27 1q-160 0 -222 -113q-43 -79 -43 -251v-440h-116z" />
    <glyph glyph-name="Rcaron" unicode="&#x158;" horiz-adv-x="1078" 
d="M252 1730l81 40l191 -179l190 179l82 -40l-220 -241h-104zM171 0v1365h268q202 0 307 -60q84 -48 135 -135q56 -95 56 -210q0 -127 -65.5 -222.5t-181.5 -139.5l330 -598h-136l-313 572q-80 -7 -132 -7h-147v-565h-121zM292 1253v-577h166q151 0 231 46q129 74 129 237
q0 81 -35.5 147.5t-98.5 101.5q-80 45 -226 45h-166z" />
    <glyph glyph-name="rcaron" unicode="&#x159;" horiz-adv-x="581" 
d="M68 1320l81 41l191 -180l191 180l81 -41l-220 -240h-104zM136 0v908h116v-125q87 126 263 126q7 0 29 -2v-104q-14 1 -27 1q-160 0 -222 -113q-43 -79 -43 -251v-440h-116z" />
    <glyph glyph-name="Sacute" unicode="&#x15a;" horiz-adv-x="1025" 
d="M528 1481l-70 40l189 261l118 -64zM879 1190l-96 -63q-103 148 -258 148q-128 0 -203 -86q-64 -71 -64 -163q0 -152 213 -235l136 -53q199 -76 267 -186q46 -73 46 -169q0 -180 -133 -298q-119 -107 -290 -107q-154 0 -260.5 86t-147.5 243l117 33q29 -100 77 -154
q85 -94 217 -94q137 0 224 97q74 83 74 193q0 88 -57 147q-60 60 -196 113l-130 52q-169 66 -230 166q-46 73 -46 167q0 159 115 261q112 99 276 99q221 0 349 -197z" />
    <glyph glyph-name="sacute" unicode="&#x15b;" horiz-adv-x="754" 
d="M370 1071l-70 40l189 261l118 -63zM644 781l-94 -49q-37 52 -75 74t-92 22q-73 0 -120 -41q-48 -41 -48 -104q0 -59 40 -95q26 -25 129 -65l92 -35q105 -41 152.5 -95.5t47.5 -132.5q0 -122 -90 -204q-86 -78 -215 -78q-107 0 -180.5 52.5t-122.5 163.5l101 43
q43 -85 90 -120q46 -34 117 -34q91 0 142 58q42 49 42 110q0 59 -40 96q-30 27 -134 67l-100 40q-180 70 -180 222q0 112 81 182q84 72 200 72q162 0 257 -149z" />
    <glyph glyph-name="Scircumflex" unicode="&#x15c;" horiz-adv-x="1025" 
d="M503 1660l-191 -179l-81 40l220 241h105l219 -241l-81 -40zM879 1190l-96 -63q-103 148 -258 148q-128 0 -203 -86q-64 -71 -64 -163q0 -152 213 -235l136 -53q199 -76 267 -186q46 -73 46 -169q0 -180 -133 -298q-119 -107 -290 -107q-154 0 -260.5 86t-147.5 243
l117 33q29 -100 77 -154q85 -94 217 -94q137 0 224 97q74 83 74 193q0 88 -57 147q-60 60 -196 113l-130 52q-169 66 -230 166q-46 73 -46 167q0 159 115 261q112 99 276 99q221 0 349 -197z" />
    <glyph glyph-name="scircumflex" unicode="&#x15d;" horiz-adv-x="754" 
d="M644 1111l-81 -40l-191 179l-191 -179l-81 40l220 241h105zM644 781l-94 -49q-37 52 -75 74t-92 22q-73 0 -120 -41q-48 -41 -48 -104q0 -59 40 -95q26 -25 129 -65l92 -35q105 -41 152.5 -95.5t47.5 -132.5q0 -122 -90 -204q-86 -78 -215 -78q-107 0 -180.5 52.5
t-122.5 163.5l101 43q43 -85 90 -120q46 -34 117 -34q91 0 142 58q42 49 42 110q0 59 -40 96q-30 27 -134 67l-100 40q-180 70 -180 222q0 112 81 182q84 72 200 72q162 0 257 -149z" />
    <glyph glyph-name="Scedilla" unicode="&#x15e;" horiz-adv-x="1025" 
d="M527 -112l109 -47l-190 -241l-78 39zM879 1190l-96 -63q-103 148 -258 148q-128 0 -203 -86q-64 -71 -64 -163q0 -152 213 -235l136 -53q199 -76 267 -186q46 -73 46 -169q0 -180 -133 -298q-119 -107 -290 -107q-154 0 -260.5 86t-147.5 243l117 33q29 -100 77 -154
q85 -94 217 -94q137 0 224 97q74 83 74 193q0 88 -57 147q-60 60 -196 113l-130 52q-169 66 -230 166q-46 73 -46 167q0 159 115 261q112 99 276 99q221 0 349 -197z" />
    <glyph glyph-name="scedilla" unicode="&#x15f;" horiz-adv-x="754" 
d="M379 -112l109 -47l-190 -241l-77 39zM644 781l-94 -49q-37 52 -75 74t-92 22q-73 0 -120 -41q-48 -41 -48 -104q0 -59 40 -95q26 -25 129 -65l92 -35q105 -41 152.5 -95.5t47.5 -132.5q0 -122 -90 -204q-86 -78 -215 -78q-107 0 -180.5 52.5t-122.5 163.5l101 43
q43 -85 90 -120q46 -34 117 -34q91 0 142 58q42 49 42 110q0 59 -40 96q-30 27 -134 67l-100 40q-180 70 -180 222q0 112 81 182q84 72 200 72q162 0 257 -149z" />
    <glyph glyph-name="Scaron" unicode="&#x160;" horiz-adv-x="1025" 
d="M231 1730l81 40l191 -179l191 179l81 -40l-219 -241h-105zM879 1190l-96 -63q-103 148 -258 148q-128 0 -203 -86q-64 -71 -64 -163q0 -152 213 -235l136 -53q199 -76 267 -186q46 -73 46 -169q0 -180 -133 -298q-119 -107 -290 -107q-154 0 -260.5 86t-147.5 243l117 33
q29 -100 77 -154q85 -94 217 -94q137 0 224 97q74 83 74 193q0 88 -57 147q-60 60 -196 113l-130 52q-169 66 -230 166q-46 73 -46 167q0 159 115 261q112 99 276 99q221 0 349 -197z" />
    <glyph glyph-name="scaron" unicode="&#x161;" horiz-adv-x="754" 
d="M100 1320l81 41l191 -180l191 180l81 -41l-219 -240h-105zM644 781l-94 -49q-37 52 -75 74t-92 22q-73 0 -120 -41q-48 -41 -48 -104q0 -59 40 -95q26 -25 129 -65l92 -35q105 -41 152.5 -95.5t47.5 -132.5q0 -122 -90 -204q-86 -78 -215 -78q-107 0 -180.5 52.5
t-122.5 163.5l101 43q43 -85 90 -120q46 -34 117 -34q91 0 142 58q42 49 42 110q0 59 -40 96q-30 27 -134 67l-100 40q-180 70 -180 222q0 112 81 182q84 72 200 72q162 0 257 -149z" />
    <glyph glyph-name="Tcommaaccent" unicode="&#x162;" horiz-adv-x="884" 
d="M308 -410l88 298l114 -35l-124 -287zM863 1253h-361v-1253h-121v1253h-361v112h843v-112z" />
    <glyph glyph-name="tcommaaccent" unicode="&#x163;" horiz-adv-x="496" 
d="M144 -410l88 298l115 -35l-124 -287zM157 270v533h-106v105h106v227l116 46v-273h154v-105h-154v-533q0 -90 26.5 -132t82.5 -42q24 0 59 9v-105q-45 -13 -82 -13q-87 0 -142 61q-60 64 -60 222z" />
    <glyph glyph-name="Tcaron" unicode="&#x164;" horiz-adv-x="884" 
d="M170 1730l81 40l191 -179l190 179l82 -40l-220 -241h-105zM863 1253h-361v-1253h-121v1253h-361v112h843v-112z" />
    <glyph glyph-name="tcaron" unicode="&#x165;" horiz-adv-x="599" 
d="M400 1091l88 298l115 -35l-124 -287zM157 270v533h-106v105h106v223l116 46v-269h154v-105h-154v-533q0 -90 26.5 -132t82.5 -42q24 0 59 9v-105q-45 -13 -82 -13q-87 0 -142 61q-60 64 -60 222z" />
    <glyph glyph-name="Tbar" unicode="&#x166;" horiz-adv-x="884" 
d="M502 1253v-345h209v-105h-209v-803h-121v803h-208v105h208v345h-361v112h843v-112h-361z" />
    <glyph glyph-name="tbar" unicode="&#x167;" horiz-adv-x="496" 
d="M157 908v223l116 46v-269h154v-100h-154v-162h154v-100h-154v-276q0 -90 26.5 -132t82.5 -42q26 0 59 10v-106q-45 -13 -82 -13q-87 0 -142 61q-60 64 -60 222v276h-106v100h106v162h-106v100h106z" />
    <glyph glyph-name="Utilde" unicode="&#x168;" horiz-adv-x="1300" 
d="M477 1533l-90 21q22 151 147 151q48 0 137 -42q59 -27 96 -27q44 0 56 70l92 -22q-18 -150 -147 -150q-58 0 -133 37q-64 32 -99 32q-43 0 -59 -70zM171 1365h121v-848q0 -108 10 -161q11 -60 35 -101q38 -66 116 -110q92 -53 198 -53q143 0 250 90q64 53 86 123
q22 67 22 212v848h121v-890q0 -171 -57 -268q-57 -99 -163 -160q-120 -69 -260 -69q-194 0 -334 123q-78 66 -112 154q-33 86 -33 220v890z" />
    <glyph glyph-name="utilde" unicode="&#x169;" horiz-adv-x="1044" 
d="M349 1123l-91 22q24 150 147 150q49 0 138 -42q59 -27 96 -27q44 0 56 70l91 -21q-19 -151 -146 -151q-59 0 -133 37q-66 32 -99 32q-43 0 -59 -70zM908 0h-116v125q-104 -147 -291 -147q-148 0 -247 87q-63 55 -90.5 137t-27.5 213v493h116v-475q0 -154 41 -231
q29 -52 81 -80q62 -33 138 -33q78 0 142 33t95 89q43 76 43 243v454h116v-908z" />
    <glyph glyph-name="Umacron" unicode="&#x16a;" horiz-adv-x="1300" 
d="M384 1567v104h533v-104h-533zM171 1365h121v-848q0 -108 10 -161q11 -60 35 -101q38 -66 116 -110q92 -53 198 -53q143 0 250 90q64 53 86 123q22 67 22 212v848h121v-890q0 -171 -57 -268q-57 -99 -163 -160q-120 -69 -260 -69q-194 0 -334 123q-78 66 -112 154
q-33 86 -33 220v890z" />
    <glyph glyph-name="umacron" unicode="&#x16b;" horiz-adv-x="1044" 
d="M255 1158v104h533v-104h-533zM908 0h-116v125q-104 -147 -291 -147q-148 0 -247 87q-63 55 -90.5 137t-27.5 213v493h116v-475q0 -154 41 -231q29 -52 81 -80q62 -33 138 -33q78 0 142 33t95 89q43 76 43 243v454h116v-908z" />
    <glyph glyph-name="Ubreve" unicode="&#x16c;" horiz-adv-x="1300" 
d="M395 1722l99 8q5 -70 46.5 -111t107.5 -41q64 0 105 39.5t53 112.5l99 -8q-13 -94 -63 -154q-76 -90 -194 -90q-109 0 -177 67q-68 65 -76 177zM171 1365h121v-848q0 -108 10 -161q11 -60 35 -101q38 -66 116 -110q92 -53 198 -53q143 0 250 90q64 53 86 123
q22 67 22 212v848h121v-890q0 -171 -57 -268q-57 -99 -163 -160q-120 -69 -260 -69q-194 0 -334 123q-78 66 -112 154q-33 86 -33 220v890z" />
    <glyph glyph-name="ubreve" unicode="&#x16d;" horiz-adv-x="1044" 
d="M266 1312l99 8q6 -70 47 -111t107 -41q65 0 106 39.5t53 112.5l99 -8q-13 -92 -64 -154q-75 -90 -193 -90q-109 0 -177 67q-69 65 -77 177zM908 0h-116v125q-104 -147 -291 -147q-148 0 -247 87q-63 55 -90.5 137t-27.5 213v493h116v-475q0 -154 41 -231q29 -52 81 -80
q62 -33 138 -33q78 0 142 33t95 89q43 76 43 243v454h116v-908z" />
    <glyph glyph-name="Uring" unicode="&#x16e;" horiz-adv-x="1300" 
d="M171 1365h121v-848q0 -108 10 -161q11 -60 35 -101q38 -66 116 -110q92 -53 198 -53q143 0 250 90q64 53 86 123q22 67 22 212v848h121v-890q0 -171 -57 -268q-57 -99 -163 -160q-120 -69 -260 -69q-194 0 -334 123q-78 66 -112 154q-33 86 -33 220v890zM650 1786
q76 0 129 -56q42 -46 42 -110q0 -74 -55 -123q-50 -44 -117 -44q-75 0 -126 56q-43 49 -43 113q0 66 51 116q50 48 119 48zM650 1726q-44 0 -74.5 -31.5t-30.5 -76.5q0 -42 31 -73t74 -31q44 0 75 31t31 75t-31 75t-75 31z" />
    <glyph glyph-name="uring" unicode="&#x16f;" horiz-adv-x="1044" 
d="M522 1376q76 0 129 -56q42 -46 42 -110q0 -74 -55 -123q-50 -44 -117 -44q-75 0 -126 56q-43 47 -43 113t51 116q49 48 119 48zM522 1316q-44 0 -74.5 -31.5t-30.5 -76.5q0 -42 32 -74q31 -31 73 -31q44 0 75 31t31 76q0 44 -31 75t-75 31zM908 0h-116v125
q-104 -147 -291 -147q-148 0 -247 87q-63 55 -90.5 137t-27.5 213v493h116v-475q0 -154 41 -231q29 -52 81 -80q62 -33 138 -33q78 0 142 33t95 89q43 76 43 243v454h116v-908z" />
    <glyph glyph-name="Uhungarumlaut" unicode="&#x170;" horiz-adv-x="1300" 
d="M710 1521l190 260l111 -62l-237 -238zM424 1521l189 260l112 -62l-237 -238zM171 1365h121v-848q0 -108 10 -161q11 -60 35 -101q38 -66 116 -110q92 -53 198 -53q143 0 250 90q64 53 86 123q22 67 22 212v848h121v-890q0 -171 -57 -268q-57 -99 -163 -160
q-120 -69 -260 -69q-194 0 -334 123q-78 66 -112 154q-33 86 -33 220v890z" />
    <glyph glyph-name="uhungarumlaut" unicode="&#x171;" horiz-adv-x="1044" 
d="M592 1111l190 261l111 -63l-237 -238zM306 1111l189 261l111 -63l-236 -238zM908 0h-116v125q-104 -147 -291 -147q-148 0 -247 87q-63 55 -90.5 137t-27.5 213v493h116v-475q0 -154 41 -231q29 -52 81 -80q62 -33 138 -33q78 0 142 33t95 89q43 76 43 243v454h116v-908z
" />
    <glyph glyph-name="Uogonek" unicode="&#x172;" horiz-adv-x="1300" 
d="M717 -18q-58 -67 -58 -121q0 -62 78 -62q29 0 69 14l33 -83q-66 -23 -116 -23q-86 0 -133 53q-37 40 -37 91q0 65 48 129q-210 26 -320 152.5t-110 342.5v890h121v-848q0 -108 10 -161q11 -60 35 -102q38 -65 116 -110q92 -53 198 -53q143 0 250 90q64 53 86 123
q22 67 22 213v848h121v-890q0 -135 -30 -214q-44 -112 -145 -185q-101 -74 -238 -94z" />
    <glyph glyph-name="uogonek" unicode="&#x173;" horiz-adv-x="1044" 
d="M908 908v-908q-73 -83 -73 -138q0 -63 78 -63q29 0 69 14l32 -83q-64 -23 -115 -23q-86 0 -134 53q-36 40 -36 93q0 71 63 147v125q-104 -147 -291 -147q-148 0 -247 87q-63 55 -90.5 137t-27.5 213v493h116v-475q0 -154 41 -231q29 -52 81 -80q62 -33 138 -33
q78 0 142 33t95 89q43 76 43 243v454h116z" />
    <glyph glyph-name="Wcircumflex" unicode="&#x174;" horiz-adv-x="1797" 
d="M898 1660l-191 -179l-81 40l220 241h104l220 -241l-81 -40zM1230 0l-332 1173l-333 -1173h-51h-79l-415 1365h126l356 -1198l337 1198h118l338 -1198l355 1198h126l-415 -1365h-54h-77z" />
    <glyph glyph-name="wcircumflex" unicode="&#x175;" horiz-adv-x="1377" 
d="M688 1250l-191 -179l-81 40l220 241h105l219 -241l-81 -40zM454 0h-106l-340 908h125l269 -746l233 746h106l233 -747l271 747h123l-339 -908h-107l-234 737z" />
    <glyph glyph-name="Ycircumflex" unicode="&#x176;" horiz-adv-x="1014" 
d="M508 1660l-191 -179l-81 40l220 241h104l220 -241l-81 -40zM446 0v572l-439 793h132l368 -680l368 680h131l-439 -793v-572h-121z" />
    <glyph glyph-name="ycircumflex" unicode="&#x177;" horiz-adv-x="890" 
d="M447 1250l-191 -179l-81 40l220 241h104l220 -241l-81 -40zM159 -478l220 510l-371 876h125l307 -736l317 736h125l-604 -1386h-119z" />
    <glyph glyph-name="Ydieresis" unicode="&#x178;" horiz-adv-x="1014" 
d="M446 0v572l-439 793h132l368 -680l368 680h131l-439 -793v-572h-121zM697 1705q34 0 59 -25t25 -60q0 -36 -25 -61t-60 -25t-60.5 25.5t-25.5 59.5q0 36 25.5 61t61.5 25zM321 1705q34 0 59 -25.5t25 -59.5q0 -35 -25.5 -60.5t-60.5 -25.5t-60 25.5t-25 60.5t25.5 60
t61.5 25z" />
    <glyph glyph-name="Zacute" unicode="&#x179;" horiz-adv-x="1041" 
d="M504 1481l-71 40l190 261l117 -64zM968 1250l-775 -1137h790v-113h-928v115l784 1138h-721v112h850v-115z" />
    <glyph glyph-name="zacute" unicode="&#x17a;" horiz-adv-x="857" 
d="M425 1071l-70 40l189 261l118 -63zM796 811v-3l-590 -703h611v-105h-751v100l591 704h-560v104h699v-97z" />
    <glyph glyph-name="Zdotaccent" unicode="&#x17b;" horiz-adv-x="1041" 
d="M968 1250l-775 -1137h790v-113h-928v115l784 1138h-721v112h850v-115zM555 1705q34 0 59 -25t25 -60q0 -36 -25 -61t-61 -25q-35 0 -60 25.5t-25 61.5q0 34 25.5 59t61.5 25z" />
    <glyph glyph-name="zdotaccent" unicode="&#x17c;" horiz-adv-x="857" 
d="M796 811v-3l-590 -703h611v-105h-751v100l591 704h-560v104h699v-97zM442 1293q35 0 60 -25t25 -60t-25.5 -60.5t-60.5 -25.5t-60 25.5t-25 59.5q0 36 25 61t61 25z" />
    <glyph glyph-name="Zcaron" unicode="&#x17d;" horiz-adv-x="1041" 
d="M282 1730l81 40l191 -179l191 179l81 -40l-220 -241h-104zM968 1250l-775 -1137h790v-113h-928v115l784 1138h-721v112h850v-115z" />
    <glyph glyph-name="zcaron" unicode="&#x17e;" horiz-adv-x="857" 
d="M169 1320l82 41l191 -180l190 180l82 -41l-220 -240h-105zM796 811v-3l-590 -703h611v-105h-751v100l591 704h-560v104h699v-97z" />
    <glyph glyph-name="longs" unicode="&#x17f;" horiz-adv-x="458" 
d="M284 1096v-1096h-116v803h-96v105h96v188q0 171 73 235q55 47 130 47q38 0 81 -13v-105q-35 9 -58 9q-57 0 -83.5 -42t-26.5 -131z" />
    <glyph glyph-name="florin" unicode="&#x192;" horiz-adv-x="939" 
d="M24 -391l22 106q29 -7 50 -7q114 0 147 163l190 932h-94l21 105h94l10 46l29 145q57 279 265 279q32 0 72 -10l-21 -107q-30 8 -50 8q-115 0 -148 -163l-40 -198h168l-21 -105h-169l-188 -925q-57 -279 -264 -279q-34 0 -73 10z" />
    <glyph glyph-name="Ohorn" unicode="&#x1a0;" horiz-adv-x="1560" 
d="M1291 1156q114 58 114 155q0 84 -80 155l83 42q100 -78 100 -197q0 -139 -153 -237q119 -179 119 -392q0 -189 -94 -353q-95 -164 -259 -259q-160 -92 -338 -92q-177 0 -337 92q-164 95 -259 259q-94 164 -94 353t94 352q95 167 257 260q160 93 341 93q289 0 506 -231z
M779 1273q-242 0 -412 -189q-152 -170 -152 -412q0 -155 79 -291q78 -135 214 -213q130 -76 275 -76q146 0 277 76q136 78 213 212q79 137 79 301q0 269 -194 446q-160 146 -379 146z" />
    <glyph glyph-name="ohorn" unicode="&#x1a1;" horiz-adv-x="1144" 
d="M926 722q74 50 74 133t-80 155l83 41q100 -76 100 -197q0 -130 -131 -222q32 -88 32 -178q0 -218 -155 -359q-129 -117 -308 -117q-207 0 -342 151q-121 136 -121 326q0 218 155 358q129 117 309 117q192 0 324 -133q33 -33 60 -75zM538 824q-97 0 -177 -49
q-76 -46 -116 -119q-49 -89 -49 -201q0 -182 116 -286q95 -85 229 -85q155 0 254 109q91 100 91 264q0 180 -115 282q-95 85 -233 85z" />
    <glyph glyph-name="Uhorn" unicode="&#x1af;" horiz-adv-x="1355" 
d="M1130 1365v-207q59 34 84 69t25 84q0 83 -80 155l83 42q100 -79 100 -199q0 -168 -212 -264v-570q0 -171 -57 -268q-57 -99 -163 -160q-120 -69 -259 -69q-195 0 -335 123q-78 66 -112 154q-33 86 -33 220v890h121v-848q0 -108 10 -161q11 -60 35 -101q38 -65 116 -110
q92 -53 197 -53q144 0 251 90q64 53 86 123q22 67 22 212v848h121z" />
    <glyph glyph-name="uhorn" unicode="&#x1b0;" horiz-adv-x="1158" 
d="M908 908v-206q106 61 106 152q0 83 -80 155l83 41q100 -76 100 -198q0 -168 -209 -263v-589h-116v125q-104 -147 -291 -147q-148 0 -247 87q-63 55 -90.5 137t-27.5 213v493h116v-475q0 -154 41 -231q29 -52 81 -80q62 -33 138 -33q78 0 142 33t95 89q43 76 43 243v454
h116z" />
    <glyph glyph-name="uni01C4" unicode="&#x1c4;" horiz-adv-x="2308" 
d="M171 0v1365h268q249 0 425 -101q146 -84 222 -219q88 -157 88 -361q0 -291 -163 -466q-201 -218 -572 -218h-268zM446 1252h-154v-1139h154q202 0 344 82q122 71 186 184q76 134 76 305q0 238 -137 387q-166 181 -469 181zM1549 1730l81 40l191 -179l191 179l81 -40
l-220 -241h-104zM2235 1250l-775 -1137h790v-113h-928v115l784 1138h-721v112h850v-115z" />
    <glyph glyph-name="uni01C5" unicode="&#x1c5;" horiz-adv-x="2124" 
d="M171 0v1365h268q249 0 425 -101q146 -84 222 -219q88 -157 88 -361q0 -291 -163 -466q-201 -218 -572 -218h-268zM446 1252h-154v-1139h154q202 0 344 82q122 71 186 184q76 134 76 305q0 238 -137 387q-166 181 -469 181zM1436 1320l82 41l191 -180l190 180l81 -41
l-219 -240h-105zM2063 811v-3l-590 -703h611v-105h-751v100l591 704h-560v104h699v-97z" />
    <glyph glyph-name="uni01C6" unicode="&#x1c6;" horiz-adv-x="1985" 
d="M992 1365v-1365h-116v149q-133 -171 -340 -171q-201 0 -337 151q-121 136 -121 326q0 218 155 358q131 117 303 117q204 0 340 -171v606h116zM534 824q-147 0 -247 -109q-91 -98 -91 -260q0 -184 116 -286q97 -85 227 -85q149 0 247 107q91 100 91 270q0 178 -115 280
q-92 83 -228 83zM1296 1320l82 41l190 -180l191 180l81 -41l-219 -240h-105zM1923 811v-3l-590 -703h611v-105h-751v100l591 704h-560v104h699v-97z" />
    <glyph glyph-name="uni01C7" unicode="&#x1c7;" horiz-adv-x="1674" 
d="M171 0v1365h121v-1252h541v-113h-662zM1383 1365h121v-960q0 -181 -57 -282q-36 -64 -104 -102q-74 -43 -167 -43q-81 0 -147 31q-69 30 -150 103l74 87q118 -107 220 -107q108 0 159 76.5t51 236.5v960z" />
    <glyph glyph-name="uni01C8" unicode="&#x1c8;" horiz-adv-x="1274" 
d="M171 0v1365h121v-1252h541v-113h-662zM853 -478v106q35 -9 59 -9q56 0 82.5 42t26.5 131v1116h116v-1116q0 -171 -73 -235q-55 -47 -130 -47q-36 0 -81 12zM1081 1295q35 0 60 -25.5t25 -61.5t-25.5 -61.5t-61.5 -25.5q-35 0 -60.5 25.5t-25.5 61.5t25.5 61.5t62.5 25.5z
" />
    <glyph glyph-name="uni01C9" unicode="&#x1c9;" horiz-adv-x="801" 
d="M254 1365v-1365h-116v1365h116zM379 -478v106q35 -9 59 -9q57 0 83.5 42t26.5 131v1116h116v-1116q0 -171 -73 -235q-55 -47 -131 -47q-36 0 -81 12zM607 1295q35 0 60 -25.5t25 -61.5t-25.5 -61.5t-61.5 -25.5q-35 0 -60.5 25.5t-25.5 61.5t25.5 61.5t62.5 25.5z" />
    <glyph glyph-name="uni01CA" unicode="&#x1ca;" horiz-adv-x="2238" 
d="M1165 0l-873 1178v-1178h-121v1365h122l872 -1178v1178h121v-1365h-121zM1974 1365h121v-960q0 -181 -57 -282q-36 -64 -104 -102q-74 -43 -167 -43q-81 0 -147 31q-67 30 -149 103l73 87q118 -107 220 -107q108 0 159 76.5t51 236.5v960z" />
    <glyph glyph-name="uni01CB" unicode="&#x1cb;" horiz-adv-x="1866" 
d="M1165 0l-873 1178v-1178h-121v1365h122l872 -1178v1178h121v-1365h-121zM1444 -478v106q34 -9 59 -9q57 0 83.5 42t26.5 131v1116h116v-1116q0 -171 -73 -235q-55 -47 -130 -47q-37 0 -82 12zM1672 1295q35 0 60 -25.5t25 -61.5t-25.5 -61.5t-61.5 -25.5
q-35 0 -60.5 25.5t-25.5 61.5t25.5 61.5t62.5 25.5z" />
    <glyph glyph-name="uni01CC" unicode="&#x1cc;" horiz-adv-x="1453" 
d="M136 908h116v-125q102 147 291 147q148 0 247 -87q63 -55 90.5 -137t27.5 -213v-493h-116v475q0 154 -41 231q-29 52 -81 80q-62 33 -138 33q-78 0 -142 -33t-95 -89q-43 -76 -43 -243v-454h-116v908zM1032 -478v106q34 -9 59 -9q56 0 82.5 42t26.5 131v1116h116v-1116
q0 -171 -73 -235q-55 -47 -130 -47q-37 0 -81 12zM1259 1295q35 0 60 -25.5t25 -61.5t-25.5 -61.5t-61.5 -25.5q-35 0 -60.5 25.5t-25.5 61.5t25.5 61.5t62.5 25.5z" />
    <glyph glyph-name="uni01CD" unicode="&#x1cd;" horiz-adv-x="1259" 
d="M357 1730l81 40l191 -179l191 179l81 -40l-220 -241h-104zM298 395l-152 -395h-126l535 1365h148l535 -1365h-127l-153 395h-660zM627 1247l-286 -739h573z" />
    <glyph glyph-name="uni01CE" unicode="&#x1ce;" horiz-adv-x="1127" 
d="M263 1320l81 41l191 -180l191 180l81 -41l-220 -240h-104zM991 908v-908h-116v149q-65 -78 -125 -113q-100 -58 -216 -58q-200 0 -336 151q-121 136 -121 326q0 218 155 358q130 117 303 117q104 0 184 -40t156 -131v149h116zM533 824q-147 0 -247 -109q-91 -98 -91 -260
q0 -184 116 -286q95 -85 228 -85q150 0 248 107q91 100 91 270q0 177 -115 280q-94 83 -230 83z" />
    <glyph glyph-name="uni01CF" unicode="&#x1cf;" horiz-adv-x="463" 
d="M-41 1730l81 40l191 -179l191 179l81 -40l-220 -241h-104zM170 1365h121v-1365h-121v1365z" />
    <glyph glyph-name="uni01D0" unicode="&#x1d0;" horiz-adv-x="390" 
d="M-77 1320l81 41l191 -180l191 180l81 -41l-220 -240h-104zM137 908h116v-908h-116v908z" />
    <glyph glyph-name="uni01D1" unicode="&#x1d1;" horiz-adv-x="1567" 
d="M512 1730l81 40l191 -179l190 179l82 -40l-220 -241h-104zM783 1387q183 0 341 -93q164 -98 256 -260q94 -163 94 -352t-94 -353q-94 -163 -259 -259q-160 -92 -337 -92q-246 0 -439 163q-96 81 -158 188q-94 166 -94 363q0 185 94 342q101 168 257 260q159 93 339 93z
M779 1273q-242 0 -412 -189q-152 -170 -152 -412q0 -155 79 -291q78 -135 214 -213q130 -76 275 -76q146 0 276 76q138 79 214 213q79 137 79 301q0 268 -194 445q-160 146 -379 146z" />
    <glyph glyph-name="uni01D2" unicode="&#x1d2;" horiz-adv-x="1082" 
d="M269 1320l81 41l191 -180l191 180l81 -41l-220 -240h-104zM549 930q198 0 334 -151q121 -134 121 -324q0 -219 -155 -360q-129 -117 -308 -117q-207 0 -342 151q-121 136 -121 330q0 213 155 354q129 117 316 117zM538 824q-97 0 -177 -49q-76 -46 -116 -119
q-49 -89 -49 -201q0 -182 116 -286q95 -85 229 -85q155 0 254 109q91 100 91 264q0 180 -115 282q-95 85 -233 85z" />
    <glyph glyph-name="uni01D3" unicode="&#x1d3;" horiz-adv-x="1300" 
d="M378 1730l82 40l191 -179l190 179l81 -40l-219 -241h-105zM171 1365h121v-848q0 -108 10 -161q11 -60 35 -101q38 -66 116 -110q92 -53 198 -53q143 0 250 90q64 53 86 123q22 67 22 212v848h121v-890q0 -171 -57 -268q-57 -99 -163 -160q-120 -69 -260 -69
q-194 0 -334 123q-78 66 -112 154q-33 86 -33 220v890z" />
    <glyph glyph-name="uni01D4" unicode="&#x1d4;" horiz-adv-x="1044" 
d="M250 1320l81 41l191 -180l191 180l81 -41l-220 -240h-104zM908 0h-116v125q-104 -147 -291 -147q-148 0 -247 87q-63 55 -90.5 137t-27.5 213v493h116v-475q0 -154 41 -231q29 -52 81 -80q62 -33 138 -33q78 0 142 33t95 89q43 76 43 243v454h116v-908z" />
    <glyph glyph-name="Gcaron" unicode="&#x1e6;" horiz-adv-x="1491" 
d="M519 1730l81 40l191 -179l191 179l81 -40l-220 -241h-104zM1271 577h-411v112h535v-60q0 -207 -90 -372q-70 -129 -201 -202q-137 -77 -309 -77q-193 0 -353 93q-162 94 -256 259q-93 164 -93 351q0 193 97 360q94 162 250 253q160 93 350 93q142 0 253 -49
q113 -50 224 -158l-82 -83q-69 70 -134 109q-118 67 -263 67q-257 0 -422 -187q-151 -169 -151 -405q0 -165 79 -302q77 -135 210 -211q131 -76 288 -76q267 0 400 205q73 112 79 280z" />
    <glyph glyph-name="gcaron" unicode="&#x1e7;" horiz-adv-x="1127" 
d="M263 1320l81 41l191 -180l191 180l81 -41l-220 -240h-104zM875 908h116v-925q0 -237 -145 -366q-131 -116 -327 -116q-123 0 -218 45t-183 145l77 77q60 -70 108 -102q92 -59 213 -59q175 0 271 108q88 97 88 268v15v151q-133 -171 -340 -171q-200 0 -337 152
q-121 134 -121 325q0 218 155 358q130 117 303 117q205 0 340 -171v149zM536 824q-96 0 -176 -49q-165 -99 -165 -320q0 -184 116 -286q97 -85 228 -85q149 0 247 107q91 100 91 269q0 178 -115 281q-92 83 -226 83z" />
    <glyph glyph-name="uni01F4" unicode="&#x1f4;" horiz-adv-x="1491" 
d="M789 1481l-70 40l189 261l118 -64zM1271 577h-411v112h535v-60q0 -207 -90 -372q-70 -129 -201 -202q-137 -77 -309 -77q-193 0 -353 93q-162 94 -256 259q-93 164 -93 351q0 193 97 360q94 162 250 253q160 93 350 93q142 0 253 -49q113 -50 224 -158l-82 -83
q-69 70 -134 109q-118 67 -263 67q-257 0 -422 -187q-151 -169 -151 -405q0 -165 79 -302q77 -135 210 -211q131 -76 288 -76q267 0 400 205q73 112 79 280z" />
    <glyph glyph-name="uni01F5" unicode="&#x1f5;" horiz-adv-x="1127" 
d="M529 1071l-70 40l190 261l117 -63zM875 908h116v-925q0 -237 -145 -366q-131 -116 -327 -116q-123 0 -218 45t-183 145l77 77q60 -70 108 -102q92 -59 213 -59q175 0 271 108q88 97 88 268v15v151q-133 -171 -340 -171q-200 0 -337 152q-121 134 -121 325q0 218 155 358
q130 117 303 117q205 0 340 -171v149zM536 824q-96 0 -176 -49q-165 -99 -165 -320q0 -184 116 -286q97 -85 228 -85q149 0 247 107q91 100 91 269q0 178 -115 281q-92 83 -226 83z" />
    <glyph glyph-name="Aringacute" unicode="&#x1fa;" horiz-adv-x="1259" 
d="M545 1853l-71 40l190 261l117 -64zM628 1786q76 0 129 -56q42 -46 42 -110q0 -74 -55 -123q-50 -44 -115 -44q-72 0 -121 49q-50 50 -50 120q0 66 51 116q49 48 119 48zM628 1726q-44 0 -74.5 -31.5t-30.5 -76.5q0 -42 31 -73q32 -32 74 -32q44 0 75 31t31 76
q0 44 -31 75t-75 31zM298 395l-152 -395h-126l535 1365h148l535 -1365h-127l-153 395h-660zM627 1247l-286 -739h573z" />
    <glyph glyph-name="aringacute" unicode="&#x1fb;" horiz-adv-x="1127" 
d="M562 1376q76 0 129 -56q42 -46 42 -110q0 -74 -55 -123q-50 -44 -117 -44q-76 0 -126 56q-43 47 -43 113t51 116q49 48 119 48zM562 1316q-44 0 -74.5 -31.5t-30.5 -76.5q0 -43 31 -74t74 -31q44 0 75 31t31 76q0 44 -31 75t-75 31zM478 1481l-70 40l189 261l118 -64z
M991 908v-908h-116v149q-65 -78 -125 -113q-100 -58 -216 -58q-200 0 -336 151q-121 136 -121 326q0 218 155 358q130 117 303 117q104 0 184 -40t156 -131v149h116zM533 824q-147 0 -247 -109q-91 -98 -91 -260q0 -184 116 -286q95 -85 228 -85q150 0 248 107
q91 100 91 270q0 177 -115 280q-94 83 -230 83z" />
    <glyph glyph-name="AEacute" unicode="&#x1fc;" horiz-adv-x="1722" 
d="M1061 1481l-70 40l189 261l118 -64zM925 0v395h-571l-200 -395h-134l700 1365h887v-112h-561v-504h499v-113h-499v-523h582v-113h-703zM411 508h514v745h-136z" />
    <glyph glyph-name="aeacute" unicode="&#x1fd;" horiz-adv-x="1704" 
d="M838 1071l-70 40l189 261l118 -63zM1499 246l104 -44q-144 -224 -391 -224q-116 0 -212.5 52.5t-154.5 145.5q-77 -198 -367 -198q-158 0 -264 61q-136 79 -136 241q0 134 90 213q44 38 120 61t160 23h314q-9 95 -46 147q-70 100 -251 100q-155 0 -289 -99l-54 78
q172 127 363 127q277 0 353 -208q33 62 87 107q119 101 274 101q183 0 307 -138q56 -64 88 -157t32 -196q0 -19 -1 -34h-743q15 -122 74 -199q95 -122 254 -122q186 0 289 162zM765 288v190h-288q-170 0 -238 -77q-46 -52 -46 -124q0 -101 87 -150q77 -44 200 -44
q78 0 142 20.5t96 56.5q47 53 47 128zM882 504h628q-17 125 -75 203q-87 117 -236 117q-152 0 -245 -123q-55 -73 -72 -197z" />
    <glyph glyph-name="Oslashacute" unicode="&#x1fe;" horiz-adv-x="1582" 
d="M788 1481l-70 40l189 261l118 -64zM1244 1211l154 157l66 -64l-156 -159q173 -205 173 -462q0 -190 -94 -354q-94 -163 -259 -259q-160 -92 -339 -92q-249 0 -452 176l-154 -157l-66 64l155 159q-172 203 -172 461q0 189 94 353q95 167 257 260q161 93 341 93
q255 0 452 -176zM355 304l808 825q-165 144 -370 144q-149 0 -280 -74q-132 -76 -210 -212q-81 -141 -81 -309q0 -208 133 -374zM1226 1062l-807 -825q166 -145 371 -145q146 0 276 76q136 78 214 213q79 136 79 302q0 213 -133 379z" />
    <glyph glyph-name="oslashacute" unicode="&#x1ff;" horiz-adv-x="1109" 
d="M552 1071l-71 40l190 261l118 -63zM1017 852l-100 -98q100 -133 100 -297q0 -221 -155 -362q-129 -117 -310 -117q-172 0 -303 115l-97 -96l-61 59l100 99q-100 133 -100 298q0 220 155 360q129 117 310 117q172 0 304 -114l96 95zM840 677l-516 -510q98 -83 225 -83
q160 0 259 109q91 100 91 266q0 123 -59 218zM269 231l516 511q-100 82 -227 82q-159 0 -259 -109q-90 -99 -90 -268q0 -114 60 -216z" />
    <glyph glyph-name="uni0200" unicode="&#x200;" horiz-adv-x="1259" 
d="M650 1781l189 -260l-64 -40l-237 238zM363 1781l189 -260l-64 -40l-236 238zM298 395l-152 -395h-126l535 1365h148l535 -1365h-127l-153 395h-660zM627 1247l-286 -739h573z" />
    <glyph glyph-name="uni0201" unicode="&#x201;" horiz-adv-x="1127" 
d="M224 1372l189 -261l-64 -40l-236 238zM511 1372l189 -261l-64 -40l-237 238zM991 908v-908h-116v149q-65 -78 -125 -113q-100 -58 -216 -58q-200 0 -336 151q-121 136 -121 326q0 218 155 358q130 117 303 117q104 0 184 -40t156 -131v149h116zM533 824q-147 0 -247 -109
q-91 -98 -91 -260q0 -184 116 -286q95 -85 228 -85q150 0 248 107q91 100 91 270q0 177 -115 280q-94 83 -230 83z" />
    <glyph glyph-name="Scommaaccent" unicode="&#x218;" horiz-adv-x="1025" 
d="M516 -112l109 -47l-190 -241l-77 39zM879 1190l-96 -63q-103 148 -258 148q-128 0 -203 -86q-64 -71 -64 -163q0 -152 213 -235l136 -53q199 -76 267 -186q46 -73 46 -169q0 -180 -133 -298q-119 -107 -290 -107q-154 0 -260.5 86t-147.5 243l117 33q29 -100 77 -154
q85 -94 217 -94q137 0 224 97q74 83 74 193q0 88 -57 147q-60 60 -196 113l-130 52q-169 66 -230 166q-46 73 -46 167q0 159 115 261q112 99 276 99q221 0 349 -197z" />
    <glyph glyph-name="scommaaccent" unicode="&#x219;" horiz-adv-x="754" 
d="M268 -410l88 298l115 -35l-124 -287zM644 781l-94 -49q-37 52 -75 74t-92 22q-73 0 -120 -41q-48 -41 -48 -104q0 -59 40 -95q26 -25 129 -65l92 -35q105 -41 152.5 -95.5t47.5 -132.5q0 -122 -90 -204q-86 -78 -215 -78q-107 0 -180.5 52.5t-122.5 163.5l101 43
q43 -85 90 -120q46 -34 117 -34q91 0 142 58q42 49 42 110q0 59 -40 96q-30 27 -134 67l-100 40q-180 70 -180 222q0 112 81 182q84 72 200 72q162 0 257 -149z" />
    <glyph glyph-name="uni021A" unicode="&#x21a;" horiz-adv-x="884" 
d="M308 -410l88 298l114 -35l-124 -287zM863 1253h-361v-1253h-121v1253h-361v112h843v-112z" />
    <glyph glyph-name="uni021B" unicode="&#x21b;" horiz-adv-x="496" 
d="M144 -410l88 298l115 -35l-124 -287zM157 270v533h-106v105h106v227l116 46v-273h154v-105h-154v-533q0 -90 26.5 -132t82.5 -42q24 0 59 9v-105q-45 -13 -82 -13q-87 0 -142 61q-60 64 -60 222z" />
    <glyph glyph-name="uni0226" unicode="&#x226;" horiz-adv-x="1259" 
d="M298 395l-152 -395h-126l535 1365h148l535 -1365h-127l-153 395h-660zM627 1247l-286 -739h573zM630 1705q34 0 59 -25t25 -60q0 -36 -25 -61t-61 -25q-35 0 -60 25.5t-25 61.5q0 34 25.5 59t61.5 25z" />
    <glyph glyph-name="uni0227" unicode="&#x227;" horiz-adv-x="1127" 
d="M991 908v-908h-116v149q-65 -78 -125 -113q-100 -58 -216 -58q-200 0 -336 151q-121 136 -121 326q0 218 155 358q130 117 303 117q104 0 184 -40t156 -131v149h116zM533 824q-147 0 -247 -109q-91 -98 -91 -260q0 -184 116 -286q95 -85 228 -85q150 0 248 107
q91 100 91 270q0 177 -115 280q-94 83 -230 83zM536 1293q35 0 60 -25t25 -60t-25.5 -60.5t-60.5 -25.5t-60 25.5t-25 59.5q0 36 25 61t61 25z" />
    <glyph glyph-name="uni0237" unicode="&#x237;" horiz-adv-x="409" 
d="M-12 -478v106q35 -9 58 -9q57 0 83.5 42t26.5 131v1116h116v-1116q0 -171 -73 -235q-55 -47 -130 -47q-36 0 -81 12z" />
    <glyph glyph-name="uni02BB" unicode="&#x2bb;" horiz-adv-x="446" 
d="M297 1424l74 -29l-161 -447l-108 39z" />
    <glyph glyph-name="afii57929" unicode="&#x2bc;" horiz-adv-x="517" 
d="M200 941l-77 31l162 453l109 -40z" />
    <glyph glyph-name="circumflex" unicode="&#x2c6;" horiz-adv-x="975" 
d="M487 1250l-191 -179l-81 40l220 241h104l220 -241l-81 -40z" />
    <glyph glyph-name="caron" unicode="&#x2c7;" horiz-adv-x="975" 
d="M215 1320l81 41l191 -180l191 180l81 -41l-220 -240h-104z" />
    <glyph glyph-name="uni02C9" unicode="&#x2c9;" horiz-adv-x="975" 
d="M221 1158v104h533v-104h-533z" />
    <glyph glyph-name="breve" unicode="&#x2d8;" horiz-adv-x="975" 
d="M232 1312l99 8q6 -70 47 -111t107 -41q64 0 105.5 39.5t53.5 112.5l99 -8q-13 -92 -64 -154q-75 -90 -193 -90q-110 0 -178 67q-68 65 -76 177z" />
    <glyph glyph-name="dotaccent" unicode="&#x2d9;" horiz-adv-x="975" 
d="M488 1293q35 0 60 -25t25 -60t-25.5 -60.5t-60.5 -25.5t-60 25.5t-25 59.5q0 36 25 61t61 25z" />
    <glyph glyph-name="ring" unicode="&#x2da;" horiz-adv-x="975" 
d="M487 1376q76 0 129 -56q42 -46 42 -110q0 -74 -55 -123q-50 -44 -117 -44q-75 0 -126 56q-43 47 -43 113t51 116q50 48 119 48zM487 1316q-44 0 -74.5 -31.5t-30.5 -76.5q0 -42 32 -74q31 -31 73 -31q44 0 75 31t31 76q0 44 -31 75t-75 31z" />
    <glyph glyph-name="ogonek" unicode="&#x2db;" horiz-adv-x="975" 
d="M935 -187l33 -83q-66 -23 -115 -23q-86 0 -134 53q-36 40 -36 92q0 72 63 148h116q-73 -82 -73 -139q0 -62 78 -62q28 0 68 14z" />
    <glyph glyph-name="tilde" unicode="&#x2dc;" horiz-adv-x="975" 
d="M314 1123l-91 22q24 150 147 150q50 0 138 -42q57 -27 96 -27q45 0 55 70l92 -21q-19 -151 -146 -151q-59 0 -134 37q-64 32 -98 32q-43 0 -59 -70z" />
    <glyph glyph-name="hungarumlaut" unicode="&#x2dd;" horiz-adv-x="975" 
d="M278 1111l190 261l111 -63l-237 -238zM565 1111l189 261l112 -63l-237 -238z" />
    <glyph glyph-name="uni0309" unicode="&#x309;" horiz-adv-x="975" 
d="M416 1695l-32 81q64 21 118 21q76 0 122 -34.5t46 -90.5q0 -45 -29 -92l-30 -50q-13 -19 -15 -41h-104q2 23 4 27q1 3 31 52l6 9q33 51 33 73q0 57 -80 57q-30 0 -70 -12z" />
    <glyph glyph-name="uni0323" unicode="&#x323;" horiz-adv-x="975" 
d="M489 -141q35 0 60 -25.5t25 -61.5t-25.5 -61.5t-60.5 -25.5q-36 0 -61.5 25.5t-25.5 61.5t25.5 61.5t62.5 25.5z" />
    <glyph glyph-name="uni037E" unicode="&#x37e;" horiz-adv-x="448" 
d="M132 -302l-77 30l162 453l109 -40zM259 844q34 0 58.5 -24.5t24.5 -59.5t-25 -59.5t-60 -24.5q-34 0 -59 25t-25 59q0 35 25 59.5t61 24.5z" />
    <glyph glyph-name="uni0387" unicode="&#x387;" horiz-adv-x="445" 
d="M224 767q34 0 58.5 -25t24.5 -59q0 -35 -24.5 -60t-59.5 -25t-60 25t-25 60t25 59.5t61 24.5z" />
    <glyph glyph-name="uni1E1E" unicode="&#x1e1e;" horiz-adv-x="886" 
d="M805 1365v-112h-513v-504h468v-113h-468v-636h-121v1365h634zM489 1705q35 0 60 -25.5t25 -59.5q0 -35 -25.5 -60.5t-60.5 -25.5t-60 25.5t-25 59.5q0 36 25 61t61 25z" />
    <glyph glyph-name="uni1E1F" unicode="&#x1e1f;" horiz-adv-x="503" 
d="M72 908h96v188q0 171 73 235q55 47 130 47q38 0 81 -13v-105q-35 9 -58 9q-57 0 -83.5 -42t-26.5 -131v-188h171v-105h-171v-803h-116v803h-96v105zM317 1705q34 0 59 -25t25 -60q0 -36 -25 -61t-61 -25q-35 0 -60 25.5t-25 61.5q0 34 25.5 59t61.5 25z" />
    <glyph glyph-name="Wgrave" unicode="&#x1e80;" horiz-adv-x="1797" 
d="M795 1782l189 -261l-70 -40l-237 237zM1230 0l-332 1173l-333 -1173h-51h-79l-415 1365h126l356 -1198l337 1198h118l338 -1198l355 1198h126l-415 -1365h-54h-77z" />
    <glyph glyph-name="wgrave" unicode="&#x1e81;" horiz-adv-x="1377" 
d="M571 1372l190 -261l-71 -40l-236 238zM454 0h-106l-340 908h125l269 -746l233 746h106l233 -747l271 747h123l-339 -908h-107l-234 737z" />
    <glyph glyph-name="Wacute" unicode="&#x1e82;" horiz-adv-x="1797" 
d="M896 1481l-71 40l190 261l117 -64zM1230 0l-332 1173l-333 -1173h-51h-79l-415 1365h126l356 -1198l337 1198h118l338 -1198l355 1198h126l-415 -1365h-54h-77z" />
    <glyph glyph-name="wacute" unicode="&#x1e83;" horiz-adv-x="1377" 
d="M624 1071l-70 40l190 261l117 -63zM454 0h-106l-340 908h125l269 -746l233 746h106l233 -747l271 747h123l-339 -908h-107l-234 737z" />
    <glyph glyph-name="Wdieresis" unicode="&#x1e84;" horiz-adv-x="1797" 
d="M1230 0l-332 1173l-333 -1173h-51h-79l-415 1365h126l356 -1198l337 1198h118l338 -1198l355 1198h126l-415 -1365h-54h-77zM1088 1705q34 0 59 -25t25 -60q0 -36 -25 -61t-60 -25t-60.5 25.5t-25.5 60.5t25.5 60t61.5 25zM711 1705q35 0 60 -25t25 -60t-25.5 -60.5
t-60.5 -25.5t-60 25.5t-25 60.5t25 60t61 25z" />
    <glyph glyph-name="wdieresis" unicode="&#x1e85;" horiz-adv-x="1377" 
d="M454 0h-106l-340 908h125l269 -746l233 746h106l233 -747l271 747h123l-339 -908h-107l-234 737zM501 1293q35 0 60 -25t25 -60t-25.5 -60.5t-60.5 -25.5t-60 25.5t-25 59.5q0 36 25 61t61 25zM878 1293q34 0 59 -25t25 -60q0 -36 -25 -61t-60 -25q-36 0 -61 25.5
t-25 60.5t25.5 60t61.5 25z" />
    <glyph glyph-name="uni1EA0" unicode="&#x1ea0;" horiz-adv-x="1259" 
d="M298 395l-152 -395h-126l535 1365h148l535 -1365h-127l-153 395h-660zM627 1247l-286 -739h573zM629 -141q35 0 60 -25t25 -60q0 -36 -25 -61t-61 -25q-35 0 -60 25.5t-25 60.5t25 60t61 25z" />
    <glyph glyph-name="uni1EA1" unicode="&#x1ea1;" horiz-adv-x="1127" 
d="M991 908v-908h-116v149q-65 -78 -125 -113q-100 -58 -216 -58q-200 0 -336 151q-121 136 -121 326q0 218 155 358q130 117 303 117q104 0 184 -40t156 -131v149h116zM533 824q-147 0 -247 -109q-91 -98 -91 -260q0 -184 116 -286q95 -85 228 -85q150 0 248 107
q91 100 91 270q0 177 -115 280q-94 83 -230 83zM560 -141q35 0 60 -25t25 -60q0 -36 -25 -61t-61 -25q-35 0 -60 25t-25 60q0 36 25 61t61 25z" />
    <glyph glyph-name="uni1EA2" unicode="&#x1ea2;" horiz-adv-x="1259" 
d="M519 1695l-32 81q65 21 118 21q76 0 122 -34.5t46 -90.5q0 -45 -29 -92l-30 -50q-13 -19 -15 -41h-104q2 23 4 27q2 5 32 52l5 9q33 51 33 73q0 57 -80 57q-29 0 -70 -12zM298 395l-152 -395h-126l535 1365h148l535 -1365h-127l-153 395h-660zM627 1247l-286 -739h573z
" />
    <glyph glyph-name="uni1EA3" unicode="&#x1ea3;" horiz-adv-x="1127" 
d="M991 908v-908h-116v149q-65 -78 -125 -113q-100 -58 -216 -58q-200 0 -336 151q-121 136 -121 326q0 218 155 358q130 117 303 117q104 0 184 -40t156 -131v149h116zM533 824q-147 0 -247 -109q-91 -98 -91 -260q0 -184 116 -286q95 -85 228 -85q150 0 248 107
q91 100 91 270q0 177 -115 280q-94 83 -230 83zM444 1277l-32 81q64 21 118 21q76 0 122 -34.5t46 -90.5q0 -46 -28 -92l-31 -50q-13 -19 -15 -41h-103q2 29 25 66l10 13l6 9q32 53 32 73q0 57 -80 57q-30 0 -70 -12z" />
    <glyph glyph-name="uni1EA4" unicode="&#x1ea4;" horiz-adv-x="1259" 
d="M681 1762l100 -110l176 243l118 -64l-239 -239l65 -71l-81 -40l-191 179l-191 -179l-81 40l220 241h104zM298 395l-152 -395h-126l535 1365h148l535 -1365h-127l-153 395h-660zM627 1247l-286 -739h573z" />
    <glyph glyph-name="uni1EA5" unicode="&#x1ea5;" horiz-adv-x="1127" 
d="M483 1318h104l220 -241l-81 -40l-191 179l-191 -179l-81 40zM809 1281l-70 40l189 261l118 -64zM991 908v-908h-116v149q-65 -78 -125 -113q-100 -58 -216 -58q-200 0 -336 151q-121 136 -121 326q0 218 155 358q130 117 303 117q104 0 184 -40t156 -131v149h116z
M533 824q-147 0 -247 -109q-91 -98 -91 -260q0 -184 116 -286q95 -85 228 -85q150 0 248 107q91 100 91 270q0 177 -115 280q-94 83 -230 83z" />
    <glyph glyph-name="uni1EA6" unicode="&#x1ea6;" horiz-adv-x="1259" 
d="M629 1660l-191 -179l-81 40l220 241h104l220 -241l-81 -40zM860 1894l190 -260l-70 -41l-237 238zM298 395l-152 -395h-126l535 1365h148l535 -1365h-127l-153 395h-660zM627 1247l-286 -739h573z" />
    <glyph glyph-name="uni1EA7" unicode="&#x1ea7;" horiz-adv-x="1127" 
d="M678 1582l190 -261l-71 -40l-236 237zM535 1216l-191 -179l-81 40l220 241h104l220 -241l-81 -40zM991 908v-908h-116v149q-65 -78 -125 -113q-100 -58 -216 -58q-200 0 -336 151q-121 136 -121 326q0 218 155 358q130 117 303 117q104 0 184 -40t156 -131v149h116z
M533 824q-147 0 -247 -109q-91 -98 -91 -260q0 -184 116 -286q95 -85 228 -85q150 0 248 107q91 100 91 270q0 177 -115 280q-94 83 -230 83z" />
    <glyph glyph-name="uni1EA8" unicode="&#x1ea8;" horiz-adv-x="1259" 
d="M577 1762h104l220 -241l-81 -40l-191 179l-191 -179l-81 40zM298 395l-152 -395h-126l535 1365h148l535 -1365h-127l-153 395h-660zM627 1247l-286 -739h573zM830 1796l-32 81q62 21 118 21q76 0 122 -34.5t46 -90.5q0 -45 -29 -92l-31 -50q-12 -19 -15 -41h-103
q2 30 26 66l9 13l6 9q33 52 33 73q0 57 -81 57q-30 0 -69 -12z" />
    <glyph glyph-name="uni1EA9" unicode="&#x1ea9;" horiz-adv-x="1127" 
d="M483 1318h104l220 -241l-81 -40l-191 179l-191 -179l-81 40zM991 908v-908h-116v149q-65 -78 -125 -113q-100 -58 -216 -58q-200 0 -336 151q-121 136 -121 326q0 218 155 358q130 117 303 117q104 0 184 -40t156 -131v149h116zM533 824q-147 0 -247 -109
q-91 -98 -91 -260q0 -184 116 -286q95 -85 228 -85q150 0 248 107q91 100 91 270q0 177 -115 280q-94 83 -230 83zM674 1483l-32 81q64 21 118 21q77 0 122.5 -34.5t45.5 -91.5q0 -45 -28 -91l-31 -50q-13 -19 -15 -41h-103q2 22 4 27q1 2 31 52l6 9q32 52 32 73
q0 57 -80 57q-30 0 -70 -12z" />
    <glyph glyph-name="uni1EAA" unicode="&#x1eaa;" horiz-adv-x="1259" 
d="M629 1608l-191 -179l-81 40l220 241h104l220 -241l-81 -40zM298 395l-152 -395h-126l535 1365h148l535 -1365h-127l-153 395h-660zM627 1247l-286 -739h573zM455 1773l-90 22q24 151 147 151q48 0 137 -42q57 -28 97 -28q45 0 55 70l92 -21q-18 -151 -147 -151
q-55 0 -133 38q-64 32 -98 32q-43 0 -60 -71z" />
    <glyph glyph-name="uni1EAB" unicode="&#x1eab;" horiz-adv-x="1127" 
d="M535 1216l-191 -179l-81 40l220 241h104l220 -241l-81 -40zM991 908v-908h-116v149q-65 -78 -125 -113q-100 -58 -216 -58q-200 0 -336 151q-121 136 -121 326q0 218 155 358q130 117 303 117q104 0 184 -40t156 -131v149h116zM533 824q-147 0 -247 -109
q-91 -98 -91 -260q0 -184 116 -286q95 -85 228 -85q150 0 248 107q91 100 91 270q0 177 -115 280q-94 83 -230 83zM361 1413l-90 21q24 151 147 151q48 0 137 -42q57 -28 97 -28q45 0 55 70l92 -21q-18 -151 -146 -151q-56 0 -134 38q-64 32 -98 32q-44 0 -60 -70z" />
    <glyph glyph-name="uni1EAC" unicode="&#x1eac;" horiz-adv-x="1259" 
d="M629 1660l-191 -179l-81 40l220 241h104l220 -241l-81 -40zM298 395l-152 -395h-126l535 1365h148l535 -1365h-127l-153 395h-660zM627 1247l-286 -739h573zM629 -141q35 0 60 -25t25 -60q0 -36 -25 -61t-61 -25q-35 0 -60 25.5t-25 60.5t25 60t61 25z" />
    <glyph glyph-name="uni1EAD" unicode="&#x1ead;" horiz-adv-x="1127" 
d="M535 1250l-191 -179l-81 40l220 241h104l220 -241l-81 -40zM991 908v-908h-116v149q-65 -78 -125 -113q-100 -58 -216 -58q-200 0 -336 151q-121 136 -121 326q0 218 155 358q130 117 303 117q104 0 184 -40t156 -131v149h116zM533 824q-147 0 -247 -109
q-91 -98 -91 -260q0 -184 116 -286q95 -85 228 -85q150 0 248 107q91 100 91 270q0 177 -115 280q-94 83 -230 83zM560 -141q35 0 60 -25t25 -60q0 -36 -25 -61t-61 -25q-35 0 -60 25t-25 60q0 36 25 61t61 25z" />
    <glyph glyph-name="uni1EAE" unicode="&#x1eae;" horiz-adv-x="1259" 
d="M373 1671l99 8q6 -71 47 -112t107 -41q65 0 106 39.5t53 113.5l99 -8q-13 -94 -64 -155q-75 -90 -193 -90q-110 0 -178 67q-69 66 -76 178zM620 1645l-71 40l190 261l117 -64zM298 395l-152 -395h-126l535 1365h148l535 -1365h-127l-153 395h-660zM627 1247l-286 -739
h573z" />
    <glyph glyph-name="uni1EAF" unicode="&#x1eaf;" horiz-adv-x="1127" 
d="M540 1281l-71 40l190 261l117 -64zM282 1278l99 8q6 -70 47 -111t107 -41q65 0 106 39.5t53 112.5l99 -8q-13 -92 -64 -154q-75 -90 -193 -90q-109 0 -177 67q-69 65 -77 177zM991 908v-908h-116v149q-65 -78 -125 -113q-100 -58 -216 -58q-200 0 -336 151
q-121 136 -121 326q0 218 155 358q130 117 303 117q104 0 184 -40t156 -131v149h116zM533 824q-147 0 -247 -109q-91 -98 -91 -260q0 -184 116 -286q95 -85 228 -85q150 0 248 107q91 100 91 270q0 177 -115 280q-94 83 -230 83z" />
    <glyph glyph-name="uni1EB0" unicode="&#x1eb0;" horiz-adv-x="1259" 
d="M373 1671l99 8q6 -71 47 -112t107 -41q65 0 106 39.5t53 113.5l99 -8q-13 -94 -64 -155q-75 -90 -193 -90q-110 0 -178 67q-69 66 -76 178zM509 1946l190 -261l-71 -40l-236 237zM298 395l-152 -395h-126l535 1365h148l535 -1365h-127l-153 395h-660zM627 1247l-286 -739
h573z" />
    <glyph glyph-name="uni1EB1" unicode="&#x1eb1;" horiz-adv-x="1127" 
d="M412 1582l189 -261l-70 -40l-237 237zM282 1278l99 8q6 -70 47 -111t107 -41q65 0 106 39.5t53 112.5l99 -8q-13 -92 -64 -154q-75 -90 -193 -90q-109 0 -177 67q-69 65 -77 177zM991 908v-908h-116v149q-65 -78 -125 -113q-100 -58 -216 -58q-200 0 -336 151
q-121 136 -121 326q0 218 155 358q130 117 303 117q104 0 184 -40t156 -131v149h116zM533 824q-147 0 -247 -109q-91 -98 -91 -260q0 -184 116 -286q95 -85 228 -85q150 0 248 107q91 100 91 270q0 177 -115 280q-94 83 -230 83z" />
    <glyph glyph-name="uni1EB2" unicode="&#x1eb2;" horiz-adv-x="1259" 
d="M373 1671l99 8q6 -71 47 -112t107 -41q65 0 106 39.5t53 113.5l99 -8q-13 -94 -64 -155q-75 -90 -193 -90q-110 0 -178 67q-69 66 -76 178zM298 395l-152 -395h-126l535 1365h148l535 -1365h-127l-153 395h-660zM627 1247l-286 -739h573zM496 1847l-32 81q63 21 118 21
q76 0 122 -34.5t46 -90.5q0 -45 -29 -92l-31 -50q-13 -20 -14 -41h-104q2 30 26 66l9 13l6 9q33 53 33 73q0 57 -81 57q-30 0 -69 -12z" />
    <glyph glyph-name="uni1EB3" unicode="&#x1eb3;" horiz-adv-x="1127" 
d="M282 1278l99 8q6 -70 47 -111t107 -41q65 0 106 39.5t53 112.5l99 -8q-13 -92 -64 -154q-75 -90 -193 -90q-109 0 -177 67q-69 65 -77 177zM991 908v-908h-116v149q-65 -78 -125 -113q-100 -58 -216 -58q-200 0 -336 151q-121 136 -121 326q0 218 155 358
q130 117 303 117q104 0 184 -40t156 -131v149h116zM533 824q-147 0 -247 -109q-91 -98 -91 -260q0 -184 116 -286q95 -85 228 -85q150 0 248 107q91 100 91 270q0 177 -115 280q-94 83 -230 83zM405 1483l-32 81q63 21 118 21q76 0 122 -34.5t46 -91.5q0 -44 -29 -91
l-30 -50q-13 -19 -15 -41h-104q2 22 4 27q1 2 31 52l6 9q33 51 33 73q0 57 -81 57q-30 0 -69 -12z" />
    <glyph glyph-name="uni1EB4" unicode="&#x1eb4;" horiz-adv-x="1259" 
d="M373 1671l99 8q6 -71 47 -112t107 -41q65 0 106 39.5t53 113.5l99 -8q-13 -94 -64 -155q-75 -90 -193 -90q-110 0 -178 67q-69 66 -76 178zM298 395l-152 -395h-126l535 1365h148l535 -1365h-127l-153 395h-660zM627 1247l-286 -739h573zM455 1773l-90 22q24 151 147 151
q48 0 137 -42q57 -28 97 -28q45 0 55 70l92 -21q-18 -151 -147 -151q-55 0 -133 38q-64 32 -98 32q-43 0 -60 -71z" />
    <glyph glyph-name="uni1EB5" unicode="&#x1eb5;" horiz-adv-x="1127" 
d="M282 1278l99 8q5 -70 46.5 -111t107.5 -41q64 0 105 39.5t53 112.5l99 -8q-13 -94 -63 -154q-75 -90 -194 -90q-109 0 -177 67q-68 65 -76 177zM991 908v-908h-116v149q-65 -78 -125 -113q-100 -58 -216 -58q-200 0 -336 151q-121 136 -121 326q0 218 155 358
q130 117 303 117q104 0 184 -40t156 -131v149h116zM533 824q-147 0 -247 -109q-91 -98 -91 -260q0 -184 116 -286q95 -85 228 -85q150 0 248 107q91 100 91 270q0 177 -115 280q-94 83 -230 83zM361 1409l-90 22q24 151 147 151q48 0 137 -42q57 -28 97 -28q45 0 55 70
l92 -21q-18 -151 -146 -151q-56 0 -134 38q-64 32 -98 32q-43 0 -60 -71z" />
    <glyph glyph-name="uni1EB6" unicode="&#x1eb6;" horiz-adv-x="1259" 
d="M373 1722l99 8q6 -70 47 -111t107 -41q64 0 105.5 39.5t52.5 112.5l100 -8q-13 -92 -64 -154q-75 -90 -193 -90q-110 0 -178 67q-68 65 -76 177zM298 395l-152 -395h-126l535 1365h148l535 -1365h-127l-153 395h-660zM627 1247l-286 -739h573zM629 -141q35 0 60 -25
t25 -60q0 -36 -25 -61t-61 -25q-35 0 -60 25.5t-25 60.5t25 60t61 25z" />
    <glyph glyph-name="uni1EB7" unicode="&#x1eb7;" horiz-adv-x="1127" 
d="M279 1312l99 8q6 -70 47 -111t107 -41q64 0 105 39.5t53 112.5l99 -8q-13 -94 -63 -154q-75 -90 -193 -90q-110 0 -178 67q-68 65 -76 177zM991 908v-908h-116v149q-65 -78 -125 -113q-100 -58 -216 -58q-200 0 -336 151q-121 136 -121 326q0 218 155 358
q130 117 303 117q104 0 184 -40t156 -131v149h116zM533 824q-147 0 -247 -109q-91 -98 -91 -260q0 -184 116 -286q95 -85 228 -85q150 0 248 107q91 100 91 270q0 177 -115 280q-94 83 -230 83zM560 -141q35 0 60 -25t25 -60q0 -36 -25 -61t-61 -25q-35 0 -60 25t-25 60
q0 36 25 61t61 25z" />
    <glyph glyph-name="uni1EB8" unicode="&#x1eb8;" horiz-adv-x="967" 
d="M854 1365v-112h-562v-504h499v-113h-499v-523h583v-113h-704v1365h683zM551 -141q35 0 60 -25t25 -60q0 -36 -25.5 -61t-60.5 -25t-60 25t-25 60q0 36 25 61t61 25z" />
    <glyph glyph-name="uni1EB9" unicode="&#x1eb9;" horiz-adv-x="1019" 
d="M941 405h-743q9 -102 61 -182q91 -139 267 -139q188 0 288 162l105 -44q-143 -224 -392 -224q-201 0 -328 145q-121 137 -121 332q0 223 153 364q120 111 283 111q185 0 308 -139q120 -135 120 -352q0 -18 -1 -34zM197 504h629q-17 126 -75 202q-88 118 -236 118
q-128 0 -214 -86q-86 -88 -104 -234zM526 -141q35 0 60 -25t25 -60q0 -36 -25.5 -61t-60.5 -25t-60 25.5t-25 59.5q0 36 25 61t61 25z" />
    <glyph glyph-name="uni1EBA" unicode="&#x1eba;" horiz-adv-x="967" 
d="M854 1365v-112h-562v-504h499v-113h-499v-523h583v-113h-704v1365h683zM412 1695l-32 81q63 21 118 21q76 0 122 -34.5t46 -91.5q0 -44 -29 -91l-30 -50q-13 -19 -15 -41h-104q2 23 4 28q0 1 31 51l6 9q33 51 33 73q0 57 -80 57q-29 0 -70 -12z" />
    <glyph glyph-name="uni1EBB" unicode="&#x1ebb;" horiz-adv-x="1019" 
d="M941 405h-743q9 -102 61 -182q91 -139 267 -139q188 0 288 162l105 -44q-143 -224 -392 -224q-201 0 -328 145q-121 137 -121 332q0 223 153 364q120 111 283 111q185 0 308 -139q120 -135 120 -352q0 -18 -1 -34zM197 504h629q-17 126 -75 202q-88 118 -236 118
q-128 0 -214 -86q-86 -88 -104 -234zM417 1277l-32 81q64 21 118 21q76 0 122 -34.5t46 -90.5q0 -46 -28 -92l-31 -50q-13 -19 -15 -41h-103q2 29 25 66l10 13l6 9q32 53 32 73q0 57 -80 57q-29 0 -70 -12z" />
    <glyph glyph-name="uni1EBC" unicode="&#x1ebc;" horiz-adv-x="967" 
d="M854 1365v-112h-562v-504h499v-113h-499v-523h583v-113h-704v1365h683zM308 1533l-90 21q24 151 147 151q49 0 137 -42q58 -27 96 -27q46 0 56 70l92 -22q-18 -150 -147 -150q-58 0 -133 37q-64 32 -98 32q-44 0 -60 -70z" />
    <glyph glyph-name="uni1EBD" unicode="&#x1ebd;" horiz-adv-x="1019" 
d="M941 405h-743q9 -102 61 -182q91 -139 267 -139q188 0 288 162l105 -44q-143 -224 -392 -224q-201 0 -328 145q-121 137 -121 332q0 223 153 364q120 111 283 111q185 0 308 -139q120 -135 120 -352q0 -18 -1 -34zM197 504h629q-17 126 -75 202q-88 118 -236 118
q-128 0 -214 -86q-86 -88 -104 -234zM336 1123l-90 22q24 150 147 150q49 0 137 -42q59 -27 97 -27q45 0 55 70l92 -21q-19 -151 -146 -151q-59 0 -134 37q-64 32 -98 32q-44 0 -60 -70z" />
    <glyph glyph-name="uni1EBE" unicode="&#x1ebe;" horiz-adv-x="967" 
d="M551 1762l100 -110l176 243l118 -64l-239 -239l65 -71l-81 -40l-191 179l-191 -179l-81 40l220 241h104zM854 1365v-112h-562v-504h499v-113h-499v-523h583v-113h-704v1365h683z" />
    <glyph glyph-name="uni1EBF" unicode="&#x1ebf;" horiz-adv-x="1019" 
d="M788 1281l-70 40l189 261l118 -64zM462 1318h105l219 -241l-81 -40l-191 179l-191 -179l-81 40zM941 405h-743q9 -102 61 -182q91 -139 267 -139q188 0 288 162l105 -44q-143 -224 -392 -224q-201 0 -328 145q-121 137 -121 332q0 223 153 364q120 111 283 111
q185 0 308 -139q120 -135 120 -352q0 -18 -1 -34zM197 504h629q-17 126 -75 202q-88 118 -236 118q-128 0 -214 -86q-86 -88 -104 -234z" />
    <glyph glyph-name="uni1EC0" unicode="&#x1ec0;" horiz-adv-x="967" 
d="M499 1660l-191 -179l-81 40l220 241h104l220 -241l-81 -40zM731 1894l189 -260l-70 -41l-237 238zM854 1365v-112h-562v-504h499v-113h-499v-523h583v-113h-704v1365h683z" />
    <glyph glyph-name="uni1EC1" unicode="&#x1ec1;" horiz-adv-x="1019" 
d="M657 1582l190 -261l-71 -40l-236 237zM514 1216l-191 -179l-81 40l220 241h105l219 -241l-81 -40zM941 405h-743q9 -102 61 -182q91 -139 267 -139q188 0 288 162l105 -44q-143 -224 -392 -224q-201 0 -328 145q-121 137 -121 332q0 223 153 364q120 111 283 111
q185 0 308 -139q120 -135 120 -352q0 -18 -1 -34zM197 504h629q-17 126 -75 202q-88 118 -236 118q-128 0 -214 -86q-86 -88 -104 -234z" />
    <glyph glyph-name="uni1EC2" unicode="&#x1ec2;" horiz-adv-x="964" 
d="M447 1762h104l220 -241l-81 -40l-191 179l-191 -179l-81 40zM854 1365v-112h-562v-504h499v-113h-499v-523h583v-113h-704v1365h683zM700 1796l-32 81q63 21 118 21q76 0 122 -34.5t46 -91.5q0 -44 -29 -91l-31 -50q-13 -20 -14 -41h-104q2 22 4 27q1 2 31 52l6 9
q33 51 33 73q0 57 -81 57q-29 0 -69 -12z" />
    <glyph glyph-name="uni1EC3" unicode="&#x1ec3;" horiz-adv-x="1019" 
d="M462 1318h105l219 -241l-81 -40l-191 179l-191 -179l-81 40zM941 405h-743q9 -102 61 -182q91 -139 267 -139q188 0 288 162l105 -44q-143 -224 -392 -224q-201 0 -328 145q-121 137 -121 332q0 223 153 364q120 111 283 111q185 0 308 -139q120 -135 120 -352
q0 -18 -1 -34zM197 504h629q-17 126 -75 202q-88 118 -236 118q-128 0 -214 -86q-86 -88 -104 -234zM653 1483l-32 81q64 21 118 21q77 0 122.5 -34.5t45.5 -91.5q0 -45 -28 -91l-31 -50q-13 -19 -15 -41h-103q2 22 4 27q1 2 31 52l6 9q32 53 32 73q0 57 -80 57
q-29 0 -70 -12z" />
    <glyph glyph-name="uni1EC4" unicode="&#x1ec4;" horiz-adv-x="967" 
d="M499 1608l-191 -179l-81 40l220 241h104l220 -241l-81 -40zM854 1365v-112h-562v-504h499v-113h-499v-523h583v-113h-704v1365h683zM324 1773l-91 22q24 151 147 151q50 0 138 -42q56 -28 96 -28q45 0 55 70l92 -21q-19 -151 -146 -151q-57 0 -133 38q-66 32 -99 32
q-42 0 -59 -71z" />
    <glyph glyph-name="uni1EC5" unicode="&#x1ec5;" horiz-adv-x="1019" 
d="M514 1216l-191 -179l-81 40l220 241h105l219 -241l-81 -40zM941 405h-743q9 -102 61 -182q91 -139 267 -139q188 0 288 162l105 -44q-143 -224 -392 -224q-201 0 -328 145q-121 137 -121 332q0 223 153 364q120 111 283 111q185 0 308 -139q120 -135 120 -352
q0 -18 -1 -34zM197 504h629q-17 126 -75 202q-88 118 -236 118q-128 0 -214 -86q-86 -88 -104 -234zM339 1409l-90 22q24 151 147 151q48 0 137 -42q57 -28 96 -28q46 0 56 70l92 -21q-19 -151 -146 -151q-56 0 -134 38q-64 32 -99 32q-42 0 -59 -71z" />
    <glyph glyph-name="uni1EC6" unicode="&#x1ec6;" horiz-adv-x="967" 
d="M523 1660l-191 -179l-81 40l220 241h104l220 -241l-81 -40zM854 1365v-112h-562v-504h499v-113h-499v-523h583v-113h-704v1365h683zM551 -141q35 0 60 -25t25 -60q0 -36 -25.5 -61t-60.5 -25t-60 25t-25 60q0 36 25 61t61 25z" />
    <glyph glyph-name="uni1EC7" unicode="&#x1ec7;" horiz-adv-x="1019" 
d="M514 1250l-191 -179l-81 40l220 241h105l219 -241l-81 -40zM941 405h-743q9 -102 61 -182q91 -139 267 -139q188 0 288 162l105 -44q-143 -224 -392 -224q-201 0 -328 145q-121 137 -121 332q0 223 153 364q120 111 283 111q185 0 308 -139q120 -135 120 -352
q0 -18 -1 -34zM197 504h629q-17 126 -75 202q-88 118 -236 118q-128 0 -214 -86q-86 -88 -104 -234zM526 -141q35 0 60 -25t25 -60q0 -36 -25.5 -61t-60.5 -25t-60 25.5t-25 59.5q0 36 25 61t61 25z" />
    <glyph glyph-name="uni1EC8" unicode="&#x1ec8;" horiz-adv-x="463" 
d="M171 1365h121v-1365h-121v1365zM116 1695l-32 81q64 21 118 21q76 0 122 -34.5t46 -90.5q0 -45 -29 -92l-30 -50q-13 -19 -15 -41h-104q2 30 26 66l9 13l6 9q33 52 33 73q0 57 -80 57q-30 0 -70 -12z" />
    <glyph glyph-name="uni1EC9" unicode="&#x1ec9;" horiz-adv-x="390" 
d="M138 908h116v-908h-116v908zM79 1277l-32 81q64 21 118 21q76 0 122 -34.5t46 -90.5q0 -45 -29 -92l-30 -50q-13 -19 -15 -41h-104q2 30 26 66l9 13l6 9q33 53 33 73q0 57 -80 57q-29 0 -70 -12z" />
    <glyph glyph-name="uni1ECA" unicode="&#x1eca;" horiz-adv-x="463" 
d="M171 1365h121v-1365h-121v1365zM233 -141q34 0 59 -25t25 -60q0 -36 -25 -61t-61 -25q-35 0 -60 25.5t-25 60.5t25.5 60t61.5 25z" />
    <glyph glyph-name="uni1ECB" unicode="&#x1ecb;" horiz-adv-x="390" 
d="M137 908h116v-908h-116v908zM196 1295q35 0 60 -25.5t25 -61.5t-25.5 -61.5t-60.5 -25.5q-36 0 -61.5 26t-25.5 62t25.5 61t62.5 25zM196 -141q34 0 59 -25t25 -60q0 -36 -25.5 -61t-60.5 -25t-60 25.5t-25 60.5t25.5 60t61.5 25z" />
    <glyph glyph-name="uni1ECC" unicode="&#x1ecc;" horiz-adv-x="1567" 
d="M783 1387q183 0 341 -93q164 -98 256 -260q94 -163 94 -352t-94 -353q-94 -163 -259 -259q-160 -92 -337 -92q-246 0 -439 163q-96 81 -158 188q-94 166 -94 363q0 185 94 342q101 168 257 260q159 93 339 93zM779 1273q-242 0 -412 -189q-152 -170 -152 -412
q0 -155 79 -291q78 -135 214 -213q130 -76 275 -76q146 0 276 76q138 79 214 213q79 137 79 301q0 268 -194 445q-160 146 -379 146zM785 -141q35 0 60 -25t25 -60q0 -36 -25.5 -61t-60.5 -25t-60 25.5t-25 59.5q0 36 25 61t61 25z" />
    <glyph glyph-name="uni1ECD" unicode="&#x1ecd;" horiz-adv-x="1082" 
d="M549 930q198 0 334 -151q121 -134 121 -324q0 -219 -155 -360q-129 -117 -308 -117q-207 0 -342 151q-121 136 -121 330q0 213 155 354q129 117 316 117zM538 824q-97 0 -177 -49q-76 -46 -116 -119q-49 -89 -49 -201q0 -182 116 -286q95 -85 229 -85q155 0 254 109
q91 100 91 264q0 180 -115 282q-95 85 -233 85zM542 -141q35 0 60 -25t25 -60q0 -36 -25.5 -61t-60.5 -25t-60 25t-25 60q0 36 25 61t61 25z" />
    <glyph glyph-name="uni1ECE" unicode="&#x1ece;" horiz-adv-x="1567" 
d="M783 1387q183 0 341 -93q164 -98 256 -260q94 -163 94 -352t-94 -353q-94 -163 -259 -259q-160 -92 -337 -92q-246 0 -439 163q-96 81 -158 188q-94 166 -94 363q0 185 94 342q101 168 257 260q159 93 339 93zM779 1273q-242 0 -412 -189q-152 -170 -152 -412
q0 -155 79 -291q78 -135 214 -213q130 -76 275 -76q146 0 276 76q138 79 214 213q79 137 79 301q0 268 -194 445q-160 146 -379 146zM673 1695l-33 81q64 21 119 21q76 0 122 -34.5t46 -91.5q0 -44 -29 -91l-31 -50q-13 -20 -14 -41h-104q2 23 4 28q0 1 31 51l6 9
q33 51 33 73q0 57 -80 57q-31 0 -70 -12z" />
    <glyph glyph-name="uni1ECF" unicode="&#x1ecf;" horiz-adv-x="1082" 
d="M549 930q198 0 334 -151q121 -134 121 -324q0 -219 -155 -360q-129 -117 -308 -117q-207 0 -342 151q-121 136 -121 330q0 213 155 354q129 117 316 117zM538 824q-97 0 -177 -49q-76 -46 -116 -119q-49 -89 -49 -201q0 -182 116 -286q95 -85 229 -85q155 0 254 109
q91 100 91 264q0 180 -115 282q-95 85 -233 85zM430 1277l-32 81q63 21 118 21q76 0 122 -34.5t46 -90.5q0 -45 -29 -92l-30 -50q-13 -19 -15 -41h-104q2 30 26 66l10 13l5 9q33 53 33 73q0 57 -81 57q-29 0 -69 -12z" />
    <glyph glyph-name="uni1ED0" unicode="&#x1ed0;" horiz-adv-x="1567" 
d="M836 1762l100 -110l176 243l118 -64l-239 -239l65 -71l-82 -40l-190 179l-191 -179l-81 40l220 241h104zM783 1387q183 0 341 -93q164 -98 256 -260q94 -163 94 -352t-94 -353q-94 -163 -259 -259q-160 -92 -337 -92q-246 0 -439 163q-96 81 -158 188q-94 166 -94 363
q0 185 94 342q101 168 257 260q159 93 339 93zM779 1273q-242 0 -412 -189q-152 -170 -152 -412q0 -155 79 -291q78 -135 214 -213q130 -76 275 -76q146 0 276 76q138 79 214 213q79 137 79 301q0 268 -194 445q-160 146 -379 146z" />
    <glyph glyph-name="uni1ED1" unicode="&#x1ed1;" horiz-adv-x="1065" 
d="M815 1281l-70 40l189 261l118 -64zM489 1318h104l220 -241l-81 -40l-191 179l-191 -179l-81 40zM549 930q198 0 334 -151q121 -134 121 -324q0 -219 -155 -360q-129 -117 -308 -117q-207 0 -342 151q-121 136 -121 330q0 213 155 354q129 117 316 117zM538 824
q-97 0 -177 -49q-76 -46 -116 -119q-49 -89 -49 -201q0 -182 116 -286q95 -85 229 -85q155 0 254 109q91 100 91 264q0 180 -115 282q-95 85 -233 85z" />
    <glyph glyph-name="uni1ED2" unicode="&#x1ed2;" horiz-adv-x="1567" 
d="M784 1660l-191 -179l-81 40l220 241h104l220 -241l-82 -40zM1015 1894l190 -260l-71 -41l-236 238zM783 1387q183 0 341 -93q164 -98 256 -260q94 -163 94 -352t-94 -353q-94 -163 -259 -259q-160 -92 -337 -92q-246 0 -439 163q-96 81 -158 188q-94 166 -94 363
q0 185 94 342q101 168 257 260q159 93 339 93zM779 1273q-242 0 -412 -189q-152 -170 -152 -412q0 -155 79 -291q78 -135 214 -213q130 -76 275 -76q146 0 276 76q138 79 214 213q79 137 79 301q0 268 -194 445q-160 146 -379 146z" />
    <glyph glyph-name="uni1ED3" unicode="&#x1ed3;" horiz-adv-x="1082" 
d="M684 1582l189 -261l-70 -40l-236 237zM541 1216l-191 -179l-81 40l220 241h104l220 -241l-81 -40zM549 930q198 0 334 -151q121 -134 121 -324q0 -219 -155 -360q-129 -117 -308 -117q-207 0 -342 151q-121 136 -121 330q0 213 155 354q129 117 316 117zM538 824
q-97 0 -177 -49q-76 -46 -116 -119q-49 -89 -49 -201q0 -182 116 -286q95 -85 229 -85q155 0 254 109q91 100 91 264q0 180 -115 282q-95 85 -233 85z" />
    <glyph glyph-name="uni1ED4" unicode="&#x1ed4;" horiz-adv-x="1567" 
d="M732 1762h104l220 -241l-82 -40l-190 179l-191 -179l-81 40zM783 1387q183 0 341 -93q164 -98 256 -260q94 -163 94 -352t-94 -353q-94 -163 -259 -259q-160 -92 -337 -92q-246 0 -439 163q-96 81 -158 188q-94 166 -94 363q0 185 94 342q101 168 257 260q159 93 339 93z
M779 1273q-242 0 -412 -189q-152 -170 -152 -412q0 -155 79 -291q78 -135 214 -213q130 -76 275 -76q146 0 276 76q138 79 214 213q79 137 79 301q0 268 -194 445q-160 146 -379 146zM984 1796l-32 81q63 21 118 21q77 0 123 -34.5t46 -90.5q0 -45 -29 -92l-31 -50
q-13 -19 -15 -41h-103q2 30 26 66l9 13l6 9q33 52 33 73q0 57 -81 57q-30 0 -70 -12z" />
    <glyph glyph-name="uni1ED5" unicode="&#x1ed5;" horiz-adv-x="1082" 
d="M489 1318h104l220 -241l-81 -40l-191 179l-191 -179l-81 40zM549 930q198 0 334 -151q121 -134 121 -324q0 -219 -155 -360q-129 -117 -308 -117q-207 0 -342 151q-121 136 -121 330q0 213 155 354q129 117 316 117zM538 824q-97 0 -177 -49q-76 -46 -116 -119
q-49 -89 -49 -201q0 -182 116 -286q95 -85 229 -85q155 0 254 109q91 100 91 264q0 180 -115 282q-95 85 -233 85zM680 1483l-32 81q64 21 118 21q77 0 122.5 -34.5t45.5 -91.5q0 -45 -28 -91l-31 -50q-13 -19 -15 -41h-103q2 22 4 27q1 2 31 52l6 9q32 52 32 73
q0 57 -80 57q-30 0 -70 -12z" />
    <glyph glyph-name="uni1ED6" unicode="&#x1ed6;" horiz-adv-x="1567" 
d="M784 1608l-191 -179l-81 40l220 241h104l220 -241l-82 -40zM783 1387q183 0 341 -93q164 -98 256 -260q94 -163 94 -352t-94 -353q-94 -163 -259 -259q-160 -92 -337 -92q-246 0 -439 163q-96 81 -158 188q-94 166 -94 363q0 185 94 342q101 168 257 260q159 93 339 93z
M779 1273q-242 0 -412 -189q-152 -170 -152 -412q0 -155 79 -291q78 -135 214 -213q130 -76 275 -76q146 0 276 76q138 79 214 213q79 137 79 301q0 268 -194 445q-160 146 -379 146zM610 1774l-90 22q24 151 147 151q49 0 137 -42q57 -28 96 -28q44 0 56 70l92 -21
q-19 -151 -147 -151q-55 0 -133 38q-66 32 -99 32q-42 0 -59 -71z" />
    <glyph glyph-name="uni1ED7" unicode="&#x1ed7;" horiz-adv-x="1082" 
d="M541 1216l-191 -179l-81 40l220 241h104l220 -241l-81 -40zM549 930q198 0 334 -151q121 -134 121 -324q0 -219 -155 -360q-129 -117 -308 -117q-207 0 -342 151q-121 136 -121 330q0 213 155 354q129 117 316 117zM538 824q-97 0 -177 -49q-76 -46 -116 -119
q-49 -89 -49 -201q0 -182 116 -286q95 -85 229 -85q155 0 254 109q91 100 91 264q0 180 -115 282q-95 85 -233 85zM368 1411l-91 22q24 151 147 151q50 0 138 -42q57 -28 96 -28q45 0 55 70l92 -21q-19 -151 -146 -151q-55 0 -133 38q-66 32 -99 32q-42 0 -59 -71z" />
    <glyph glyph-name="uni1ED8" unicode="&#x1ed8;" horiz-adv-x="1567" 
d="M784 1660l-191 -179l-81 40l220 241h104l220 -241l-82 -40zM783 1387q183 0 341 -93q164 -98 256 -260q94 -163 94 -352t-94 -353q-94 -163 -259 -259q-160 -92 -337 -92q-246 0 -439 163q-96 81 -158 188q-94 166 -94 363q0 185 94 342q101 168 257 260q159 93 339 93z
M779 1273q-242 0 -412 -189q-152 -170 -152 -412q0 -155 79 -291q78 -135 214 -213q130 -76 275 -76q146 0 276 76q138 79 214 213q79 137 79 301q0 268 -194 445q-160 146 -379 146zM784 -141q35 0 60 -25t25 -60t-25.5 -60.5t-60.5 -25.5t-60 25t-25 60q0 36 25 61t61 25z
" />
    <glyph glyph-name="uni1ED9" unicode="&#x1ed9;" horiz-adv-x="1082" 
d="M541 1250l-191 -179l-81 40l220 241h104l220 -241l-81 -40zM549 930q198 0 334 -151q121 -134 121 -324q0 -219 -155 -360q-129 -117 -308 -117q-207 0 -342 151q-121 136 -121 330q0 213 155 354q129 117 316 117zM538 824q-97 0 -177 -49q-76 -46 -116 -119
q-49 -89 -49 -201q0 -182 116 -286q95 -85 229 -85q155 0 254 109q91 100 91 264q0 180 -115 282q-95 85 -233 85zM542 -141q35 0 60 -25t25 -60q0 -36 -25.5 -61t-60.5 -25t-60 25t-25 60q0 36 25 61t61 25z" />
    <glyph glyph-name="uni1EDA" unicode="&#x1eda;" horiz-adv-x="1560" 
d="M781 1481l-70 40l189 261l118 -64zM1291 1156q114 58 114 155q0 84 -80 155l83 42q100 -78 100 -197q0 -139 -153 -237q119 -179 119 -392q0 -189 -94 -353q-95 -164 -259 -259q-160 -92 -338 -92q-177 0 -337 92q-164 95 -259 259q-94 164 -94 353t94 352
q95 167 257 260q160 93 341 93q289 0 506 -231zM779 1273q-242 0 -412 -189q-152 -170 -152 -412q0 -155 79 -291q78 -135 214 -213q130 -76 275 -76q146 0 277 76q136 78 213 212q79 137 79 301q0 269 -194 446q-160 146 -379 146z" />
    <glyph glyph-name="uni1EDB" unicode="&#x1edb;" horiz-adv-x="1144" 
d="M510 1071l-71 40l190 261l117 -63zM926 722q74 50 74 133t-80 155l83 41q100 -76 100 -197q0 -130 -131 -222q32 -88 32 -178q0 -218 -155 -359q-129 -117 -308 -117q-207 0 -342 151q-121 136 -121 326q0 218 155 358q129 117 309 117q192 0 324 -133q33 -33 60 -75z
M538 824q-97 0 -177 -49q-76 -46 -116 -119q-49 -89 -49 -201q0 -182 116 -286q95 -85 229 -85q155 0 254 109q91 100 91 264q0 180 -115 282q-95 85 -233 85z" />
    <glyph glyph-name="uni1EDC" unicode="&#x1edc;" horiz-adv-x="1560" 
d="M667 1782l189 -261l-70 -40l-237 237zM1291 1156q114 58 114 155q0 84 -80 155l83 42q100 -78 100 -197q0 -139 -153 -237q119 -179 119 -392q0 -189 -94 -353q-95 -164 -259 -259q-160 -92 -338 -92q-177 0 -337 92q-164 95 -259 259q-94 164 -94 353t94 352
q95 167 257 260q160 93 341 93q289 0 506 -231zM779 1273q-242 0 -412 -189q-152 -170 -152 -412q0 -155 79 -291q78 -135 214 -213q130 -76 275 -76q146 0 277 76q136 78 213 212q79 137 79 301q0 269 -194 446q-160 146 -379 146z" />
    <glyph glyph-name="uni1EDD" unicode="&#x1edd;" horiz-adv-x="1144" 
d="M424 1372l190 -261l-71 -40l-236 238zM926 722q74 50 74 133t-80 155l83 41q100 -76 100 -197q0 -130 -131 -222q32 -88 32 -178q0 -218 -155 -359q-129 -117 -308 -117q-207 0 -342 151q-121 136 -121 326q0 218 155 358q129 117 309 117q192 0 324 -133q33 -33 60 -75z
M538 824q-97 0 -177 -49q-76 -46 -116 -119q-49 -89 -49 -201q0 -182 116 -286q95 -85 229 -85q155 0 254 109q91 100 91 264q0 180 -115 282q-95 85 -233 85z" />
    <glyph glyph-name="uni1EDE" unicode="&#x1ede;" horiz-adv-x="1560" 
d="M1291 1156q114 58 114 155q0 84 -80 155l83 42q100 -78 100 -197q0 -139 -153 -237q119 -179 119 -392q0 -189 -94 -353q-95 -164 -259 -259q-160 -92 -338 -92q-177 0 -337 92q-164 95 -259 259q-94 164 -94 353t94 352q95 167 257 260q160 93 341 93q289 0 506 -231z
M779 1273q-242 0 -412 -189q-152 -170 -152 -412q0 -155 79 -291q78 -135 214 -213q130 -76 275 -76q146 0 277 76q136 78 213 212q79 137 79 301q0 269 -194 446q-160 146 -379 146zM688 1695l-32 81q65 21 118 21q76 0 122 -34.5t46 -90.5q0 -46 -28 -92l-31 -50
q-13 -19 -15 -41h-103q2 29 25 66l10 13l6 9q32 52 32 73q0 57 -80 57q-30 0 -70 -12z" />
    <glyph glyph-name="uni1EDF" unicode="&#x1edf;" horiz-adv-x="1144" 
d="M926 722q74 50 74 133t-80 155l83 41q100 -76 100 -197q0 -130 -131 -222q32 -88 32 -178q0 -218 -155 -359q-129 -117 -308 -117q-207 0 -342 151q-121 136 -121 326q0 218 155 358q129 117 309 117q192 0 324 -133q33 -33 60 -75zM538 824q-97 0 -177 -49
q-76 -46 -116 -119q-49 -89 -49 -201q0 -182 116 -286q95 -85 229 -85q155 0 254 109q91 100 91 264q0 180 -115 282q-95 85 -233 85zM446 1277l-32 81q63 21 118 21q76 0 122 -34.5t46 -90.5q0 -45 -29 -92l-31 -50q-13 -20 -14 -41h-104q2 30 26 66l9 13l6 9q33 53 33 73
q0 57 -81 57q-30 0 -69 -12z" />
    <glyph glyph-name="uni1EE0" unicode="&#x1ee0;" horiz-adv-x="1560" 
d="M1291 1156q114 58 114 155q0 84 -80 155l83 42q100 -78 100 -197q0 -139 -153 -237q119 -179 119 -392q0 -189 -94 -353q-95 -164 -259 -259q-160 -92 -338 -92q-177 0 -337 92q-164 95 -259 259q-94 164 -94 353t94 352q95 167 257 260q160 93 341 93q289 0 506 -231z
M779 1273q-242 0 -412 -189q-152 -170 -152 -412q0 -155 79 -291q78 -135 214 -213q130 -76 275 -76q146 0 277 76q136 78 213 212q79 137 79 301q0 269 -194 446q-160 146 -379 146zM613 1533l-90 21q24 151 147 151q48 0 137 -42q59 -27 96 -27q46 0 56 70l92 -22
q-18 -150 -147 -150q-58 0 -133 37q-64 32 -98 32q-44 0 -60 -70z" />
    <glyph glyph-name="uni1EE1" unicode="&#x1ee1;" horiz-adv-x="1144" 
d="M926 722q74 50 74 133t-80 155l83 41q100 -76 100 -197q0 -130 -131 -222q32 -88 32 -178q0 -218 -155 -359q-129 -117 -308 -117q-207 0 -342 151q-121 136 -121 326q0 218 155 358q129 117 309 117q192 0 324 -133q33 -33 60 -75zM538 824q-97 0 -177 -49
q-76 -46 -116 -119q-49 -89 -49 -201q0 -182 116 -286q95 -85 229 -85q155 0 254 109q91 100 91 264q0 180 -115 282q-95 85 -233 85zM364 1123l-90 22q22 150 147 150q48 0 137 -42q58 -27 96 -27q44 0 56 70l92 -21q-19 -151 -147 -151q-58 0 -133 37q-64 32 -99 32
q-43 0 -59 -70z" />
    <glyph glyph-name="uni1EE2" unicode="&#x1ee2;" horiz-adv-x="1560" 
d="M1291 1156q114 58 114 155q0 84 -80 155l83 42q100 -78 100 -197q0 -139 -153 -237q119 -179 119 -392q0 -189 -94 -353q-95 -164 -259 -259q-160 -92 -338 -92q-177 0 -337 92q-164 95 -259 259q-94 164 -94 353t94 352q95 167 257 260q160 93 341 93q289 0 506 -231z
M779 1273q-242 0 -412 -189q-152 -170 -152 -412q0 -155 79 -291q78 -135 214 -213q130 -76 275 -76q146 0 277 76q136 78 213 212q79 137 79 301q0 269 -194 446q-160 146 -379 146zM785 -141q35 0 60 -25t25 -60q0 -36 -25.5 -61t-60.5 -25t-60 25.5t-25 59.5q0 36 25 61
t61 25z" />
    <glyph glyph-name="uni1EE3" unicode="&#x1ee3;" horiz-adv-x="1144" 
d="M926 722q74 50 74 133t-80 155l83 41q100 -76 100 -197q0 -130 -131 -222q32 -88 32 -178q0 -218 -155 -359q-129 -117 -308 -117q-207 0 -342 151q-121 136 -121 326q0 218 155 358q129 117 309 117q192 0 324 -133q33 -33 60 -75zM538 824q-97 0 -177 -49
q-76 -46 -116 -119q-49 -89 -49 -201q0 -182 116 -286q95 -85 229 -85q155 0 254 109q91 100 91 264q0 180 -115 282q-95 85 -233 85zM542 -141q35 0 60 -25t25 -60q0 -36 -25.5 -61t-60.5 -25t-60 25t-25 60q0 36 25 61t61 25z" />
    <glyph glyph-name="uni1EE4" unicode="&#x1ee4;" horiz-adv-x="1300" 
d="M171 1365h121v-848q0 -108 10 -161q11 -60 35 -101q38 -66 116 -110q92 -53 198 -53q143 0 250 90q64 53 86 123q22 67 22 212v848h121v-890q0 -171 -57 -268q-57 -99 -163 -160q-120 -69 -260 -69q-194 0 -334 123q-78 66 -112 154q-33 86 -33 220v890zM652 -141
q35 0 60 -25t25 -60t-25.5 -60.5t-60.5 -25.5t-60 25t-25 60q0 36 25 61t61 25z" />
    <glyph glyph-name="uni1EE5" unicode="&#x1ee5;" horiz-adv-x="1044" 
d="M908 0h-116v125q-104 -147 -291 -147q-148 0 -247 87q-63 55 -90.5 137t-27.5 213v493h116v-475q0 -154 41 -231q29 -52 81 -80q62 -33 138 -33q78 0 142 33t95 89q43 76 43 243v454h116v-908zM507 -141q35 0 60 -25t25 -60q0 -36 -25.5 -61t-60.5 -25t-60 25.5t-25 59.5
q0 36 25 61t61 25z" />
    <glyph glyph-name="uni1EE6" unicode="&#x1ee6;" horiz-adv-x="1300" 
d="M171 1365h121v-848q0 -108 10 -161q11 -60 35 -101q38 -66 116 -110q92 -53 198 -53q143 0 250 90q64 53 86 123q22 67 22 212v848h121v-890q0 -171 -57 -268q-57 -99 -163 -160q-120 -69 -260 -69q-194 0 -334 123q-78 66 -112 154q-33 86 -33 220v890zM540 1695l-32 81
q63 21 118 21q76 0 122 -34.5t46 -90.5q0 -45 -29 -92l-31 -50q-12 -19 -15 -41h-103q2 30 26 66l9 13l6 9q33 51 33 73q0 57 -80 57q-31 0 -70 -12z" />
    <glyph glyph-name="uni1EE7" unicode="&#x1ee7;" horiz-adv-x="1044" 
d="M908 0h-116v125q-104 -147 -291 -147q-148 0 -247 87q-63 55 -90.5 137t-27.5 213v493h116v-475q0 -154 41 -231q29 -52 81 -80q62 -33 138 -33q78 0 142 33t95 89q43 76 43 243v454h116v-908zM411 1277l-32 81q64 21 118 21q76 0 122 -34.5t46 -91.5q0 -44 -29 -91
l-30 -50q-13 -19 -15 -41h-104q2 22 4 27q1 2 4.5 7.5t11.5 19t16 25.5l5 9q33 53 33 73q0 57 -81 57q-28 0 -69 -12z" />
    <glyph glyph-name="uni1EE8" unicode="&#x1ee8;" horiz-adv-x="1355" 
d="M648 1481l-70 40l189 261l118 -64zM1130 1365v-207q59 34 84 69t25 84q0 83 -80 155l83 42q100 -79 100 -199q0 -168 -212 -264v-570q0 -171 -57 -268q-57 -99 -163 -160q-120 -69 -259 -69q-195 0 -335 123q-78 66 -112 154q-33 86 -33 220v890h121v-848q0 -108 10 -161
q11 -60 35 -101q38 -65 116 -110q92 -53 197 -53q144 0 251 90q64 53 86 123q22 67 22 212v848h121z" />
    <glyph glyph-name="uni1EE9" unicode="&#x1ee9;" horiz-adv-x="1158" 
d="M510 1071l-71 40l190 261l117 -63zM908 908v-206q106 61 106 152q0 83 -80 155l83 41q100 -76 100 -198q0 -168 -209 -263v-589h-116v125q-104 -147 -291 -147q-148 0 -247 87q-63 55 -90.5 137t-27.5 213v493h116v-475q0 -154 41 -231q29 -52 81 -80q62 -33 138 -33
q78 0 142 33t95 89q43 76 43 243v454h116z" />
    <glyph glyph-name="uni1EEA" unicode="&#x1eea;" horiz-adv-x="1355" 
d="M533 1782l190 -261l-70 -40l-237 237zM1130 1365v-207q59 34 84 69t25 84q0 83 -80 155l83 42q100 -79 100 -199q0 -168 -212 -264v-570q0 -171 -57 -268q-57 -99 -163 -160q-120 -69 -259 -69q-195 0 -335 123q-78 66 -112 154q-33 86 -33 220v890h121v-848
q0 -108 10 -161q11 -60 35 -101q38 -65 116 -110q92 -53 197 -53q144 0 251 90q64 53 86 123q22 67 22 212v848h121z" />
    <glyph glyph-name="uni1EEB" unicode="&#x1eeb;" horiz-adv-x="1158" 
d="M395 1372l190 -261l-71 -40l-237 238zM908 908v-206q106 61 106 152q0 83 -80 155l83 41q100 -76 100 -198q0 -168 -209 -263v-589h-116v125q-104 -147 -291 -147q-148 0 -247 87q-63 55 -90.5 137t-27.5 213v493h116v-475q0 -154 41 -231q29 -52 81 -80q62 -33 138 -33
q78 0 142 33t95 89q43 76 43 243v454h116z" />
    <glyph glyph-name="uni1EEC" unicode="&#x1eec;" horiz-adv-x="1355" 
d="M1130 1365v-207q59 34 84 69t25 84q0 83 -80 155l83 42q100 -79 100 -199q0 -168 -212 -264v-570q0 -171 -57 -268q-57 -99 -163 -160q-120 -69 -259 -69q-195 0 -335 123q-78 66 -112 154q-33 86 -33 220v890h121v-848q0 -108 10 -161q11 -60 35 -101q38 -65 116 -110
q92 -53 197 -53q144 0 251 90q64 53 86 123q22 67 22 212v848h121zM557 1695l-32 81q65 21 118 21q76 0 122 -34.5t46 -91.5q0 -44 -29 -91l-30 -50q-13 -19 -15 -41h-104q2 23 4 28q9 14 32 51l5 9q33 51 33 73q0 57 -80 57q-29 0 -70 -12z" />
    <glyph glyph-name="uni1EED" unicode="&#x1eed;" horiz-adv-x="1158" 
d="M908 908v-206q106 61 106 152q0 83 -80 155l83 41q100 -76 100 -198q0 -168 -209 -263v-589h-116v125q-104 -147 -291 -147q-148 0 -247 87q-63 55 -90.5 137t-27.5 213v493h116v-475q0 -154 41 -231q29 -52 81 -80q62 -33 138 -33q78 0 142 33t95 89q43 76 43 243v454
h116zM414 1277l-32 81q64 21 118 21q76 0 122 -34.5t46 -90.5q0 -45 -29 -92l-30 -50q-13 -19 -15 -41h-104q2 22 4 27t32 52l5 9q33 51 33 73q0 57 -80 57q-30 0 -70 -12z" />
    <glyph glyph-name="uni1EEE" unicode="&#x1eee;" horiz-adv-x="1355" 
d="M1130 1365v-207q59 34 84 69t25 84q0 83 -80 155l83 42q100 -79 100 -199q0 -168 -212 -264v-570q0 -171 -57 -268q-57 -99 -163 -160q-120 -69 -259 -69q-195 0 -335 123q-78 66 -112 154q-33 86 -33 220v890h121v-848q0 -108 10 -161q11 -60 35 -101q38 -65 116 -110
q92 -53 197 -53q144 0 251 90q64 53 86 123q22 67 22 212v848h121zM480 1533l-90 21q24 151 147 151q49 0 137 -42q58 -27 96 -27q44 0 56 70l92 -22q-20 -150 -147 -150q-58 0 -133 37q-66 32 -99 32q-43 0 -59 -70z" />
    <glyph glyph-name="uni1EEF" unicode="&#x1eef;" horiz-adv-x="1158" 
d="M908 908v-206q106 61 106 152q0 83 -80 155l83 41q100 -76 100 -198q0 -168 -209 -263v-589h-116v125q-104 -147 -291 -147q-148 0 -247 87q-63 55 -90.5 137t-27.5 213v493h116v-475q0 -154 41 -231q29 -52 81 -80q62 -33 138 -33q78 0 142 33t95 89q43 76 43 243v454
h116zM349 1123l-91 22q24 150 147 150q49 0 138 -42q59 -27 96 -27q44 0 56 70l91 -21q-19 -151 -146 -151q-59 0 -133 37q-66 32 -99 32q-43 0 -59 -70z" />
    <glyph glyph-name="uni1EF0" unicode="&#x1ef0;" horiz-adv-x="1355" 
d="M1130 1365v-207q59 34 84 69t25 84q0 83 -80 155l83 42q100 -79 100 -199q0 -168 -212 -264v-570q0 -171 -57 -268q-57 -99 -163 -160q-120 -69 -259 -69q-195 0 -335 123q-78 66 -112 154q-33 86 -33 220v890h121v-848q0 -108 10 -161q11 -60 35 -101q38 -65 116 -110
q92 -53 197 -53q144 0 251 90q64 53 86 123q22 67 22 212v848h121zM653 -141q34 0 59 -25.5t25 -59.5q0 -35 -25.5 -60.5t-60.5 -25.5t-60 25.5t-25 60.5q0 36 25.5 60.5t61.5 24.5z" />
    <glyph glyph-name="uni1EF1" unicode="&#x1ef1;" horiz-adv-x="1158" 
d="M908 908v-206q106 61 106 152q0 83 -80 155l83 41q100 -76 100 -198q0 -168 -209 -263v-589h-116v125q-104 -147 -291 -147q-148 0 -247 87q-63 55 -90.5 137t-27.5 213v493h116v-475q0 -154 41 -231q29 -52 81 -80q62 -33 138 -33q78 0 142 33t95 89q43 76 43 243v454
h116zM517 -141q35 0 60 -25t25 -60q0 -36 -25.5 -61t-60.5 -25t-60 25t-25 60q0 36 25 61t61 25z" />
    <glyph glyph-name="Ygrave" unicode="&#x1ef2;" horiz-adv-x="1014" 
d="M404 1782l190 -261l-71 -40l-237 237zM446 0v572l-439 793h132l368 -680l368 680h131l-439 -793v-572h-121z" />
    <glyph glyph-name="ygrave" unicode="&#x1ef3;" horiz-adv-x="890" 
d="M342 1372l189 -261l-70 -40l-237 238zM159 -478l220 510l-371 876h125l307 -736l317 736h125l-604 -1386h-119z" />
    <glyph glyph-name="uni1EF4" unicode="&#x1ef4;" horiz-adv-x="1014" 
d="M446 0v572l-439 793h132l368 -680l368 680h131l-439 -793v-572h-121zM508 -141q35 0 60 -25t25 -60q0 -36 -25.5 -61t-60.5 -25t-60 25.5t-25 60.5q0 36 25 60.5t61 24.5z" />
    <glyph glyph-name="uni1EF5" unicode="&#x1ef5;" horiz-adv-x="890" 
d="M159 -478l220 510l-371 876h125l307 -736l317 736h125l-604 -1386h-119zM655 -141q34 0 59 -25t25 -60q0 -36 -25.5 -61t-60.5 -25t-60 25.5t-25 60.5q0 36 25.5 60.5t61.5 24.5z" />
    <glyph glyph-name="uni1EF6" unicode="&#x1ef6;" horiz-adv-x="1014" 
d="M446 0v572l-439 793h132l368 -680l368 680h131l-439 -793v-572h-121zM396 1695l-32 81q65 21 118 21q76 0 122 -34.5t46 -91.5q0 -44 -29 -91l-30 -50q-13 -19 -15 -41h-104q2 23 4 28q9 14 32 51l5 9q33 51 33 73q0 57 -80 57q-30 0 -70 -12z" />
    <glyph glyph-name="uni1EF7" unicode="&#x1ef7;" horiz-adv-x="890" 
d="M159 -478l220 510l-371 876h125l307 -736l317 736h125l-604 -1386h-119zM334 1277l-32 81q64 21 118 21q76 0 122 -34.5t46 -90.5q0 -45 -29 -92l-30 -50q-13 -19 -15 -41h-104q2 22 4 27q1 3 31 52l6 9q33 51 33 73q0 57 -80 57q-30 0 -70 -12z" />
    <glyph glyph-name="uni1EF8" unicode="&#x1ef8;" horiz-adv-x="1014" 
d="M446 0v572l-439 793h132l368 -680l368 680h131l-439 -793v-572h-121zM334 1533l-91 21q24 151 147 151q50 0 138 -42q57 -27 96 -27q45 0 55 70l92 -22q-18 -150 -146 -150q-59 0 -133 37q-66 32 -99 32q-43 0 -59 -70z" />
    <glyph glyph-name="uni1EF9" unicode="&#x1ef9;" horiz-adv-x="890" 
d="M159 -478l220 510l-371 876h125l307 -736l317 736h125l-604 -1386h-119zM272 1123l-91 22q24 150 147 150q50 0 138 -42q57 -27 96 -27q45 0 55 70l92 -21q-18 -151 -146 -151q-59 0 -134 37q-64 32 -98 32q-43 0 -59 -70z" />
    <glyph glyph-name="uni2002" unicode="&#x2002;" horiz-adv-x="1065" 
 />
    <glyph glyph-name="uni2003" unicode="&#x2003;" horiz-adv-x="2089" 
 />
    <glyph glyph-name="uni2004" unicode="&#x2004;" horiz-adv-x="724" 
 />
    <glyph glyph-name="uni2005" unicode="&#x2005;" horiz-adv-x="553" 
 />
    <glyph glyph-name="uni2006" unicode="&#x2006;" horiz-adv-x="177" 
 />
    <glyph glyph-name="uni2007" unicode="&#x2007;" horiz-adv-x="1180" 
 />
    <glyph glyph-name="uni2009" unicode="&#x2009;" horiz-adv-x="297" 
 />
    <glyph glyph-name="uni200A" unicode="&#x200a;" horiz-adv-x="109" 
 />
    <glyph glyph-name="uni2011" unicode="&#x2011;" horiz-adv-x="509" 
d="M82 420v104h345v-104h-345z" />
    <glyph glyph-name="figuredash" unicode="&#x2012;" horiz-adv-x="1146" 
d="M246 420v104h654v-104h-654z" />
    <glyph glyph-name="endash" unicode="&#x2013;" horiz-adv-x="1146" 
d="M246 420v104h654v-104h-654z" />
    <glyph glyph-name="emdash" unicode="&#x2014;" horiz-adv-x="1251" 
d="M82 420v104h1087v-104h-1087z" />
    <glyph glyph-name="afii00208" unicode="&#x2015;" horiz-adv-x="1251" 
d="M82 420v104h1087v-104h-1087z" />
    <glyph glyph-name="underscoredbl" unicode="&#x2017;" horiz-adv-x="1007" 
d="M7 -233v85h993v-85h-993zM7 -435v85h993v-85h-993z" />
    <glyph glyph-name="quoteleft" unicode="&#x2018;" horiz-adv-x="517" 
d="M318 1425l76 -31l-162 -453l-109 40z" />
    <glyph glyph-name="quoteright" unicode="&#x2019;" horiz-adv-x="449" 
d="M153 941l-77 31l162 453l109 -40z" />
    <glyph glyph-name="quotesinglbase" unicode="&#x201a;" horiz-adv-x="449" 
d="M153 -302l-77 30l162 453l109 -40z" />
    <glyph glyph-name="quotereversed" unicode="&#x201b;" horiz-adv-x="449" 
d="M211 1425l162 -453l-76 -31l-195 444z" />
    <glyph glyph-name="quotedblleft" unicode="&#x201c;" horiz-adv-x="817" 
d="M318 1425l76 -30l-162 -453l-109 40zM618 1425l76 -30l-162 -453l-109 40z" />
    <glyph glyph-name="quotedblright" unicode="&#x201d;" horiz-adv-x="817" 
d="M499 941l-76 31l162 453l109 -40zM199 941l-76 31l162 453l109 -40z" />
    <glyph glyph-name="quotedblbase" unicode="&#x201e;" horiz-adv-x="817" 
d="M199 -302l-76 30l162 453l109 -40zM499 -302l-76 30l162 453l109 -40z" />
    <glyph glyph-name="dagger" unicode="&#x2020;" horiz-adv-x="1117" 
d="M500 897v464h118v-464h311v-113h-311v-1161h-118v1161h-312v113h312z" />
    <glyph glyph-name="daggerdbl" unicode="&#x2021;" horiz-adv-x="1117" 
d="M188 897h312v464h118v-464h311v-113h-311v-583h311v-113h-311v-465h-118v465h-312v113h312v583h-312v113z" />
    <glyph glyph-name="bullet" unicode="&#x2022;" horiz-adv-x="969" 
d="M489 955q117 0 199 -90q70 -77 70 -183q0 -122 -90 -203q-77 -70 -183 -70q-121 0 -203 90q-70 77 -70 183q0 102 64 176q82 97 213 97z" />
    <glyph glyph-name="ellipsis" unicode="&#x2026;" horiz-adv-x="1508" 
d="M245 151q35 0 59.5 -25t24.5 -59q0 -35 -24.5 -60t-59.5 -25t-60 25t-25 59q0 36 25 60.5t60 24.5zM755 151q34 0 58.5 -25t24.5 -59q0 -35 -24.5 -60t-59.5 -25t-60 25t-25 60t25 59.5t61 24.5zM1265 151q34 0 58.5 -25t24.5 -59q0 -35 -24.5 -60t-59.5 -25t-60 25
t-25 59q0 36 25 60.5t61 24.5z" />
    <glyph glyph-name="perthousand" unicode="&#x2030;" horiz-adv-x="2590" 
d="M1425 823q314 0 314 -418q0 -417 -311 -417q-308 0 -308 423q0 412 305 412zM1428 734q-86 0 -140 -59q-30 -33 -50 -107q-20 -75 -20 -157q0 -334 211 -334q212 0 212 326q0 331 -213 331zM496 22l787 1360l68 -40l-786 -1359zM414 1378q314 0 314 -418q0 -182 -60 -287
q-73 -130 -254 -130q-305 0 -305 423q0 412 305 412zM417 1289q-86 0 -140 -59q-30 -33 -50 -107q-20 -75 -20 -157q0 -334 211 -334q212 0 212 326q0 331 -213 331zM2167 823q313 0 313 -418q0 -182 -60 -287q-73 -130 -253 -130q-305 0 -305 423q0 412 305 412zM2169 734
q-86 0 -139 -59q-30 -33 -50 -107q-20 -75 -20 -157q0 -334 210 -334q212 0 212 326q0 331 -213 331z" />
    <glyph glyph-name="minute" unicode="&#x2032;" horiz-adv-x="333" 
d="M16 941l-77 31l162 453l109 -40z" />
    <glyph glyph-name="second" unicode="&#x2033;" horiz-adv-x="633" 
d="M315 941l-76 31l162 453l109 -40zM15 941l-76 31l162 453l109 -40z" />
    <glyph glyph-name="guilsinglleft" unicode="&#x2039;" horiz-adv-x="557" 
d="M205 454l242 -298l-75 -59l-290 358l291 365l74 -59z" />
    <glyph glyph-name="guilsinglright" unicode="&#x203a;" horiz-adv-x="557" 
d="M186 97l-75 59l242 298l-242 307l74 59l291 -365z" />
    <glyph glyph-name="uni203E" unicode="&#x203e;" horiz-adv-x="1007" 
d="M7 1583v104h993v-104h-993z" />
    <glyph glyph-name="slash.aalt" unicode="&#x2044;" horiz-adv-x="363" 
d="M-246 22l787 1360l68 -40l-787 -1359z" />
    <glyph glyph-name="zerosuperior" unicode="&#x2070;" 
d="M392 1654q314 0 314 -417q0 -418 -309 -418q-310 0 -310 423q0 412 305 412zM395 1565q-210 0 -210 -335q0 -89 23 -167t60 -109q52 -46 128 -46q90 0 142 58q31 34 50 110q20 78 20 160q0 329 -213 329z" />
    <glyph glyph-name="foursuperior" unicode="&#x2074;" 
d="M460 1656l79 -48l-325 -511h262v213h97v-213h103v-88h-103v-178h-97v178h-372v88z" />
    <glyph glyph-name="fivesuperior" unicode="&#x2075;" 
d="M322 1552l-42 -199q50 15 93 15q130 0 213 -92q69 -74 69 -179q0 -123 -92 -206q-79 -72 -196 -72q-162 0 -260 146l79 54q54 -111 180 -111q91 0 145 60q47 53 47 125q0 85 -61 139q-55 49 -130 49q-74 0 -132 -52l-76 16l83 396h371v-89h-291z" />
    <glyph glyph-name="sixsuperior" unicode="&#x2076;" 
d="M451 1655l75 -54l-182 -250q32 7 59 7q127 0 209 -90q66 -70 66 -171q0 -123 -91 -205q-79 -73 -192 -73q-129 0 -215 93q-71 79 -71 184q0 96 64 182zM394 1272q-89 0 -144 -61q-45 -49 -45 -120q0 -82 61 -136q52 -48 129 -48q84 0 140 62q47 53 47 127q0 76 -57 128
q-53 48 -131 48z" />
    <glyph glyph-name="sevensuperior" unicode="&#x2077;" 
d="M273 817l-84 44l382 691h-421v89h534v-75z" />
    <glyph glyph-name="eightsuperior" unicode="&#x2078;" 
d="M242 1263q-88 73 -88 170t72 161q66 60 170 60q118 0 185 -76q56 -64 56 -145q0 -97 -88 -170q115 -82 115 -201q0 -107 -77 -175t-191 -68q-131 0 -209 85q-60 64 -60 158q0 119 115 201zM394 1213q-70 0 -116 -36q-55 -43 -55 -117q0 -66 49 -111q47 -42 124 -42
q86 0 134 53q38 44 38 101q0 67 -48.5 109.5t-125.5 42.5zM394 1567q-65 0 -107 -38t-42 -97q0 -58 43 -95q44 -38 108 -38q65 0 107.5 38t42.5 96t-43 96t-109 38z" />
    <glyph glyph-name="ninesuperior" unicode="&#x2079;" 
d="M341 817l-76 54l186 254q-31 -6 -57 -6q-134 0 -215 89q-65 71 -65 169q0 122 91 204q79 73 193 73q130 0 215 -93q70 -76 70 -183q0 -94 -65 -183zM397 1566q-84 0 -140 -62q-47 -53 -47 -126q0 -76 55 -125q53 -48 132 -48q91 0 146 61q44 50 44 117q0 81 -60 135
q-53 48 -130 48z" />
    <glyph glyph-name="zeroinferior" unicode="&#x2080;" 
d="M392 557q314 0 314 -418q0 -417 -309 -417q-157 0 -233.5 104t-76.5 319q0 412 305 412zM396 468q-211 0 -211 -335q0 -88 23 -168q22 -77 60 -108q52 -46 129 -46q89 0 141 58q31 34 50 110q20 78 20 160q0 329 -212 329z" />
    <glyph glyph-name="oneinferior" unicode="&#x2081;" 
d="M477 544v-809h-97v701l-129 -72l-46 77l185 103h87z" />
    <glyph glyph-name="twoinferior" unicode="&#x2082;" 
d="M658 -265h-518v83l306 328q97 103 97 187q0 60 -42.5 97.5t-110.5 37.5q-66 0 -104 -31t-61 -104l-89 24q20 72 56 115q72 85 201 85q123 0 190 -75q56 -62 56 -150q0 -113 -103 -222l-267 -287h389v-88z" />
    <glyph glyph-name="threeinferior" unicode="&#x2083;" 
d="M129 -98l-5 19l94 25q18 -59 44 -88q39 -46 120 -46q86 0 132 51q38 44 38 104q0 68 -44 108t-120 40h-49v87h49q65 0 105.5 37.5t40.5 95.5q0 60 -40 96.5t-106 36.5q-88 0 -151 -84l-81 44q6 6 12 17q76 112 222 112q117 0 185 -74q54 -61 54 -146q0 -107 -84 -172
q103 -69 103 -197q0 -113 -77 -181q-76 -65 -187 -65q-94 0 -160.5 47t-94.5 133z" />
    <glyph glyph-name="fourinferior" unicode="&#x2084;" 
d="M460 559l79 -48l-325 -510h262v212h97v-212h103v-89h-103v-177h-97v177h-372v88z" />
    <glyph glyph-name="fiveinferior" unicode="&#x2085;" 
d="M322 455l-42 -199q50 15 93 15q130 0 213 -92q69 -74 69 -179q0 -123 -92 -206q-80 -72 -196 -72q-163 0 -260 145l79 54q53 -110 180 -110q92 0 145 60q47 53 47 125q0 85 -61 139q-55 49 -130 49q-74 0 -132 -52l-76 16l83 396h371v-89h-291z" />
    <glyph glyph-name="sixinferior" unicode="&#x2086;" 
d="M451 559l75 -54l-182 -250q35 6 59 6q127 0 209 -90q66 -71 66 -171q0 -123 -91 -205q-79 -73 -192 -73q-129 0 -215 93q-71 79 -71 184q0 95 64 183zM394 174q-89 0 -144 -61q-45 -50 -45 -119q0 -82 61 -136q52 -48 129 -48q84 0 140 62q47 53 47 126q0 75 -57 128
q-53 48 -131 48z" />
    <glyph glyph-name="seveninferior" unicode="&#x2087;" 
d="M273 -280l-84 43l382 692h-421v89h534v-75z" />
    <glyph glyph-name="eightinferior" unicode="&#x2088;" 
d="M242 166q-88 73 -88 170t72 161q66 60 170 60q118 0 185 -76q56 -64 56 -145q0 -97 -88 -170q115 -82 115 -201q0 -107 -77 -175t-191 -68q-131 0 -209 85q-60 65 -60 158q0 119 115 201zM394 116q-70 0 -116 -36q-55 -43 -55 -117q0 -66 49 -111q46 -42 124 -42
q86 0 134 53q38 44 38 101q0 67 -48.5 109.5t-125.5 42.5zM394 470q-65 0 -107 -38t-42 -97q0 -58 43 -95q44 -38 108 -38q65 0 107.5 38t42.5 96t-43 96t-109 38z" />
    <glyph glyph-name="nineinferior" unicode="&#x2089;" 
d="M341 -280l-76 54l186 253q-38 -5 -59 -5q-130 0 -213 89q-65 71 -65 169q0 122 91 204q79 73 193 73q130 0 215 -93q70 -76 70 -183q0 -95 -65 -184zM398 469q-85 0 -141 -62q-47 -53 -47 -125q0 -70 47 -119q54 -55 141 -55q90 0 145 61q44 50 44 117q0 80 -60 136
q-53 47 -129 47z" />
    <glyph glyph-name="franc" unicode="&#x20a3;" horiz-adv-x="1379" 
d="M814 0v763h116v-125q30 42 62 68q74 58 206 58q16 0 25 -1v-105q-13 1 -27 1q-161 0 -223 -113q-43 -80 -43 -250v-296h-116zM887 1365v-112h-513v-504h372v-113h-372v-636h-121v1365h634z" />
    <glyph glyph-name="lira" unicode="&#x20a4;" horiz-adv-x="1140" 
d="M829 770h-433l3 -14q21 -106 31 -150l3 -11h396v-104h-378q8 -56 8 -103q0 -66 -18.5 -115t-64.5 -103q-19 -22 -56 -58h711v-112h-871v119q61 50 93 82q85 84 85 194q0 47 -7 96h-171v104h151l-35 164q-1 2 -1.5 5.5t-0.5 5.5h-114v104h98q-4 41 -4 84q0 225 124 331
q116 98 271 98q212 0 334 -197l-96 -63q-96 148 -244 148q-120 0 -200 -83q-71 -76 -71 -241q0 -37 6 -77h451v-104z" />
    <glyph glyph-name="peseta" unicode="&#x20a7;" horiz-adv-x="1234" 
d="M295 0v918h-118v102h118v345h268q129 0 209 -24q81 -24 139 -81q93 -90 113 -240h121v-102h-121q-22 -178 -140 -270q-57 -45 -131 -64t-190 -19h-147v-565h-121zM903 918h-487v-242h166q147 0 224.5 58t96.5 184zM416 1253v-233h487q-19 121 -97 177q-77 56 -224 56
h-166z" />
    <glyph glyph-name="uni20AB" unicode="&#x20ab;" horiz-adv-x="1158" 
d="M626 1080v105h249v180h116v-180h126v-105h-126v-1080h-116v149q-133 -171 -339 -171q-201 0 -337 151q-121 136 -121 325q0 219 155 359q129 117 303 117q206 0 339 -171v321h-249zM534 824q-147 0 -247 -109q-91 -98 -91 -260q0 -184 116 -286q97 -85 227 -85
q150 0 246 107q91 100 91 270q0 177 -114 280q-92 83 -228 83zM89 -253v104h1016v-104h-1016z" />
    <glyph glyph-name="Euro" unicode="&#x20ac;" horiz-adv-x="1621" 
d="M1344 876l-43 -108h-861q-6 -45 -6 -88q0 -41 6 -83h793l-43 -108h-725q38 -117 121 -209q170 -188 420 -188q114 0 208 42q93 40 203 141v-155q-179 -142 -408 -142q-237 0 -418 139q-183 139 -252 372h-196l43 108h131q-5 48 -5 89q0 40 5 82h-174l43 108h153
q46 157 148 275q97 112 232 174q138 62 290 62q259 0 461 -192l-43 -111q-197 189 -424 189q-185 0 -332 -108q-148 -110 -206 -289h879z" />
    <glyph glyph-name="uni20B4" unicode="&#x20b4;" horiz-adv-x="1243" 
d="M249 491h-72v104h134q80 84 283 163q16 6 27 12h-444v104h645q70 64 70 153q0 105 -82 181q-71 67 -185 67q-157 0 -257 -148l-96 63q129 197 348 197q89 0 169 -33t133 -92q89 -98 89 -232q0 -89 -40 -156h94v-104h-186q-61 -44 -144 -77l-130 -51q-60 -23 -94 -47h554
v-104h-684q-28 -49 -28 -110q0 -127 96 -214q83 -75 202 -75q111 0 185.5 63t107.5 185l117 -33q-32 -122 -98 -196q-120 -133 -309 -133q-197 0 -320 137q-103 113 -103 264q0 60 18 112z" />
    <glyph glyph-name="uni2101" unicode="&#x2101;" horiz-adv-x="1947" 
d="M872 673l-59 -101l-85 212h-388l-92 -228h-98l330 809h109zM374 870h319l-160 396zM1762 694l-75 -47q-63 88 -153 88q-74 0 -116 -48q-34 -37 -34 -85q0 -80 121 -125l82 -31q101 -37 148.5 -89t47.5 -125q0 -106 -80 -177q-76 -67 -187 -67q-99 0 -166 53.5t-93 153.5
l92 25q40 -145 170 -145q80 0 129 55q40 43 40 101q0 47 -33.5 79t-112.5 61l-79 30q-173 65 -173 202q0 95 70 156q71 62 177 62q140 0 225 -127zM643 22l786 1360l68 -40l-786 -1359z" />
    <glyph glyph-name="afii61248" unicode="&#x2105;" horiz-adv-x="2171" 
d="M885 1248l-65 -62q-107 104 -238 104q-155 0 -252 -109q-84 -94 -84 -221q0 -146 107 -242q96 -87 229 -87q129 0 242 107l65 -62q-138 -132 -306 -132q-199 0 -326 141q-107 119 -107 275q0 182 138 307q124 110 295 110q163 0 302 -129zM1592 821q191 0 321 -142
q108 -119 108 -275q0 -181 -139 -305q-124 -111 -288 -111q-165 0 -289 109q-141 125 -141 312q0 173 140 301q122 111 288 111zM1590 734q-146 0 -245 -110q-85 -92 -85 -225q0 -139 108 -237q98 -87 224 -87q148 0 250 111q83 92 83 218q0 145 -109 245q-94 85 -226 85z
M653 22l787 1360l68 -40l-786 -1359z" />
    <glyph glyph-name="uni2117" unicode="&#x2117;" horiz-adv-x="1768" 
d="M654 222v921h226q128 0 196 -38q56 -32 91 -92q39 -67 39 -147q0 -75 -33.5 -136.5t-92.5 -95.5q-68 -40 -200 -40h-121v-372h-105zM759 1046v-355h134q208 0 208 178q0 177 -208 177h-134zM897 1457q198 0 374 -104q179 -105 284 -283q104 -179 104 -387
q0 -207 -104 -388q-103 -179 -284 -283t-387 -104q-208 0 -387 103q-179 102 -284 283q-104 181 -104 393q0 334 257 570q220 200 531 200zM878 1366q-176 0 -336 -92q-159 -92 -250 -251q-92 -160 -92 -342q0 -183 92 -341q93 -159 250 -250q158 -91 342 -91q182 0 342 92
q159 91 251 250q91 158 91 345q0 298 -227 504q-194 176 -463 176z" />
    <glyph glyph-name="trademark" unicode="&#x2122;" horiz-adv-x="1435" 
d="M715 739h-73v639h79l245 -418l245 418h80v-639h-73v518l-219 -374h-66l-218 374v-518zM564 1313h-174v-574h-73v574h-174v65h421v-65z" />
    <glyph glyph-name="Omega" unicode="&#x2126;" horiz-adv-x="1644" 
d="M992 0v225q146 49 240 138q160 154 160 372q0 234 -179 392q-166 146 -391 146q-162 0 -298 -79q-129 -74 -203 -200q-69 -120 -69 -259q0 -219 162 -373q94 -90 238 -137v-225h-487v113h366v33q-131 59 -227 161q-174 186 -174 428q0 165 84 310q88 153 249 246
q167 96 359 96t359 -96q161 -93 249 -246q84 -145 84 -310q0 -187 -108 -346q-110 -161 -293 -243v-33h366v-113h-487z" />
    <glyph glyph-name="estimated" unicode="&#x212e;" horiz-adv-x="1521" 
d="M1370 671h-1033v-299q43 -113 78 -157q112 -145 355 -145q332 0 464 283h90q-49 -137 -133 -220q-158 -155 -420 -155q-368 0 -527 281q-94 166 -94 413q0 310 141 491q176 224 482 224q205 0 359 -108q180 -125 222 -378q15 -96 16 -230zM337 746h868v265
q-36 91 -99 154q-127 130 -342 130q-115 0 -198 -36t-147 -115q-28 -35 -82 -132v-266z" />
    <glyph glyph-name="onethird" unicode="&#x2153;" horiz-adv-x="1707" 
d="M336 23l786 1360l69 -39l-787 -1360zM1015 168l-5 19l93 25q20 -60 45 -88q39 -46 120 -46q86 0 132 51q38 44 38 104q0 69 -44 108.5t-121 39.5h-48v87h49q65 0 106 37t41 96q0 60 -40.5 96.5t-106.5 36.5q-48 0 -82 -19t-70 -65l-80 43q4 4 12 17q74 113 222 113
q118 0 185 -75q54 -60 54 -145q0 -107 -84 -173q103 -67 103 -196q0 -113 -77 -181q-76 -65 -187 -65q-94 0 -161 47.5t-94 132.5zM402 1365v-809h-97v701l-129 -72l-46 77l185 103h87z" />
    <glyph glyph-name="twothirds" unicode="&#x2154;" horiz-adv-x="1707" 
d="M433 22l787 1360l68 -40l-786 -1359zM1016 168l-5 19l94 25q18 -59 44 -88q40 -46 121 -46q86 0 132 51q38 44 38 104q0 69 -44 108.5t-121 39.5h-48v87h49q64 0 105.5 37t41.5 96q0 60 -40.5 96.5t-106.5 36.5q-48 0 -82 -19t-70 -65l-80 43q4 4 12 17q74 113 221 113
q118 0 186 -74q54 -62 54 -146q0 -109 -85 -173q104 -68 104 -196q0 -113 -78 -181q-76 -65 -187 -65q-94 0 -161 47.5t-94 132.5zM638 555h-518v83l306 328q97 103 97 187q0 60 -42.5 97.5t-110.5 37.5q-66 0 -104 -31t-61 -104l-89 24q53 200 257 200q122 0 190 -75
q56 -62 56 -150q0 -113 -103 -222l-267 -287h389v-88z" />
    <glyph glyph-name="onefifth" unicode="&#x2155;" horiz-adv-x="1707" 
d="M336 22l786 1360l69 -40l-787 -1359zM1182 721l-42 -199q51 15 93 15q130 0 214 -92q68 -74 68 -179q0 -124 -91 -206q-80 -72 -197 -72q-161 0 -260 145l79 54q56 -110 180 -110q92 0 145 60q47 53 47 125q0 85 -60 139q-55 49 -131 49q-77 0 -132 -52l-75 15l82 397
h371v-89h-291zM402 1365v-809h-97v701l-129 -72l-46 77l185 103h87z" />
    <glyph glyph-name="twofifth" unicode="&#x2156;" horiz-adv-x="1707" 
d="M440 20l787 1360l68 -40l-787 -1360zM1184 721l-42 -199q50 15 93 15q130 0 213 -92q69 -75 69 -179q0 -123 -92 -206q-79 -72 -196 -72q-161 0 -260 145l79 54q54 -110 180 -110q91 0 145 60q47 53 47 125q0 85 -61 139q-55 49 -131 49t-131 -52l-76 15l83 397h371v-89
h-291zM637 555h-518v83l306 328q97 103 97 187q0 60 -42.5 97.5t-110.5 37.5q-66 0 -104 -31t-61 -104l-89 24q53 200 257 200q122 0 190 -75q56 -62 56 -150q0 -113 -103 -222l-267 -287h389v-88z" />
    <glyph glyph-name="threefifth" unicode="&#x2157;" horiz-adv-x="1707" 
d="M398 22l787 1360l68 -40l-787 -1359zM1182 721l-42 -199q51 15 93 15q130 0 214 -92q68 -76 68 -179q0 -124 -91 -206q-80 -72 -196 -72q-162 0 -261 145l79 54q56 -110 180 -110q92 0 145 60q47 53 47 125q0 85 -60 139q-55 49 -131 49q-77 0 -132 -52l-75 15l82 397
h371v-89h-291zM118 723l-5 20l94 24q18 -59 44 -88q39 -46 121 -46q84 0 131 51q38 44 38 104q0 69 -44 108.5t-120 39.5h-49v88h49q65 0 105.5 36.5t40.5 95.5q0 60 -40 96.5t-106 36.5q-88 0 -151 -84l-81 44q6 6 12 17q76 112 222 112q117 0 185 -74q54 -62 54 -146
q0 -108 -84 -172q103 -70 103 -197q0 -113 -77 -181q-76 -65 -188 -65q-94 0 -160.5 47t-93.5 133z" />
    <glyph glyph-name="fourfifth" unicode="&#x2158;" horiz-adv-x="1707" 
d="M430 22l787 1360l68 -40l-786 -1359zM1185 721l-42 -199q51 15 94 15q129 0 213 -92q68 -76 68 -179q0 -124 -91 -206q-79 -72 -196 -72q-162 0 -261 145l79 54q53 -110 180 -110q93 0 145 60q47 53 47 126q0 84 -60 138q-55 49 -131 49t-132 -52l-76 15l83 397h371v-89
h-291zM475 1379l79 -48l-325 -510h262v212h97v-212h103v-88h-103v-178h-97v178h-372v88z" />
    <glyph glyph-name="onesixth" unicode="&#x2159;" horiz-adv-x="1707" 
d="M364 22l787 1360l68 -40l-787 -1359zM1288 825l76 -55l-183 -250q32 7 60 7q125 0 209 -90q65 -71 65 -171q0 -123 -91 -205q-79 -73 -192 -73q-128 0 -214 93q-71 79 -71 183q0 97 64 183zM1232 440q-88 0 -143 -61q-45 -50 -45 -119q0 -82 60 -136q52 -48 129 -48
q84 0 140 62q47 53 47 126q0 75 -54 126q-55 50 -134 50zM403 1365v-809h-97v701l-129 -72l-46 77l185 103h87z" />
    <glyph glyph-name="fivesixth" unicode="&#x215a;" horiz-adv-x="1707" 
d="M444 22l786 1360l69 -40l-787 -1359zM1287 825l76 -55l-183 -250q32 7 60 7q126 0 208 -90q66 -71 66 -171q0 -123 -91 -205q-79 -73 -192 -73q-129 0 -215 93q-70 77 -70 183q0 97 64 183zM1230 440q-88 0 -143 -61q-45 -50 -45 -119q0 -82 60 -136q52 -48 129 -48
q84 0 140 62q47 53 47 126q0 75 -54 126q-55 50 -134 50zM328 1276l-42 -199q50 15 93 15q130 0 213 -92q69 -75 69 -179q0 -123 -92 -206q-79 -72 -196 -72q-163 0 -260 145l79 54q53 -110 180 -110q91 0 145 60q47 53 47 125q0 85 -61 139q-55 49 -130 49q-74 0 -132 -52
l-76 16l83 396h371v-89h-291z" />
    <glyph glyph-name="oneeighth" unicode="&#x215b;" horiz-adv-x="1707" 
d="M337 22l786 1360l69 -40l-787 -1359zM1112 431q-88 75 -88 171q0 95 72 161q65 60 169 60q118 0 186 -77q56 -64 56 -144q0 -96 -88 -171q115 -81 115 -201q0 -106 -77 -174t-191 -68q-133 0 -209 85q-60 65 -60 158q0 119 115 200zM1262 382q-85 0 -131 -52
q-38 -44 -38 -101q0 -66 49 -111q46 -42 123 -42q87 0 135 53q38 44 38 101q0 68 -49 110t-127 42zM1264 736q-65 0 -107 -38.5t-42 -97.5q0 -57 43 -94q44 -38 107 -38q66 0 108.5 38t42.5 96t-43 96t-109 38zM403 1364v-810h-97v701l-129 -72l-46 77l185 104h87z" />
    <glyph glyph-name="threeeighths" unicode="&#x215c;" horiz-adv-x="1707" 
d="M390 22l787 1360l68 -40l-786 -1359zM1093 431q-87 75 -87 171q0 95 71 161q66 60 170 60q118 0 186 -77q55 -62 55 -144q0 -98 -87 -171q115 -81 115 -201q0 -106 -77 -174t-192 -68q-131 0 -209 85q-60 65 -60 158q0 118 115 200zM1246 382q-70 0 -117 -36
q-55 -43 -55 -117q0 -66 49 -111q47 -42 124 -42q87 0 134 53q39 43 39 101q0 67 -48.5 109.5t-125.5 42.5zM1246 736q-65 0 -107 -38t-42 -97q0 -58 43 -95q44 -38 107 -38q65 0 107.5 38t42.5 96q0 59 -42.5 96.5t-108.5 37.5zM118 723l-5 20l94 24q18 -59 44 -88
q39 -46 121 -46q84 0 131 51q38 44 38 104q0 69 -44 108.5t-120 39.5h-49v88h49q65 0 105.5 36.5t40.5 95.5q0 60 -40 96.5t-106 36.5q-88 0 -151 -84l-81 44q6 6 12 17q76 112 222 112q117 0 185 -74q54 -62 54 -146q0 -108 -84 -172q103 -70 103 -197q0 -113 -77 -181
q-76 -65 -188 -65q-94 0 -160.5 47t-93.5 133z" />
    <glyph glyph-name="fiveeighths" unicode="&#x215d;" horiz-adv-x="1707" 
d="M394 22l787 1360l68 -40l-786 -1359zM1092 431q-88 75 -88 171q0 95 71 161q66 60 170 60q118 0 186 -77q56 -62 56 -144q0 -98 -88 -171q115 -81 115 -201q0 -106 -77 -174t-192 -68q-131 0 -209 85q-59 65 -59 158q0 118 115 200zM1244 382q-71 0 -116 -36
q-55 -43 -55 -117q0 -66 49 -111q46 -42 123 -42q87 0 134 53q39 43 39 101q0 67 -48.5 109.5t-125.5 42.5zM1244 736q-65 0 -107 -38t-42 -97q0 -58 43 -95q44 -38 107 -38q65 0 108 38t43 96t-43 96t-109 38zM328 1276l-42 -199q50 15 93 15q130 0 213 -92q69 -75 69 -179
q0 -123 -92 -206q-79 -72 -196 -72q-163 0 -260 145l79 54q53 -110 180 -110q91 0 145 60q47 53 47 125q0 85 -61 139q-55 49 -130 49q-74 0 -132 -52l-76 16l83 396h371v-89h-291z" />
    <glyph glyph-name="seveneighths" unicode="&#x215e;" horiz-adv-x="1707" 
d="M325 23l787 1360l68 -39l-787 -1360zM1095 431q-88 75 -88 171q0 95 71 161q66 60 170 60q118 0 186 -77q56 -64 56 -144q0 -98 -88 -171q115 -81 115 -201q0 -106 -77 -174t-191 -68q-133 0 -209 85q-60 65 -60 158q0 118 115 200zM1245 382q-85 0 -131 -52
q-38 -44 -38 -101q0 -66 49 -111q47 -42 123 -42q87 0 135 53q38 44 38 101q0 67 -49 109.5t-127 42.5zM1247 736q-65 0 -107 -38t-42 -97q0 -58 43 -95q44 -38 108 -38q65 0 107.5 38t42.5 96t-43 96t-109 38zM286 541l-84 43l382 692h-421v89h534v-75z" />
    <glyph glyph-name="partialdiff" unicode="&#x2202;" horiz-adv-x="1220" 
d="M295 1264l15 99q161 -29 251 -62q92 -33 180 -97q145 -104 230 -258q105 -187 105 -430q0 -180 -72 -306q-63 -112 -169 -172q-103 -60 -228 -60q-208 0 -343 151q-121 136 -121 325q0 219 155 360q130 116 306 116q158 0 288 -107q-46 154 -184 266q-171 138 -413 175z
M606 824q-144 0 -241 -97q-104 -104 -104 -278q0 -178 116 -280q95 -85 229 -85q155 0 254 109q91 100 91 262q0 182 -115 284q-95 85 -230 85z" />
    <glyph glyph-name="emptyset" unicode="&#x2205;" horiz-adv-x="1259" 
d="M810 1142l125 246l79 -40l-126 -248q227 -155 227 -409q0 -133 -67 -246q-64 -112 -175 -177q-115 -67 -252 -67q-91 0 -172 35l-132 -259l-79 40l131 258q-19 11 -46 35q-180 156 -180 376q0 222 161 366q140 125 329 125q93 0 177 -35zM412 359l356 700q-60 25 -134 25
q-180 0 -297 -132q-102 -114 -102 -264q0 -155 109 -271q28 -30 66 -57zM846 1018l-355 -700q73 -24 139 -24q174 0 292 130q101 113 101 265q0 102 -47 191q-48 89 -130 138z" />
    <glyph glyph-name="increment" unicode="&#x2206;" horiz-adv-x="1354" 
d="M1286 0h-1218l535 1365h148zM236 112h880l-441 1135z" />
    <glyph glyph-name="product" unicode="&#x220f;" horiz-adv-x="1370" 
d="M370 0h-121v1252h-174v113h1220v-113h-175v-1252h-121v1252h-629v-1252z" />
    <glyph glyph-name="summation" unicode="&#x2211;" horiz-adv-x="1364" 
d="M231 116l411 593l-369 540v116h844v-112h-715l376 -542l-409 -598h790v-113h-928v116z" />
    <glyph glyph-name="minus" unicode="&#x2212;" horiz-adv-x="1139" 
d="M173 690h793v-102h-793v102z" />
    <glyph glyph-name="fraction" unicode="&#x2215;" horiz-adv-x="363" 
d="M-246 22l787 1360l68 -40l-787 -1359z" />
    <glyph glyph-name="uni2218" unicode="&#x2218;" horiz-adv-x="969" 
d="M489 956q117 0 199 -90q70 -77 70 -183q0 -121 -90 -203q-77 -70 -183 -70q-122 0 -203 90q-70 77 -70 183q0 102 64 176q82 97 213 97zM482 872q-81 0 -138 -62q-48 -54 -48 -127q0 -85 62 -141q54 -48 127 -48q85 0 141 62q48 54 48 128q0 83 -62 140q-54 48 -130 48z
" />
    <glyph glyph-name="radical" unicode="&#x221a;" horiz-adv-x="1304" 
d="M547 139l529 1566h106h456v-113h-474l-543 -1592h-148l-238 697h-160v103h249l28 -85z" />
    <glyph glyph-name="infinity" unicode="&#x221e;" horiz-adv-x="1413" 
d="M710 613q-84 -120 -164 -172q-78 -51 -176 -51q-136 0 -220 93q-75 82 -75 211q0 141 94 223q86 76 202 76q129 0 241 -108q37 -36 92 -114q64 94 122 141q98 81 217 81q137 0 221 -92q74 -83 74 -211q0 -145 -94 -227q-83 -73 -200 -73q-99 0 -175 52q-77 51 -159 171z
M767 692q42 -67 91 -119q42 -43 83.5 -61.5t95.5 -18.5q90 0 144 60q48 52 48 136q0 97 -63 152q-55 49 -134 49t-135 -43q-57 -44 -130 -155zM646 691q-46 72 -91 119q-78 80 -178 80q-89 0 -144 -60q-49 -55 -49 -140q0 -97 61 -149q55 -48 135 -48t135 42q54 39 131 156z
" />
    <glyph glyph-name="integral" unicode="&#x222b;" horiz-adv-x="603" 
d="M75 -360v106q34 -9 59 -9q57 0 83.5 42t26.5 131v1310q0 171 73 235q55 47 130 47q35 0 81 -12v-106q-36 9 -59 9q-56 0 -82.5 -42t-26.5 -131v-1310q0 -171 -73 -235q-55 -47 -130 -47q-39 0 -82 12z" />
    <glyph glyph-name="similar" unicode="&#x223c;" horiz-adv-x="1117" 
d="M152 519l-68 44q52 107 108 160q62 59 155 59q81 0 224 -69q137 -66 204 -66q59 0 100 29q42 30 88 105l71 -42q-49 -97 -105 -145q-33 -30 -79.5 -48.5t-85.5 -18.5q-52 0 -94 15q-34 11 -196 82q-85 38 -145 38q-93 0 -177 -143z" />
    <glyph glyph-name="uni2243" unicode="&#x2243;" horiz-adv-x="1125" 
d="M84 522h958v-99h-958v99zM156 665l-68 44q53 109 108 161q61 58 155 58q81 0 224 -69q137 -66 203 -66q60 0 101 30q42 29 88 104l70 -41q-49 -96 -103 -146q-33 -29 -79.5 -48t-86.5 -19q-53 0 -95 15q-36 11 -195 82q-85 38 -146 38q-93 0 -176 -143z" />
    <glyph glyph-name="approxequal" unicode="&#x2248;" horiz-adv-x="1117" 
d="M152 355l-68 44q52 108 108 161q61 58 156 58q79 0 223 -69q78 -37 125 -52q44 -14 84 -14q55 0 96.5 30t86.5 104l71 -41q-48 -95 -104 -146q-33 -29 -79.5 -48t-86.5 -19q-52 0 -94 15q-34 11 -196 82q-85 38 -145 38q-94 0 -177 -143zM152 700l-68 44q52 107 108 160
q61 58 155 58q81 0 224 -69q137 -66 203 -66q60 0 101 30q42 30 88 105l71 -41q-50 -99 -104 -147q-33 -29 -79.5 -48t-86.5 -19q-52 0 -95 15q-36 11 -195 82q-84 38 -145 38q-95 0 -177 -142z" />
    <glyph glyph-name="notequal" unicode="&#x2260;" horiz-adv-x="1126" 
d="M824 1062l-118 -237h337v-102h-387l-83 -167h470v-102h-521l-135 -271l-85 34l119 237h-337v102h387l83 167h-470v102h521l135 271z" />
    <glyph glyph-name="lessequal" unicode="&#x2264;" horiz-adv-x="1125" 
d="M992 408v-117l-860 386v116l860 391v-117l-743 -329zM992 101v-101h-860v101h860z" />
    <glyph glyph-name="greaterequal" unicode="&#x2265;" horiz-adv-x="1125" 
d="M992 0h-860v101h860v-101zM992 677l-860 -386v117l743 330l-743 329v117l860 -391v-116z" />
    <glyph glyph-name="dotmath" unicode="&#x22c5;" horiz-adv-x="445" 
d="M224 767q34 0 58.5 -25t24.5 -59q0 -35 -24.5 -60t-59.5 -25t-60 25t-25 60t25 59.5t61 24.5z" />
    <glyph glyph-name="lozenge" unicode="&#x25ca;" horiz-adv-x="1374" 
d="M1228 683l-542 -764l-540 764l540 764zM686 112l401 571l-401 571l-398 -571z" />
    <glyph glyph-name="openbullet" unicode="&#x25e6;" horiz-adv-x="969" 
d="M489 956q117 0 199 -90q70 -77 70 -183q0 -121 -90 -203q-77 -70 -183 -70q-122 0 -203 90q-70 77 -70 183q0 102 64 176q82 97 213 97zM482 872q-81 0 -138 -62q-48 -54 -48 -127q0 -85 62 -141q54 -48 127 -48q85 0 141 62q48 54 48 128q0 83 -62 140q-54 48 -130 48z
" />
    <glyph glyph-name="glyph155" horiz-adv-x="526" 
 />
    <glyph glyph-name="glyph172" horiz-adv-x="1168" 
 />
    <glyph glyph-name="glyph210" horiz-adv-x="526" 
 />
    <glyph glyph-name="seven.denominator" 
d="M273 -15l-84 44l382 691h-421v89h534v-75z" />
    <glyph glyph-name="eight.denominator" 
d="M242 431q-88 75 -88 171q0 95 72 161q66 60 170 60q117 0 185 -77q56 -62 56 -144q0 -98 -88 -171q115 -81 115 -201q0 -106 -77 -174t-191 -68q-131 0 -209 85q-60 65 -60 158q0 118 115 200zM394 382q-70 0 -116 -36q-55 -43 -55 -117q0 -66 49 -111q46 -42 124 -42
q86 0 134 53q38 44 38 101q0 67 -48.5 109.5t-125.5 42.5zM394 736q-65 0 -107 -38t-42 -97q0 -58 43 -95q44 -38 108 -38q65 0 107.5 38t42.5 96t-43 96t-109 38z" />
    <glyph glyph-name="nine.denominator" 
d="M341 -15l-76 54l186 254q-33 -6 -59 -6q-130 0 -213 89q-65 71 -65 170q0 122 91 204q79 73 193 73q130 0 215 -93q70 -76 70 -183q0 -95 -65 -184zM397 735q-84 0 -140 -62q-47 -53 -47 -127q0 -76 55 -125q53 -48 132 -48q91 0 146 61q44 50 44 118q0 80 -60 136
q-53 47 -130 47z" />
    <glyph glyph-name="four.fitted" horiz-adv-x="1139" 
d="M685 1383l97 -61l-551 -903h495v370h120v-370h172v-110h-172v-309h-120v309h-620v125z" />
    <glyph glyph-name="three.fitted" horiz-adv-x="1139" 
d="M491 661v109h61q78 0 155 44q50 29 79.5 85t29.5 123q0 115 -79 187q-73 66 -192 66q-82 0 -140 -32.5t-111 -107.5l-99 56q126 196 353 196q188 0 296 -121q89 -98 89 -240q0 -190 -158 -300q190 -118 190 -341q0 -190 -128 -303q-119 -104 -293 -104q-146 0 -253 77
t-149 214l-5 19l117 32q33 -97 77 -147q73 -82 212 -82q147 0 230 92q73 80 73 199q0 131 -86 211q-74 68 -209 68h-60z" />
    <glyph glyph-name="zero.denominator" 
d="M392 823q180 0 254 -129q60 -107 60 -289q0 -417 -309 -417q-157 0 -233.5 104t-76.5 319q0 412 305 412zM396 734q-87 0 -141 -59q-30 -33 -50 -107q-20 -75 -20 -158q0 -333 210 -333q213 0 213 331q0 326 -212 326z" />
    <glyph glyph-name="two.fitted" horiz-adv-x="1139" 
d="M999 0h-823v115l505 564q167 187 167 341q0 114 -81 188q-73 67 -195 67q-112 0 -180.5 -54.5t-107.5 -175.5l-109 31q28 109 91 179q116 132 313 132q189 0 296 -120q91 -100 91 -249q0 -191 -163 -372l-479 -535h675v-111z" />
    <glyph glyph-name="one.fitted" horiz-adv-x="1139" 
d="M282 110h269v1124l-228 -133l-56 98l286 166h118v-1255h245v-110h-634v110z" />
    <glyph glyph-name="Dieresis" horiz-adv-x="975" 
d="M677 1705q34 0 59 -25t25 -60q0 -36 -25 -61t-60 -25t-60.5 25.5t-25.5 59.5q0 36 25.5 61t61.5 25zM301 1705q34 0 59 -25.5t25 -59.5q0 -35 -25.5 -60.5t-60.5 -25.5t-60 25.5t-25 60.5t25.5 60t61.5 25z" />
    <glyph glyph-name="Dotaccent" horiz-adv-x="975" 
d="M489 1705q34 0 59 -25.5t25 -59.5q0 -35 -25.5 -60.5t-60.5 -25.5t-60 25.5t-25 60.5t25.5 60t61.5 25z" />
    <glyph glyph-name="Ring" horiz-adv-x="975" 
d="M487 1786q76 0 129 -56q42 -46 42 -110q0 -74 -55 -123q-50 -44 -115 -44q-72 0 -121 49q-50 50 -50 120q0 66 51 116q50 48 119 48zM487 1726q-44 0 -74.5 -31.5t-30.5 -76.5q0 -41 32 -73q31 -31 73 -31q44 0 75 31t31 75q0 45 -31 75.5t-75 30.5z" />
    <glyph glyph-name="Acute" horiz-adv-x="975" 
d="M489 1481l-70 40l189 261l118 -64z" />
    <glyph glyph-name="Grave" horiz-adv-x="975" 
d="M367 1782l189 -261l-70 -40l-237 237z" />
    <glyph glyph-name="five.fitted" horiz-adv-x="1139" 
d="M908 1253h-481l-81 -401q9 3 19 7q84 32 160 32q205 0 339 -147q113 -125 113 -303q0 -211 -152 -349q-125 -114 -304 -114q-178 0 -309 109q-48 40 -98 118l95 68q102 -183 308 -183q157 0 253 108q87 98 87 237q0 161 -112 261q-96 87 -228 87q-134 0 -225 -89l-95 20
l130 651h581v-112z" />
    <glyph glyph-name="Caron" horiz-adv-x="975" 
d="M215 1730l81 40l191 -179l191 179l81 -40l-220 -241h-104z" />
    <glyph glyph-name="Breve" horiz-adv-x="975" 
d="M232 1722l99 8q6 -70 47 -111t107 -41q64 0 105.5 39.5t53.5 112.5l99 -8q-13 -92 -64 -154q-75 -90 -193 -90q-110 0 -178 67q-68 65 -76 177z" />
    <glyph glyph-name="Tilde" horiz-adv-x="975" 
d="M314 1533l-91 21q24 151 147 151q50 0 138 -42q57 -27 96 -27q45 0 55 70l92 -22q-19 -150 -146 -150q-59 0 -134 37q-64 32 -98 32q-43 0 -59 -70z" />
    <glyph glyph-name="Hungarumlaut" horiz-adv-x="975" 
d="M278 1521l190 260l111 -62l-237 -238zM565 1521l189 260l112 -62l-237 -238z" />
    <glyph glyph-name="Cedilla" horiz-adv-x="975" 
d="M525 -112l109 -47l-189 -241l-78 39z" />
    <glyph glyph-name="Ogonek" horiz-adv-x="975" 
d="M935 -187l33 -83q-66 -23 -115 -23q-86 0 -134 53q-36 40 -36 92q0 72 63 148h116q-73 -82 -73 -139q0 -62 78 -62q28 0 68 14z" />
    <glyph glyph-name="Macron" horiz-adv-x="975" 
d="M221 1567v104h533v-104h-533z" />
    <glyph glyph-name="Commaaccent" horiz-adv-x="975" 
d="M352 -410l88 298l115 -35l-124 -287z" />
    <glyph glyph-name="Comma.high" horiz-adv-x="975" 
d="M598 1485l88 297l115 -34l-124 -288z" />
    <glyph glyph-name="Dieresis.alt" horiz-adv-x="975" 
d="M618 1705q34 0 59 -25t25 -60q0 -36 -25 -61t-60 -25t-60.5 25.5t-25.5 59.5q0 36 25.5 61t61.5 25zM345 1705q34 0 59 -25.5t25 -59.5q0 -35 -25.5 -60.5t-60.5 -25.5t-60 25.5t-25 60.5t25.5 60t61.5 25z" />
    <glyph glyph-name="commaaccent" horiz-adv-x="975" 
d="M352 -410l88 298l115 -35l-124 -287z" />
    <glyph glyph-name="comma.high" horiz-adv-x="975" 
d="M598 1075l88 297l115 -34l-124 -288z" />
    <glyph glyph-name="dieresis.alt" horiz-adv-x="975" 
d="M344 1293q35 0 60 -25t25 -60t-25.5 -60.5t-60.5 -25.5t-60 25.5t-25 59.5q0 36 25 61t61 25zM618 1293q34 0 59 -25t25 -60q0 -36 -25 -61t-60 -25t-60.5 25.5t-25.5 59.5q0 36 25.5 61t61.5 25z" />
    <glyph glyph-name="commareversed" horiz-adv-x="975" 
d="M801 1348l-89 -298l-114 35l124 288z" />
    <glyph glyph-name="G.salt" horiz-adv-x="1493" 
d="M1224 321v255h-361v113h480v-431q-39 -51 -68 -80q-77 -77 -184 -129q-150 -71 -306 -71q-182 0 -340 91q-164 95 -258 260q-93 164 -93 352q0 193 97 360q94 162 250 253q160 93 350 93q139 0 252 -49t224 -158l-82 -83q-71 72 -134 109q-118 67 -262 67
q-256 0 -422 -187q-151 -169 -151 -404q0 -270 193 -444q163 -146 380 -146q257 0 435 205v24z" />
    <glyph glyph-name="M.salt" horiz-adv-x="1726" 
d="M143 0l136 1365h127l457 -920l456 920h127l136 -1365h-123l-114 1180l-426 -861h-112l-428 860l-113 -1179h-123z" />
    <glyph glyph-name="y.salt" horiz-adv-x="890" 
d="M258 -262l123 289l-373 881h125l308 -740l316 740h125l-524 -1216q-44 -102 -90.5 -146.5t-108.5 -44.5q-30 0 -66 10l17 105q18 -7 32 -7q34 0 59.5 28.5t56.5 100.5z" />
    <glyph glyph-name="parenleft.salt" horiz-adv-x="584" 
d="M447 -197l-103 -47q-47 100 -78 220q-89 339 -89 707q0 262 46 511q45 255 121 416l103 -48q-153 -396 -153 -879t153 -880z" />
    <glyph glyph-name="parenright.salt" horiz-adv-x="584" 
d="M240 -245l-103 48q153 398 153 880q0 483 -153 879l103 48q47 -102 78 -221q89 -339 89 -707q0 -260 -45 -510q-47 -256 -122 -417z" />
    <glyph glyph-name="bracketleft.salt" horiz-adv-x="583" 
d="M290 -129h198v-109h-317v1842h317v-109h-198v-1624z" />
    <glyph glyph-name="bracketright.salt" horiz-adv-x="583" 
d="M96 -238v109h198v1624h-198v109h317v-1842h-317z" />
    <glyph glyph-name="afii61248.salt" horiz-adv-x="1566" 
d="M658 1224l-65 -63q-67 72 -151 72q-93 0 -148 -61q-49 -53 -49 -139q0 -97 62 -153q55 -48 136 -48q48 0 81.5 16.5t72.5 58.5l65 -62q-98 -99 -219 -99q-135 0 -221 95q-72 79 -72 191q0 128 93 212q83 74 200 74q62 0 110 -21t105 -73zM1131 547q127 0 213 -95
q72 -80 72 -190q0 -129 -93 -213q-83 -74 -197 -74q-132 0 -218 95q-72 80 -72 194q0 124 93 209q82 74 202 74zM1123 461q-84 0 -138 -56q-54 -55 -54 -143q0 -98 63 -153q54 -48 132 -48q90 0 146 62q49 52 49 140q0 95 -63 150q-54 48 -135 48zM346 23l783 1359l70 -41
l-782 -1358z" />
    <glyph glyph-name="braceleft.salt" horiz-adv-x="588" 
d="M111 637v96q66 23 93.5 69t27.5 134v392q0 153 62 218q58 58 183 58q21 0 40 -1v-102q-103 0 -134 -36q-33 -37 -33 -150v-385q0 -100 -27 -156q-28 -54 -99 -92q69 -38 98 -95q28 -55 28 -156v-377q0 -69 7.5 -102.5t28.5 -55.5q28 -30 131 -32v-102q-17 -1 -34 -1
q-139 0 -195 65t-56 226v375q0 93 -27 140t-94 70z" />
    <glyph glyph-name="braceright.salt" horiz-adv-x="588" 
d="M476 733v-96q-67 -23 -94 -70t-27 -140v-375q0 -154 -51 -218q-57 -73 -200 -73q-17 0 -34 1v102q107 2 137 39t30 151v377q0 100 28.5 157t97.5 94q-69 35 -98 92q-28 55 -28 156v385q0 67 -8 100.5t-30 55.5q-31 30 -129 30v102q20 1 40 1q125 0 183 -58
q62 -65 62 -218v-392q0 -88 27.5 -134t93.5 -69z" />
    <glyph glyph-name="copyright.salt" horiz-adv-x="973" 
d="M705 1301l-46 -46q-63 64 -130 64q-76 0 -126 -56q-46 -52 -46 -124q0 -83 58 -135q49 -44 114 -44q67 0 132 66l47 -47q-82 -84 -179 -84q-109 0 -180 81q-62 71 -62 163q0 109 79 182q69 63 163 63q93 0 176 -83zM515 1554q187 0 311 -138q107 -119 107 -278
q0 -186 -138 -310q-119 -107 -279 -107q-173 0 -295 122q-122 124 -122 301t139 304q115 106 277 106zM513 1493q-155 0 -260 -117q-93 -104 -93 -242q0 -142 104 -248q104 -104 251 -104q160 0 265 117q92 103 92 239q0 156 -118 264q-100 91 -241 91z" />
    <glyph glyph-name="registered.salt" horiz-adv-x="973" 
d="M590 1101l116 -199h-79l-105 186q-18 -1 -55 -1h-18v-185h-68v476h120q93 0 134 -47q37 -41 37 -99q0 -91 -82 -131zM449 1314v-164h59q97 0 97 80q0 84 -98 84h-58zM515 1554q187 0 311 -138q107 -119 107 -278q0 -186 -138 -310q-119 -107 -279 -107q-173 0 -295 122
q-122 124 -122 301t139 304q115 106 277 106zM513 1493q-155 0 -260 -117q-93 -104 -93 -242q0 -66 28 -132.5t76 -115.5q104 -104 251 -104q160 0 265 117q92 103 92 239q0 156 -118 264q-100 91 -241 91z" />
    <glyph glyph-name="Circumflex" horiz-adv-x="975" 
d="M487 1660l-191 -179l-81 40l220 241h104l220 -241l-81 -40z" />
    <glyph glyph-name="six.fitted" horiz-adv-x="1139" 
d="M216 743l451 639l92 -70l-329 -469q70 29 145 29q205 0 336 -144q109 -118 109 -289q0 -206 -152 -346q-124 -115 -299 -115q-204 0 -339 150q-117 130 -117 309q0 161 103 306zM567 765q-152 0 -251 -109q-84 -93 -84 -226q0 -156 111 -257q93 -84 225 -84
q148 0 246 110q87 99 87 239q0 145 -107 243q-93 84 -227 84z" />
    <glyph glyph-name="seven.fitted" horiz-adv-x="1139" 
d="M251 38l645 1215h-717v112h849v-104l-672 -1278z" />
    <glyph glyph-name="eight.fitted" horiz-adv-x="1139" 
d="M350 727q-61 41 -94 88q-69 96 -69 211q0 159 119 267q103 94 263 94q181 0 290 -121q92 -104 92 -240q0 -92 -42 -169.5t-120 -129.5q62 -37 110 -91q97 -110 97 -259q0 -179 -127 -291q-121 -108 -300 -108q-128 0 -235 61q-90 51 -141 139t-51 199q0 110 53.5 200
t154.5 150zM567 662q-121 0 -204 -66q-102 -82 -102 -221q0 -127 92 -211q84 -75 216 -75q151 0 236 96q72 79 72 192q0 126 -91 210q-82 75 -219 75zM566 1279q-126 0 -205 -87q-63 -69 -63 -172q0 -110 82 -183q76 -68 189 -68q131 0 208 87q63 70 63 169q0 113 -81 186
q-76 68 -193 68z" />
    <glyph glyph-name="nine.fitted" horiz-adv-x="1139" 
d="M922 621l-450 -638l-92 69l331 471q-69 -24 -142 -24q-212 0 -343 143q-107 118 -107 285q0 125 63 235q61 106 165 166q103 59 224 59q203 0 337 -147q118 -130 118 -311q0 -160 -104 -308zM571 1276q-148 0 -246 -110q-87 -98 -87 -237q0 -133 87 -224q94 -99 247 -99
q155 0 252 109q83 92 83 222q0 155 -111 255q-92 84 -225 84z" />
    <glyph glyph-name="zero.fitted" horiz-adv-x="1139" 
d="M569 1387q276 0 393 -205q102 -181 102 -500q0 -318 -102 -499q-115 -205 -392 -205q-279 0 -394 205q-102 181 -102 509q0 695 495 695zM568 1275q-150 0 -245 -104q-63 -69 -98 -219q-28 -122 -28 -259q0 -603 372 -603t372 593q0 592 -373 592z" />
    <glyph glyph-name="sterling.fitted" horiz-adv-x="1139" 
d="M829 628h-403l4 -19q29 -145 29 -231q0 -75 -31 -134q-32 -60 -108 -132h711v-112h-871v119q65 55 93 83q85 82 85 190q0 76 -31 222l-3 14h-144v108h121l-5 26q-22 101 -22 203q0 218 124 324q116 98 271 98q212 0 334 -197l-96 -62q-98 147 -244 147q-122 0 -199 -83
q-72 -76 -72 -218q0 -87 27 -219l4 -19h426v-108z" />
    <glyph glyph-name="dollar.fitted" horiz-adv-x="1139" 
d="M522 1383v187h119v-187q173 -25 286 -192l-96 -63q-103 147 -258 147q-127 0 -204 -86q-63 -72 -63 -163q0 -152 213 -235l136 -53q198 -76 266 -185q47 -74 47 -170q0 -143 -92 -255q-92 -111 -235 -140v-200h-119v191q-148 10 -248 95q-98 86 -137 233l117 33
q29 -100 77 -154q85 -94 217 -94q137 0 224 97q74 83 74 193q0 88 -57 148q-60 60 -196 113l-130 51q-168 66 -231 166q-45 74 -45 167q0 142 90 238q89 95 245 118z" />
    <glyph glyph-name="cent.fitted" horiz-adv-x="1139" 
d="M544 0v213q-111 18 -198 81q-89 66 -137 164q-53 104 -53 225q0 179 107 309q107 128 281 159v214h118v-209q90 -9 153 -39q63 -32 137 -102l-78 -78q-109 115 -253 115q-156 0 -257 -110q-90 -99 -90 -259q0 -183 114 -285q98 -86 236 -86q81 0 140 28t117 95l78 -79
q-120 -131 -297 -148v-208h-118z" />
    <glyph glyph-name="florin.fitted" horiz-adv-x="1139" 
d="M130 -391l22 106q29 -7 50 -7q114 0 147 163l190 932h-94l21 105h94l10 46l29 145q57 279 265 279q32 0 72 -10l-21 -107q-30 8 -50 8q-115 0 -148 -163l-40 -198h168l-21 -105h-169l-188 -925q-57 -279 -264 -279q-34 0 -73 10z" />
    <glyph glyph-name="Euro.fitted" horiz-adv-x="1139" 
d="M1124 876l-43 -108h-861q-6 -45 -6 -88q0 -41 6 -83h793l-43 -108h-725q38 -117 121 -209q170 -188 420 -188q114 0 208 42q93 40 203 141v-155q-179 -142 -408 -142q-237 0 -418 139q-183 139 -252 372h-196l43 108h131q-5 48 -5 89q0 40 5 82h-174l43 108h153
q46 157 148 275q97 112 232 174q138 62 290 62q259 0 461 -192l-43 -111q-197 189 -424 189q-185 0 -332 -108q-148 -110 -206 -289h879z" />
    <glyph glyph-name="yen.fitted" horiz-adv-x="1139" 
d="M508 0v489h-340v108h324v4l-93 167h-231v108h171l-270 489h132l368 -680l369 680h131l-271 -489h172v-108h-232l-93 -167v-4h325v-108h-341v-489h-121z" />
    <glyph glyph-name="one.numerator" 
d="M477 1365v-810h-97v702l-129 -72l-46 77l185 103h87z" />
    <glyph glyph-name="two.numerator" 
d="M658 555h-518v83l306 328q97 103 97 187q0 60 -42.5 97.5t-110.5 37.5q-66 0 -104 -31t-61 -104l-89 24q53 200 257 200q123 0 190 -75q56 -62 56 -150q0 -113 -103 -222l-267 -287h389v-88z" />
    <glyph glyph-name="three.numerator" 
d="M129 723l-5 20l94 25q18 -58 44 -89q39 -46 120 -46q86 0 132 51q38 44 38 104q0 69 -44 108.5t-120 39.5h-49v88h49q65 0 105.5 37t40.5 95q0 60 -40 96.5t-106 36.5q-48 0 -82 -18.5t-69 -65.5l-81 44q4 4 12 17q76 112 222 112q117 0 185 -74q54 -62 54 -146
q0 -108 -84 -172q103 -70 103 -196q0 -114 -77 -182q-76 -65 -187 -65q-94 0 -160.5 47t-94.5 133z" />
    </font>
</defs>
</svg>
