<?xml version="1.0" standalone="no"?>
<!DOCTYPE svg PUBLIC "-//W3C//DTD SVG 1.1//EN" "http://www.w3.org/Graphics/SVG/1.1/DTD/svg11.dtd" >
<svg xmlns="http://www.w3.org/2000/svg" xmlns:xlink="http://www.w3.org/1999/xlink" version="1.1">
<metadata>
Created by FontForge 20170731 at Thu Jan 14 12:16:40 2016
 By Aleksey,,,
(URW)++,Copyright 2015 by (URW)++ Design &#38; Development
</metadata>
<defs>
<font id="URWGeometric-Medium" horiz-adv-x="792" >
  <font-face 
    font-family="URW Geometric Med"
    font-weight="500"
    font-stretch="normal"
    units-per-em="2048"
    panose-1="0 0 0 0 0 0 0 0 0 0"
    ascent="1500"
    descent="-548"
    x-height="908"
    cap-height="1365"
    bbox="-259 -504 2496 2188"
    underline-thickness="161"
    underline-position="-442"
    unicode-range="U+0020-FB04"
  />
<missing-glyph horiz-adv-x="498" 
d="M448 0h-398v1365h398v-1365zM100 50h298v1265h-298v-1265z" />
    <glyph glyph-name="afii61352" unicode="Nr&#x2e;" horiz-adv-x="2170" 
d="M2017 570h-519v128h519v-128zM340 0h-183v1365h165l790 -1060v1060h183v-1365h-165l-790 1060v-1060zM1762 1391q129 0 216 -96q73 -79 73 -191q0 -129 -94 -213q-83 -75 -199 -75q-136 0 -221 96q-73 80 -73 194q0 125 94 210q82 75 204 75zM1755 1271q-70 0 -114 -47
q-45 -46 -45 -120q0 -82 52 -128q44 -40 109 -40q72 0 117 47t45 122q0 74 -45.5 120t-118.5 46z" />
    <glyph glyph-name="ff" unicode="ff" horiz-adv-x="1021" 
d="M486 908v-158h-163v-750h-175v750h-90v158h90v157q0 122 40 192q57 102 188 102q43 0 107 -14v-159q-46 12 -74 12q-86 0 -86 -133v-157h163zM990 908v-158h-163v-750h-175v750h-90v158h90v178q0 121 40 192q57 102 188 102q47 0 107 -15v-158q-50 12 -74 12
q-86 0 -86 -133v-178h163z" />
    <glyph glyph-name="fi" unicode="fi" horiz-adv-x="926" 
d="M486 908v-158h-163v-750h-175v750h-90v158h90v178q0 121 40 192q57 102 188 102q47 0 107 -15v-158q-50 12 -74 12q-86 0 -86 -133v-178h163zM627 908h175v-908h-175v908zM714 1329q50 0 84.5 -34.5t34.5 -83.5q0 -48 -34 -82q-35 -35 -84 -35q-50 0 -84.5 34.5
t-34.5 84.5q0 47 35 82q34 34 83 34z" />
    <glyph glyph-name="fl" unicode="fl" horiz-adv-x="927" 
d="M486 908v-158h-163v-750h-175v750h-90v158h90v178q0 121 40 192q57 102 188 102q47 0 107 -15v-158q-50 12 -74 12q-86 0 -86 -133v-178h163zM803 1365v-1365h-175v1365h175z" />
    <glyph glyph-name="ffi" unicode="ffi" horiz-adv-x="1426" 
d="M486 908v-158h-163v-750h-175v750h-90v158h90v157q0 122 40 192q57 102 188 102q43 0 107 -14v-159q-46 12 -74 12q-86 0 -86 -133v-157h163zM990 908v-158h-163v-750h-175v750h-90v158h90v178q0 121 40 192q57 102 188 102q47 0 107 -15v-158q-50 12 -74 12
q-86 0 -86 -133v-178h163zM1128 908h175v-908h-175v908zM1215 1329q50 0 84.5 -34.5t34.5 -83.5q0 -48 -34 -82q-35 -35 -84 -35q-50 0 -84.5 34.5t-34.5 84.5q0 47 35 82q34 34 83 34z" />
    <glyph glyph-name="ffl" unicode="ffl" horiz-adv-x="1428" 
d="M486 908v-158h-163v-750h-175v750h-90v158h90v157q0 122 40 192q57 102 188 102q43 0 107 -14v-159q-46 12 -74 12q-86 0 -86 -133v-157h163zM990 908v-158h-163v-750h-175v750h-90v158h90v178q0 121 40 192q57 102 188 102q47 0 107 -15v-158q-50 12 -74 12
q-86 0 -86 -133v-178h163zM1303 1365v-1365h-175v1365h175z" />
    <glyph glyph-name=".notdef" horiz-adv-x="498" 
d="M448 0h-398v1365h398v-1365zM100 50h298v1265h-298v-1265z" />
    <glyph glyph-name="glyph1" horiz-adv-x="0" 
 />
    <glyph glyph-name="glyph2" horiz-adv-x="498" 
 />
    <glyph glyph-name="space" unicode=" " horiz-adv-x="498" 
 />
    <glyph glyph-name="exclam" unicode="!" horiz-adv-x="587" 
d="M293 207q49 0 82.5 -33.5t33.5 -81.5t-34 -81.5t-82 -33.5q-49 0 -82.5 34t-33.5 83q0 45 35 80q34 33 81 33zM375 321h-164l-18 1044h200z" />
    <glyph glyph-name="quotedbl" unicode="&#x22;" horiz-adv-x="646" 
d="M265 1379l-25 -553h-133l-25 553h183zM564 1379l-25 -553h-133l-25 553h183z" />
    <glyph glyph-name="numbersign" unicode="#" horiz-adv-x="1202" 
d="M169 5l78 387h-151l28 138h151l62 304h-152l28 138h152l85 420l145 -34l-78 -386h287l85 420l145 -31l-79 -389h152l-28 -138h-152l-61 -304h151l-28 -138h-151l-85 -421l-145 34l78 387h-287l-85 -421zM428 530h286l61 304h-286z" />
    <glyph glyph-name="dollar" unicode="$" horiz-adv-x="1172" 
d="M508 -212v189q-147 20 -247 115q-93 89 -131 254l177 48q22 -87 43 -124q74 -125 219 -125q118 0 192 83q64 70 64 165q0 62 -33 106q-46 59 -192 116l-126 49q-289 112 -289 349q0 139 87 240q87 99 236 129v188h180v-188q184 -36 293 -222l-147 -94q-47 70 -84 101
q-66 54 -158 54q-109 0 -173 -73q-53 -61 -53 -136q0 -125 186 -197l132 -50q206 -79 276 -192q49 -77 49 -179q0 -143 -90 -257q-91 -115 -231 -148v-201h-180z" />
    <glyph glyph-name="percent" unicode="%" horiz-adv-x="1842" 
d="M1423 825q324 0 324 -420t-319 -420q-321 0 -321 425q0 178 61 281q78 134 255 134zM1427 703q-76 0 -121 -50q-29 -32 -45 -98q-18 -67 -18 -143q0 -305 183 -305q76 0 123 50q26 29 44 100t18 147q0 299 -184 299zM478 31l787 1360l100 -58l-787 -1360zM412 1380
q324 0 324 -420q0 -419 -319 -419q-321 0 -321 425q0 414 316 414zM416 1258q-184 0 -184 -303q0 -292 184 -292q75 0 122 50q26 29 44 100t18 147q0 298 -184 298z" />
    <glyph glyph-name="ampersand" unicode="&#x26;" horiz-adv-x="1325" 
d="M650 759l309 -369q41 75 89 211l164 -45l-6 -16q-63 -193 -127 -292l208 -248h-215l-99 119q-163 -145 -379 -145q-146 0 -264 66q-90 50 -144 144q-49 85 -49 180q0 114 69 212q67 97 221 204l-5 5q-78 97 -111.5 167.5t-33.5 138.5q0 134 98 223q85 77 210 77
q143 0 228 -96q74 -83 74 -192q0 -93 -53 -170q-55 -79 -184 -174zM553 874q101 78 140 129q37 49 37 106q0 60 -41.5 99t-105.5 39q-71 0 -111 -48q-38 -43 -38 -100q0 -82 119 -225zM862 254l-338 409q-80 -61 -126 -108q-86 -83 -86 -183q0 -96 78 -167q75 -69 202 -69
q162 0 270 118z" />
    <glyph glyph-name="quotesingle" unicode="'" horiz-adv-x="347" 
d="M265 1379l-25 -553h-133l-25 553h183z" />
    <glyph glyph-name="parenleft" unicode="(" horiz-adv-x="619" 
d="M340 1510l156 -72q-155 -403 -155 -873t155 -872l-156 -73q-31 67 -46 106q-45 122 -75 280q-55 290 -55 563q0 262 47 515q47 250 129 426z" />
    <glyph glyph-name="parenright" unicode=")" horiz-adv-x="619" 
d="M279 -380l-156 73q155 400 155 873t-155 872l156 72q54 -116 89 -247q87 -329 87 -694q0 -345 -80 -677q-33 -139 -96 -272z" />
    <glyph glyph-name="asterisk" unicode="*" horiz-adv-x="971" 
d="M130 1190l51 156l233 -86l-11 248h165l-11 -248l234 86l50 -156l-239 -66l154 -195l-133 -96l-137 206l-138 -207l-133 97l155 194z" />
    <glyph glyph-name="plus" unicode="+" horiz-adv-x="1139" 
d="M82 717h407v409h160v-409h407v-77v-77h-407v-410h-160v410h-407v77v77z" />
    <glyph glyph-name="comma" unicode="," horiz-adv-x="487" 
d="M42 -279l179 496l160 -58l-217 -487z" />
    <glyph glyph-name="hyphen" unicode="-" horiz-adv-x="536" 
d="M68 393v158h399v-158h-399z" />
    <glyph glyph-name="period" unicode="." horiz-adv-x="480" 
d="M240 207q48 0 82 -33.5t34 -81.5t-34 -81.5t-83 -33.5q-48 0 -81.5 34t-33.5 83q0 45 35 80q35 33 81 33z" />
    <glyph glyph-name="slash" unicode="/" horiz-adv-x="1127" 
d="M106 53l778 1341l137 -82l-778 -1341z" />
    <glyph glyph-name="zero" unicode="0" horiz-adv-x="1176" 
d="M582 1391q293 0 415 -215q103 -179 103 -494q0 -708 -511 -708q-289 0 -411 215q-103 181 -103 503q0 308 103 484q57 100 148 151q112 64 256 64zM587 1222q-131 0 -213 -90q-57 -63 -87 -198q-26 -118 -26 -239q0 -552 327 -552q326 0 326 548q0 236 -80 393
q-33 64 -101 102q-65 36 -146 36z" />
    <glyph glyph-name="one" unicode="1" horiz-adv-x="631" 
d="M475 1365v-1365h-182v1155l-201 -116l-85 147l311 179h157z" />
    <glyph glyph-name="two" unicode="2" horiz-adv-x="993" 
d="M946 0h-854v154l495 555q150 168 150 307q0 94 -64 152q-59 53 -166 53q-104 0 -162 -49t-93 -169l-167 46q28 119 94 199q120 143 334 143q95 0 177 -32.5t134 -90.5q92 -104 92 -257q0 -191 -141 -349l-440 -494h611v-168z" />
    <glyph glyph-name="three" unicode="3" horiz-adv-x="976" 
d="M31 308l-5 19l177 48q26 -101 71 -155q62 -75 183 -75q127 0 200 82q62 70 62 169q0 108 -71 176q-62 59 -198 59h-74v167h74q134 0 191 68q51 60 51 144q0 99 -67 159q-59 53 -156 53q-78 0 -132 -33q-55 -34 -110 -114l-151 84q139 232 393 232q195 0 307 -126
q94 -103 94 -252q0 -173 -136 -285q167 -126 167 -331q0 -194 -133 -311q-127 -112 -312 -112q-196 0 -321 132q-71 76 -104 202z" />
    <glyph glyph-name="four" unicode="4" horiz-adv-x="1062" 
d="M635 1395l147 -92l-525 -840h395v343h181v-343h164v-166h-164v-297h-181v297h-597v172z" />
    <glyph glyph-name="five" unicode="5" horiz-adv-x="1075" 
d="M919 1365v-168h-470l-62 -308l18 6q45 16 113 16q213 0 351 -153q117 -128 117 -308q0 -213 -156 -354q-134 -122 -324 -122q-138 0 -242 62.5t-189 195.5l145 101q40 -75 82 -114q83 -77 202 -77q138 0 225 98q75 84 75 203q0 140 -98 229q-82 75 -197 75
q-127 0 -206 -88l-141 30l137 676h620z" />
    <glyph glyph-name="six" unicode="6" horiz-adv-x="1114" 
d="M643 1395l140 -105l-289 -410q38 12 78 12q125 0 235 -65q103 -59 158 -156q59 -101 59 -224q0 -130 -64 -240q-66 -111 -172 -172t-233 -61q-211 0 -352 155q-120 133 -120 316q0 164 106 312zM554 728q-132 0 -218 -95q-73 -79 -73 -196q0 -135 96 -222q79 -73 195 -73
q130 0 215 96q75 86 75 206q0 118 -77 197q-85 87 -213 87z" />
    <glyph glyph-name="seven" unicode="7" horiz-adv-x="925" 
d="M244 -30l-158 83l615 1144h-674v168h884v-140z" />
    <glyph glyph-name="eight" unicode="8" horiz-adv-x="1044" 
d="M261 727q-142 124 -142 285q0 166 125 279q110 100 278 100q190 0 306 -128q97 -107 97 -251q0 -162 -142 -285q186 -135 186 -338q0 -185 -133 -302q-128 -113 -314 -113q-134 0 -246 64q-93 53 -148 146q-53 92 -53 206q0 162 115 276q32 32 71 61zM517 635
q-127 0 -200 -81q-62 -70 -62 -166q0 -111 80 -183q73 -65 187 -65q131 0 204 82q63 70 63 168q0 110 -78 180q-71 65 -194 65zM522 1230q-114 0 -181 -75q-54 -60 -54 -144q0 -97 69 -159q67 -59 168 -59q113 0 179 74q54 60 54 147q0 93 -70 157q-65 59 -165 59z" />
    <glyph glyph-name="nine" unicode="9" horiz-adv-x="1119" 
d="M471 -30l-141 104l293 411q-40 -8 -75 -8q-211 0 -347 148q-111 121 -111 294q0 129 64 239q66 111 172 172t233 61q211 0 351 -155q121 -133 121 -316q0 -164 -106 -312zM560 1223q-128 0 -214 -96q-76 -85 -76 -205q0 -115 77 -195q83 -86 213 -86q134 0 219 94
q72 79 72 194q0 134 -96 221q-79 73 -195 73z" />
    <glyph glyph-name="colon" unicode=":" horiz-adv-x="480" 
d="M240 207q48 0 82 -33.5t34 -81.5t-34 -81.5t-83 -33.5q-48 0 -81.5 34t-33.5 83q0 45 35 80q35 33 81 33zM240 877q48 0 82 -33.5t34 -81.5t-34 -81.5t-83 -33.5q-48 0 -81.5 34t-33.5 83q0 45 35 80q35 33 81 33z" />
    <glyph glyph-name="semicolon" unicode=";" horiz-adv-x="484" 
d="M42 -279l179 496l160 -58l-217 -487zM276 877q48 0 82 -33.5t34 -81.5t-34 -81.5t-82 -33.5q-49 0 -82.5 34t-33.5 83q0 46 34 80q35 33 82 33z" />
    <glyph glyph-name="less" unicode="&#x3c;" horiz-adv-x="1152" 
d="M119 765l915 430v-184l-704 -321l704 -322v-183l-915 430v150z" />
    <glyph glyph-name="equal" unicode="=" horiz-adv-x="1139" 
d="M142 862h855v-156h-855v156zM142 574h855v-156h-855v156z" />
    <glyph glyph-name="greater" unicode="&#x3e;" horiz-adv-x="1152" 
d="M1034 614l-915 -430v184l704 322l-704 322v182l915 -430v-150z" />
    <glyph glyph-name="question" unicode="?" horiz-adv-x="873" 
d="M511 321h-179v147q0 96 23 147q21 47 98 113l88 74q124 106 124 224q0 89 -61 144q-56 51 -156 51q-64 0 -110 -20.5t-89 -68.5q-23 -26 -55 -76l-133 110q127 225 378 225q208 0 315 -119q91 -100 91 -246q0 -93 -30 -153q-41 -85 -141 -180l-98 -93q-49 -44 -56 -63
q-9 -19 -9 -85v-131zM422 207q48 0 82 -33.5t34 -81.5t-34 -81.5t-83 -33.5q-48 0 -81.5 34t-33.5 83q0 46 34 80q34 33 82 33z" />
    <glyph glyph-name="at" unicode="@" horiz-adv-x="1840" 
d="M1036 1074h252l-88 -691h33q146 0 227 91q41 46 65.5 125.5t24.5 169.5q0 169 -78 312q-65 120 -188.5 183t-292.5 63q-224 0 -399 -98q-131 -73 -213 -214q-90 -157 -90 -350q0 -181 83 -330q74 -135 198 -201q179 -95 418 -95q205 0 450 77l47 -128q-230 -82 -506 -82
t-487 113q-153 82 -242 244q-100 181 -100 398q0 234 109 422q97 169 259 262q205 115 464 115q230 0 390 -93q147 -86 226 -227q91 -166 91 -366q0 -217 -103 -353q-68 -90 -164 -131q-93 -40 -243 -40h-277q-81 0 -155 30t-122 83q-87 95 -87 256q0 137 67 250
q121 205 431 205zM919 383h138l71 558h-111q-174 0 -257 -95q-78 -88 -78 -221q0 -123 71 -186q64 -56 166 -56z" />
    <glyph glyph-name="A" unicode="A" horiz-adv-x="1281" 
d="M943 369h-608l-138 -369h-190l520 1365h227l520 -1365h-192zM638 1181l-240 -642h482z" />
    <glyph glyph-name="B" unicode="B" horiz-adv-x="1074" 
d="M519 0h-362v1365h295q196 0 300 -60q77 -45 125 -126q50 -86 50 -183q0 -158 -142 -273q74 -34 118 -84q91 -109 91 -253q0 -147 -98 -251q-67 -71 -155 -103q-90 -32 -222 -32zM338 1199v-422h137q121 0 176 31q103 58 103 183q0 56 -25 103t-67 71q-59 34 -187 34h-137
zM338 620v-452h169q133 0 197 37q110 62 110 188q0 58 -28 109t-75 78q-70 40 -222 40h-151z" />
    <glyph glyph-name="C" unicode="C" horiz-adv-x="1364" 
d="M1296 1161l-127 -124q-66 71 -126 109q-112 73 -256 73q-236 0 -386 -170q-137 -155 -137 -367q0 -245 175 -402q148 -134 348 -134q112 0 199 43q89 42 190 143l126 -124q-87 -88 -163 -136q-158 -98 -350 -98q-195 0 -359 95q-162 96 -256 259q-95 166 -95 354t94 354
q96 167 259 261t355 94q147 0 268 -54q121 -56 241 -176z" />
    <glyph glyph-name="D" unicode="D" horiz-adv-x="1267" 
d="M157 0v1365h291q250 0 428 -102q149 -86 224 -221q88 -157 88 -358q0 -285 -164 -464q-202 -220 -576 -220h-291zM455 1195h-115v-1025h115q185 0 315 75q108 62 166 164q68 122 68 275q0 301 -234 436q-130 75 -315 75z" />
    <glyph glyph-name="E" unicode="E" horiz-adv-x="979" 
d="M880 1365v-168h-540v-420h479v-170h-479v-437h560v-170h-743v1365h723z" />
    <glyph glyph-name="F" unicode="F" horiz-adv-x="900" 
d="M833 1365v-168h-493v-420h449v-170h-449v-607h-183v1365h676z" />
    <glyph glyph-name="G" unicode="G" horiz-adv-x="1489" 
d="M822 550v170h584v-89q0 -207 -90 -371q-71 -131 -206 -206q-142 -80 -317 -80q-197 0 -361 95t-258 259q-95 164 -95 354q0 188 94 354q96 167 259 261t357 94q216 0 389 -127q51 -36 118 -102l-127 -124q-67 70 -128 110q-113 71 -254 71q-234 0 -386 -170
q-137 -155 -137 -367q0 -245 175 -402q149 -134 350 -134q162 0 274 88q132 103 155 316h-396z" />
    <glyph glyph-name="H" unicode="H" horiz-adv-x="1332" 
d="M157 0v1365h183v-588h652v588h183v-1365h-183v607h-652v-607h-183z" />
    <glyph glyph-name="I" unicode="I" horiz-adv-x="497" 
d="M157 1365h183v-1365h-183v1365z" />
    <glyph glyph-name="J" unicode="J" horiz-adv-x="837" 
d="M497 1365h183v-951q0 -102 -12 -164q-14 -63 -45 -118q-39 -69 -112 -111q-82 -47 -179 -47q-90 0 -166 36q-79 37 -166 121l112 132q116 -117 216 -117q74 0 117 49q52 56 52 219v951z" />
    <glyph glyph-name="K" unicode="K" horiz-adv-x="1179" 
d="M1163 1365l-522 -570l529 -795h-214l-438 661l-178 -195v-466h-183v1365h183v-657l600 657h223z" />
    <glyph glyph-name="L" unicode="L" horiz-adv-x="878" 
d="M157 1365h183v-1195h520v-170h-703v1365z" />
    <glyph glyph-name="M" unicode="M" horiz-adv-x="1653" 
d="M340 0h-183v1365h186l484 -862l483 862h186v-1365h-183v1033l-410 -733h-153l-410 733v-1033z" />
    <glyph glyph-name="N" unicode="N" horiz-adv-x="1452" 
d="M340 0h-183v1365h165l790 -1060v1060h183v-1365h-165l-790 1060v-1060z" />
    <glyph glyph-name="O" unicode="O" horiz-adv-x="1563" 
d="M781 1391q309 0 520 -235q183 -202 183 -474q0 -189 -96 -355q-95 -165 -260 -259q-163 -94 -344 -94q-267 0 -469 181q-236 212 -236 536q0 185 95 345q102 170 261 261q163 94 346 94zM778 1219q-222 0 -376 -172q-138 -155 -138 -374q0 -175 105 -314
q82 -111 205 -167q99 -46 207 -46q132 0 252 69q123 71 194 194q72 125 72 272q0 244 -176 405q-145 133 -345 133z" />
    <glyph glyph-name="P" unicode="P" horiz-adv-x="961" 
d="M157 0v1365h291q186 0 287 -57q86 -50 135 -136q57 -100 57 -218q0 -168 -103 -283q-61 -70 -149 -100q-87 -30 -227 -30h-108v-541h-183zM340 1197v-490h126q114 0 173 34q51 29 79.5 84.5t28.5 126.5q0 151 -106 211q-61 34 -175 34h-126z" />
    <glyph glyph-name="Q" unicode="Q" horiz-adv-x="1558" 
d="M1261 168l129 -127l-124 -124l-147 146q-164 -89 -340 -89q-181 0 -344 94q-165 94 -260 259q-96 165 -96 355q0 188 95 354q96 166 261 261q163 94 346 94q184 0 347 -94q165 -95 261 -261q95 -167 95 -355q0 -235 -142 -423q-34 -46 -81 -90zM988 193l-103 103l124 123
l127 -126q163 154 163 387q0 151 -73 278q-70 122 -192 193q-118 68 -253 68q-226 0 -379 -172q-138 -155 -138 -365q0 -244 177 -402q151 -134 340 -134q105 0 207 47z" />
    <glyph glyph-name="R" unicode="R" horiz-adv-x="1106" 
d="M735 588l327 -588h-205l-300 546q-75 -5 -109 -5h-108v-541h-183v1365h291q204 0 314 -62q90 -52 142 -142q57 -97 57 -214q0 -119 -59.5 -213.5t-166.5 -145.5zM340 1197v-490h126q315 0 315 241q0 69 -30 125t-82 85q-69 39 -203 39h-126z" />
    <glyph glyph-name="S" unicode="S" horiz-adv-x="1045" 
d="M926 1160l-147 -94q-48 71 -85 101q-66 54 -157 54q-109 0 -173 -73q-53 -61 -53 -136q0 -126 186 -196l132 -51q205 -80 275 -191q49 -79 49 -179q0 -185 -138 -309q-125 -112 -305 -112q-169 0 -281 96t-154 276l177 48q23 -88 43 -124q74 -125 218 -125q118 0 193 83
q63 72 63 166q0 62 -33 105q-45 59 -191 116l-126 49q-289 112 -289 349q0 166 121 274q119 104 292 104q125 0 217 -55.5t166 -175.5z" />
    <glyph glyph-name="T" unicode="T" horiz-adv-x="890" 
d="M884 1365v-168h-347v-1197h-183v1197h-347v168h877z" />
    <glyph glyph-name="U" unicode="U" horiz-adv-x="1304" 
d="M157 481v884h183v-844q0 -97 9 -146q8 -52 30 -89q31 -56 99 -93q82 -47 174 -47q124 0 219 78q54 46 74 106q19 58 19 191v844h183v-884q0 -170 -59 -271q-58 -102 -168 -165q-125 -71 -268 -71q-200 0 -346 126q-80 70 -114 159q-35 88 -35 222z" />
    <glyph glyph-name="V" unicode="V" horiz-adv-x="1145" 
d="M464 0l-457 1365h191l375 -1131l375 1131h190l-457 -1365h-217z" />
    <glyph glyph-name="W" unicode="W" horiz-adv-x="1800" 
d="M7 1365h190l314 -1076l310 1076h158l311 -1076l313 1076h190l-413 -1365h-91h-87l-302 1037l-301 -1037h-88h-91z" />
    <glyph glyph-name="X" unicode="X" horiz-adv-x="1111" 
d="M865 1365h199l-407 -650l447 -715h-206l-343 555l-345 -555h-203l447 712l-407 653h203l307 -494z" />
    <glyph glyph-name="Y" unicode="Y" horiz-adv-x="1060" 
d="M867 1365h200l-445 -797v-568h-183v568l-446 797h202l336 -619z" />
    <glyph glyph-name="Z" unicode="Z" horiz-adv-x="1044" 
d="M985 1365v-153l-720 -1042h735v-170h-959v153l731 1044h-671v168h884z" />
    <glyph glyph-name="bracketleft" unicode="[" horiz-adv-x="612" 
d="M527 1331h-187v-1531h187v-163h-363v1857h363v-163z" />
    <glyph glyph-name="backslash" unicode="\" horiz-adv-x="1127" 
d="M106 1312l137 82l778 -1341l-137 -82z" />
    <glyph glyph-name="bracketright" unicode="]" horiz-adv-x="612" 
d="M272 -200v1531h-187v163h363v-1857h-363v163h187z" />
    <glyph glyph-name="asciicircum" unicode="^" horiz-adv-x="1070" 
d="M646 1387l381 -659h-207l-286 485l-286 -485h-205l381 659h222z" />
    <glyph glyph-name="underscore" unicode="_" horiz-adv-x="1038" 
d="M-7 -281v161h1051v-161h-1051z" />
    <glyph glyph-name="grave" unicode="`" horiz-adv-x="975" 
d="M483 1038l-276 277l169 91l220 -303z" />
    <glyph glyph-name="a" unicode="a" horiz-adv-x="1120" 
d="M998 908v-908h-175v99q-83 -67 -151 -97q-65 -28 -144 -28q-120 0 -226 61q-111 65 -173 173q-65 113 -65 247q0 219 158 360q134 119 306 119q78 0 144 -27q69 -31 151 -98v99h175zM533 775q-81 0 -150 -42q-142 -85 -142 -278q0 -161 100 -249q82 -73 194 -73
q130 0 212 91q79 86 79 235q0 157 -99 245q-80 71 -194 71z" />
    <glyph glyph-name="b" unicode="b" horiz-adv-x="1120" 
d="M297 0h-175v1365h175v-556q84 67 152 97q65 28 143 28q120 0 226 -61q109 -63 174 -173q64 -112 64 -246q0 -218 -158 -361q-134 -119 -306 -119q-80 0 -143 28q-68 30 -152 97v-99zM586 775q-128 0 -210 -91q-79 -85 -79 -229q0 -163 99 -252q79 -70 191 -70
q127 0 213 93q79 85 79 234q0 146 -89 232q-86 83 -204 83z" />
    <glyph glyph-name="c" unicode="c" horiz-adv-x="941" 
d="M897 769l-117 -116q-62 68 -114 95q-54 27 -126 27q-136 0 -221 -94q-78 -85 -78 -227q0 -159 98 -248q82 -73 202 -73q74 0 130 29q52 27 116 100l117 -116q-64 -68 -118 -102q-109 -70 -246 -70q-217 0 -354 155q-122 137 -122 325q0 219 156 360q132 120 320 120
q105 0 189 -39t168 -126z" />
    <glyph glyph-name="d" unicode="d" horiz-adv-x="1120" 
d="M998 1365v-1365h-175v99q-83 -67 -151 -97q-65 -28 -144 -28q-120 0 -226 61q-111 65 -173 173q-65 113 -65 247q0 219 158 360q134 119 306 119q78 0 143 -28q68 -30 152 -97v556h175zM533 775q-81 0 -150 -42q-142 -85 -142 -278q0 -161 100 -249q82 -73 194 -73
q127 0 209 91q79 86 79 232q0 160 -99 249q-79 70 -191 70z" />
    <glyph glyph-name="e" unicode="e" horiz-adv-x="1014" 
d="M949 384h-705q13 -82 57 -142q78 -109 222 -109q77 0 144 35t102 94q12 20 15 24l153 -64q-147 -248 -413 -248q-208 0 -339 150q-121 137 -121 331q0 222 155 365q125 114 292 114q190 0 318 -143q121 -136 121 -353q0 -23 -1 -54zM244 525h531q-16 94 -66 157
q-74 95 -197 95q-104 0 -175 -67t-93 -185z" />
    <glyph glyph-name="f" unicode="f" horiz-adv-x="521" 
d="M486 908v-158h-163v-750h-175v750h-90v158h90v178q0 121 40 192q57 102 188 102q47 0 107 -15v-158q-50 12 -74 12q-86 0 -86 -133v-178h163z" />
    <glyph glyph-name="g" unicode="g" horiz-adv-x="1120" 
d="M823 908h175v-925q0 -237 -147 -368q-134 -119 -332 -119q-204 0 -343 124q-31 28 -83 88l115 115q10 -12 12 -14q66 -76 103 -100q82 -54 191 -54q151 0 234 92q75 85 75 236v116q-128 -125 -294 -125q-121 0 -227 61q-110 63 -173 173q-65 113 -65 247q0 219 158 360
q134 119 307 119q166 0 294 -125v99zM533 775q-81 0 -150 -42q-142 -85 -142 -278q0 -161 100 -249q82 -73 194 -73q128 0 210 91q79 85 79 232q0 160 -99 249q-79 70 -192 70z" />
    <glyph glyph-name="h" unicode="h" horiz-adv-x="1043" 
d="M122 0v1365h175v-541q101 110 252 110q146 0 250 -92q66 -57 94 -138.5t28 -213.5v-490h-175v474q0 140 -36 205q-49 91 -179 91q-64 0 -118 -27.5t-79 -72.5q-37 -65 -37 -216v-454h-175z" />
    <glyph glyph-name="i" unicode="i" horiz-adv-x="422" 
d="M124 908h175v-908h-175v908zM211 1329q50 0 84.5 -34.5t34.5 -83.5q0 -48 -34 -82q-35 -35 -84 -35q-50 0 -84.5 34.5t-34.5 84.5q0 47 35 82q34 34 83 34z" />
    <glyph glyph-name="j" unicode="j" horiz-adv-x="442" 
d="M231 1329q49 0 83.5 -34t34.5 -83t-34.5 -83.5t-83.5 -34.5q-50 0 -84.5 34.5t-34.5 84.5q0 47 35 82q34 34 84 34zM-17 -477v162q54 -14 81 -14q79 0 79 130v1107h175v-1107q0 -171 -78 -241q-62 -53 -147 -53q-52 0 -110 16z" />
    <glyph glyph-name="k" unicode="k" horiz-adv-x="963" 
d="M926 908l-377 -373l417 -535h-216l-320 418l-133 -132v-286h-175v1365h175v-857l402 400h227z" />
    <glyph glyph-name="l" unicode="l" horiz-adv-x="424" 
d="M299 1365v-1365h-175v1365h175z" />
    <glyph glyph-name="m" unicode="m" horiz-adv-x="1596" 
d="M802 797q113 137 289 137q158 0 261 -94q65 -59 94 -140q28 -78 28 -210v-490h-175v474q0 144 -36 211q-45 85 -160 85q-57 0 -106.5 -26t-72.5 -68q-37 -67 -37 -222v-454h-175v474q0 144 -36 210q-45 86 -162 86q-57 0 -106.5 -26t-73.5 -69q-37 -67 -37 -221v-454
h-175v908h175v-84q95 110 236 110q162 0 269 -137z" />
    <glyph glyph-name="n" unicode="n" horiz-adv-x="1043" 
d="M122 0v908h175v-84q101 110 252 110q146 0 250 -92q65 -57 93.5 -139t28.5 -213v-490h-175v474q0 140 -36 206q-50 90 -179 90q-64 0 -118 -27.5t-79 -72.5q-37 -65 -37 -216v-454h-175z" />
    <glyph glyph-name="o" unicode="o" horiz-adv-x="1074" 
d="M544 934q203 0 342 -154q123 -136 123 -325q0 -219 -158 -362q-131 -119 -314 -119q-212 0 -350 153q-123 136 -123 331q0 215 158 358q130 118 322 118zM534 775q-82 0 -151 -42q-142 -85 -142 -278q0 -161 100 -249q82 -73 196 -73q131 0 216 93q79 85 79 231
q0 157 -99 245q-82 73 -199 73z" />
    <glyph glyph-name="p" unicode="p" horiz-adv-x="1120" 
d="M122 -478v1386h175v-99q84 67 152 97q63 28 143 28q120 0 226 -61q111 -65 173 -173q65 -113 65 -247q0 -219 -158 -360q-134 -119 -306 -119q-80 0 -143 28q-68 30 -152 97v-577h-175zM585 775q-127 0 -209 -91q-79 -85 -79 -232q0 -160 99 -249q79 -70 191 -70
q81 0 150 42q142 85 142 278q0 162 -100 250q-82 72 -194 72z" />
    <glyph glyph-name="q" unicode="q" horiz-adv-x="1120" 
d="M823 908h175v-1386h-175v577q-83 -67 -151 -97q-65 -28 -144 -28q-120 0 -226 61q-109 63 -174 173q-64 112 -64 246q0 218 158 361q134 119 306 119q79 0 144 -28q68 -30 151 -97v99zM535 775q-128 0 -215 -93q-79 -85 -79 -227q0 -195 142 -280q69 -42 156 -42
q123 0 206 90q78 87 78 230q0 163 -99 252q-79 70 -189 70z" />
    <glyph glyph-name="r" unicode="r" horiz-adv-x="610" 
d="M122 0v908h175v-88q37 32 63 51q58 40 154 40q32 0 60 -4v-157q-36 3 -56 3q-134 0 -184 -92q-37 -70 -37 -223v-438h-175z" />
    <glyph glyph-name="s" unicode="s" horiz-adv-x="769" 
d="M54 223l147 60q42 -85 83 -118.5t102 -33.5q74 0 111 45q33 39 33 87q0 44 -27 68q-30 25 -118 59l-95 37q-192 73 -192 237q0 118 87 193q89 77 213 77q187 0 286 -181l-138 -71q-64 97 -152 97q-58 0 -94.5 -30.5t-36.5 -79.5q0 -44 25 -65q25 -22 119 -58l87 -34
q111 -43 161 -100.5t50 -141.5q0 -129 -97 -214q-91 -82 -226 -82q-234 0 -328 249z" />
    <glyph glyph-name="t" unicode="t" horiz-adv-x="518" 
d="M313 908h147v-158h-147v-470q0 -131 79 -131q28 0 81 15v-162q-62 -17 -110 -17q-99 0 -161 68q-64 70 -64 227v470h-100v158h100v208l175 69v-277z" />
    <glyph glyph-name="u" unicode="u" horiz-adv-x="1043" 
d="M921 908v-908h-175v84q-101 -110 -252 -110q-146 0 -250 92q-65 57 -93.5 139t-28.5 213v490h175v-474q0 -140 36 -205q49 -91 179 -91q64 0 118 27.5t79 72.5q37 65 37 216v454h175z" />
    <glyph glyph-name="v" unicode="v" horiz-adv-x="934" 
d="M383 0l-388 908h189l284 -678l283 678h189l-388 -908h-169z" />
    <glyph glyph-name="w" unicode="w" horiz-adv-x="1364" 
d="M-5 908h188l222 -634l206 634h143l207 -634l222 634h187l-337 -908h-144l-206 627l-207 -627h-143z" />
    <glyph glyph-name="x" unicode="x" horiz-adv-x="929" 
d="M696 908h203l-332 -437l359 -471h-207l-255 338l-255 -338h-206l359 470l-332 438h206l230 -305z" />
    <glyph glyph-name="y" unicode="y" horiz-adv-x="926" 
d="M321 -478h-182l227 520l-371 866h189l275 -653l284 653h189z" />
    <glyph glyph-name="z" unicode="z" horiz-adv-x="853" 
d="M806 908v-138l-529 -612h549v-158h-774v138l530 613h-500v157h724z" />
    <glyph glyph-name="braceleft" unicode="{" horiz-adv-x="624" 
d="M538 -206v-156q-13 0 -29.5 -0.5t-25.5 -1t-14 -0.5q-135 0 -201 66q-68 68 -68 234v389q0 84 -23 121q-24 36 -92 53v143q67 19 91 54q24 34 24 111v387q0 166 68 234q66 66 201 66q36 0 69 -1v-156h-24h-8q-82 0 -106 -24t-24 -104v-411q0 -91 -24 -143t-83 -90
q45 -28 65 -58q42 -60 42 -182v-404q0 -80 24 -104t103 -24q16 0 35 1z" />
    <glyph glyph-name="bar" unicode="|" horiz-adv-x="1039" 
d="M432 -360v1851h175v-1851h-175z" />
    <glyph glyph-name="braceright" unicode="}" horiz-adv-x="624" 
d="M85 -362v156q19 -1 34 -1q79 0 103 24t24 104v404q0 95 24 148q23 53 83 92q-43 29 -63 54q-44 59 -44 179v411q0 80 -24 104t-106 24h-7h-24v156q33 1 69 1q132 0 200 -66q68 -68 68 -234v-387q0 -77 24 -111t92 -54v-143q-68 -17 -92 -53t-24 -121v-389
q0 -166 -68 -234q-68 -66 -201 -66q-4 0 -13 0.5t-25 1t-30 0.5z" />
    <glyph glyph-name="asciitilde" unicode="~" horiz-adv-x="1386" 
d="M295 1173l-111 72q64 130 123 187q30 29 78 47.5t96 18.5q89 0 235 -70q130 -63 193 -63q57 0 94 30q38 30 87 112l113 -66q-55 -112 -116 -171q-32 -32 -88 -56q-53 -22 -99 -22q-51 0 -104 17t-197 82q-81 35 -135 35q-86 0 -169 -153z" />
    <glyph glyph-name="nbspace" unicode="&#xa0;" horiz-adv-x="498" 
 />
    <glyph glyph-name="exclamdown" unicode="&#xa1;" horiz-adv-x="587" 
d="M293 1011q48 0 82 -33.5t34 -81.5t-34 -81.5t-83 -33.5q-48 0 -81.5 34t-33.5 82q0 46 35 81q34 33 81 33zM193 -377l18 1045h164l18 -1045h-200z" />
    <glyph glyph-name="cent" unicode="&#xa2;" horiz-adv-x="1130" 
d="M502 0v214q-110 24 -192 90q-83 66 -129 163q-48 101 -48 216q0 172 102 301q100 128 267 166v215h180v-209q160 -28 285 -159l-117 -116q-63 69 -115 95q-54 27 -126 27q-136 0 -221 -93q-78 -86 -78 -227q0 -160 98 -249q82 -73 202 -73q75 0 131 29q53 27 115 100
l117 -116q-113 -130 -291 -166v-208h-180z" />
    <glyph glyph-name="sterling" unicode="&#xa3;" horiz-adv-x="1149" 
d="M442 766h417v-164h-382q25 -112 25 -210q0 -64 -21 -113q-22 -47 -75 -110h648v-169h-907v163l20 16q86 69 119 119q32 50 32 113t-26 191h-145v164h110q-19 99 -19 190q0 221 130 332q119 103 283 103q239 0 368 -231l-145 -93q-49 82 -102.5 118t-126.5 36
q-100 0 -166 -69q-61 -64 -61 -188q0 -78 24 -198z" />
    <glyph glyph-name="currency" unicode="&#xa4;" horiz-adv-x="1486" 
d="M281 1251l179 -182q125 94 283 94t283 -94l180 182l99 -96l-183 -185q91 -125 91 -287q0 -159 -90 -286l182 -184l-97 -99l-181 183q-125 -94 -284 -94t-284 94l-181 -183l-97 99l182 184q-90 127 -90 286q0 162 91 287l-183 185zM738 1009q-129 0 -216 -95
q-80 -88 -80 -230q0 -164 102 -253q83 -74 199 -74q134 0 221 95q80 89 80 237q0 156 -100 246q-85 74 -206 74z" />
    <glyph glyph-name="yen" unicode="&#xa5;" horiz-adv-x="1265" 
d="M542 469h-327v157h294l-63 113h-231v157h144l-263 469h202l336 -618l335 618h200l-262 -469h144v-157h-232l-63 -113h295v-157h-327v-469h-182v469z" />
    <glyph glyph-name="brokenbar" unicode="&#xa6;" horiz-adv-x="1039" 
d="M432 795v696h175v-696h-175zM432 -360v696h175v-696h-175z" />
    <glyph glyph-name="section" unicode="&#xa7;" horiz-adv-x="1129" 
d="M881 106q88 -91 88 -230q0 -174 -120 -280q-112 -100 -299 -100q-242 0 -386 193q-22 30 -62 101l148 95q50 -89 98 -136q88 -83 208 -83q115 0 178 72q52 58 52 139q0 73 -52 124t-176 99l-127 50q-177 68 -241 174q-49 77 -49 178q0 152 123 274q-99 98 -99 235
q0 167 122 275q119 105 291 105q125 0 215 -55.5t165 -177.5l-148 -94q-48 73 -84 103q-64 54 -154 54q-108 0 -171 -72q-54 -61 -54 -139q0 -125 187 -197l132 -51q206 -80 277 -193q49 -79 49 -181q0 -150 -111 -282zM730 211q76 83 76 176q0 63 -33 107q-45 60 -192 117
l-134 52q-1 1 -29 13q-95 -75 -95 -175q0 -127 186 -199l133 -51q28 -11 88 -40z" />
    <glyph glyph-name="dieresis" unicode="&#xa8;" horiz-adv-x="975" 
d="M676 1327q49 0 83 -34t34 -82t-34 -82t-84 -34q-47 0 -82 35q-34 34 -34 83q0 45 35 80q34 34 82 34zM299 1327q50 0 84 -34t34 -82t-34 -82t-84 -34q-49 0 -82.5 34.5t-33.5 83.5q0 45 35 80q34 34 81 34z" />
    <glyph glyph-name="copyright" unicode="&#xa9;" horiz-adv-x="1741" 
d="M1259 994l-106 -104q-67 72 -121 100q-54 27 -129 27q-145 0 -238 -105q-85 -97 -85 -230q0 -152 108 -251q91 -82 215 -82q72 0 126 26q53 25 129 102l105 -104q-1 -1 -5 -4.5t-7 -6.5q-83 -83 -165 -120.5t-181 -37.5q-217 0 -358 158q-122 137 -122 320q0 127 64 239
q65 113 174 177q109 63 240 63q164 0 282 -98q30 -25 74 -69zM883 1457q199 0 375 -104q180 -106 284 -283q104 -179 104 -387q0 -207 -104 -388q-103 -179 -284 -283t-387 -104t-387 104q-179 102 -284 283q-104 182 -104 394q0 333 257 569q218 199 530 199zM861 1328
q-166 0 -313 -87q-150 -87 -236 -236q-87 -149 -87 -322q0 -175 87 -323q86 -150 236 -236q150 -87 323 -87q171 0 323 87q151 87 237 236q86 151 86 327q0 280 -214 475q-182 166 -442 166z" />
    <glyph glyph-name="ordfeminine" unicode="&#xaa;" horiz-adv-x="727" 
d="M645 1376v-545h-129v51q-76 -67 -166 -67q-126 0 -214 96q-74 80 -74 191q0 130 96 215q84 75 193 75q91 0 165 -67v51h129zM354 1276q-71 0 -117 -49t-46 -125q0 -83 53 -130q47 -41 112 -41q74 0 119 48.5t45 127.5q0 82 -53 129q-44 40 -113 40z" />
    <glyph glyph-name="guillemotleft" unicode="&#xab;" horiz-adv-x="919" 
d="M577 455l245 -303l-116 -92l-320 394l320 403l116 -92zM259 455l245 -303l-116 -92l-320 394l320 403l116 -92z" />
    <glyph glyph-name="logicalnot" unicode="&#xac;" horiz-adv-x="1379" 
d="M1250 717v-565h-172v407h-948v158h1120z" />
    <glyph glyph-name="uni00AD" unicode="&#xad;" horiz-adv-x="536" 
d="M68 393v158h399v-158h-399z" />
    <glyph glyph-name="registered" unicode="&#xae;" horiz-adv-x="1741" 
d="M1024 606l225 -384h-171l-205 355q-19 -1 -119 -1v-354h-152v921h244q130 0 200 -40q62 -36 98.5 -101.5t36.5 -142.5q0 -88 -40.5 -153.5t-116.5 -99.5zM858 1002h-104v-286h104q172 0 172 143t-172 143zM880 1457q202 0 378 -104q179 -105 284 -283q104 -179 104 -387
q0 -207 -104 -388q-104 -180 -284 -283q-181 -104 -387 -104q-208 0 -387 104q-181 104 -284 283q-104 179 -104 385q0 205 104 390q131 233 394 335q131 52 286 52zM861 1328q-166 0 -313 -87q-150 -87 -236 -236q-87 -149 -87 -322q0 -175 87 -323q86 -150 236 -236
q150 -87 323 -87q171 0 323 87q151 87 237 236q86 151 86 327q0 280 -214 475q-182 166 -442 166z" />
    <glyph glyph-name="overscore" unicode="&#xaf;" horiz-adv-x="975" 
d="M194 1131v157h586v-157h-586z" />
    <glyph glyph-name="degree" unicode="&#xb0;" horiz-adv-x="698" 
d="M422 1517q123 0 210 -96q73 -79 73 -191q0 -129 -95 -215q-83 -74 -192 -74q-128 0 -214 95q-74 83 -74 196q0 124 95 210q82 75 197 75zM415 1385q-62 0 -107 -46q-46 -46 -46 -109q0 -70 51 -116q47 -41 105 -41q64 0 110 46q45 47 45 112q0 64 -46 109q-47 45 -112 45
z" />
    <glyph glyph-name="plusminus" unicode="&#xb1;" horiz-adv-x="1139" 
d="M82 829h407v409h160v-409h407v-154h-407v-410h-160v410h-407v154zM82 155h974v-155h-974v155z" />
    <glyph glyph-name="twosuperior" unicode="&#xb2;" 
d="M669 832h-537v105l300 323q87 93 87 169q0 48 -34 76.5t-92 28.5q-61 0 -92 -27q-30 -27 -53 -102l-123 33q51 218 270 218q129 0 200 -77q56 -64 56 -153q0 -116 -88 -210l-245 -263h351v-121z" />
    <glyph glyph-name="threesuperior" unicode="&#xb3;" 
d="M379 1194h-57v121h57q64 0 98.5 28.5t34.5 80.5q0 50 -33.5 80t-88.5 30q-45 0 -75.5 -19t-65.5 -69l-112 59q94 151 253 151q126 0 196 -79q57 -63 57 -150q0 -101 -74 -164q93 -73 93 -191q0 -116 -81 -186q-79 -70 -198 -70q-103 0 -172 53t-96 153l-5 19l130 33
q19 -75 51 -105t91 -30q65 0 105.5 36.5t40.5 95.5q0 123 -149 123z" />
    <glyph glyph-name="acute" unicode="&#xb4;" horiz-adv-x="975" 
d="M598 1406l169 -91l-276 -277l-113 65z" />
    <glyph glyph-name="mu" unicode="&#xb5;" horiz-adv-x="1043" 
d="M921 908v-908h-175v75q-101 -101 -234 -101q-122 0 -215 101v-553h-175v1386h175v-476q0 -138 36 -203q49 -91 179 -91q64 0 118 27.5t79 72.5q37 65 37 216v454h175z" />
    <glyph glyph-name="paragraph" unicode="&#xb6;" horiz-adv-x="1314" 
d="M593 -478v915h-16q-197 0 -329 148q-118 133 -118 316q0 213 152 350q126 114 301 114h636v-151h-132v-1692h-158v1692h-176h-2v-1692h-158z" />
    <glyph glyph-name="middot" unicode="&#xb7;" horiz-adv-x="480" 
d="M240 798q48 0 82 -33.5t34 -82.5q0 -48 -34 -81.5t-83 -33.5q-48 0 -81 35q-34 34 -34 82q0 46 35 81q35 33 81 33z" />
    <glyph glyph-name="cedilla" unicode="&#xb8;" horiz-adv-x="975" 
d="M328 -371l186 292l161 -69l-224 -285z" />
    <glyph glyph-name="onesuperior" unicode="&#xb9;" 
d="M495 1640v-809h-134v655l-113 -62l-63 105l200 111h110z" />
    <glyph glyph-name="ordmasculine" unicode="&#xba;" horiz-adv-x="714" 
d="M361 1391q130 0 217 -96q74 -80 74 -191q0 -129 -95 -213q-84 -75 -200 -75q-136 0 -223 96q-73 80 -73 194q0 124 95 210q82 75 205 75zM354 1275q-72 0 -118 -48q-46 -47 -46 -123q0 -84 54 -131q47 -41 113 -41q74 0 120 48t46 126q0 82 -54 128q-47 41 -115 41z" />
    <glyph glyph-name="guillemotright" unicode="&#xbb;" horiz-adv-x="919" 
d="M531 60l-116 92l245 303l-245 310l116 92l320 -403zM213 60l-116 92l245 303l-245 310l116 92l320 -403z" />
    <glyph glyph-name="onequarter" unicode="&#xbc;" horiz-adv-x="1707" 
d="M324 31l787 1360l101 -58l-788 -1360zM906 171v115l357 545l109 -65l-310 -475h203v197h133v-197h98v-120h-98v-171h-133v171h-359zM426 1365v-808h-134v654l-113 -62l-63 105l200 111h110z" />
    <glyph glyph-name="onehalf" unicode="&#xbd;" horiz-adv-x="1707" 
d="M324 31l787 1360l101 -58l-788 -1360zM426 1365v-808h-134v654l-113 -62l-63 105l200 111h110zM1551 0h-537v106l300 323q87 93 87 168q0 48 -34 76.5t-92 28.5q-61 0 -91 -27q-32 -29 -54 -101l-123 33q52 217 270 217q131 0 200 -77q56 -62 56 -153q0 -116 -88 -210
l-245 -263h351v-121z" />
    <glyph glyph-name="threequarters" unicode="&#xbe;" horiz-adv-x="1707" 
d="M449 31l787 1360l100 -58l-787 -1360zM368 919h-57v120h57q133 0 133 109q0 50 -33.5 80t-88.5 30q-45 0 -75 -18.5t-66 -69.5l-112 60q94 150 253 150q126 0 196 -79q57 -63 57 -150q0 -99 -74 -164q93 -72 93 -191q0 -114 -81 -185q-79 -70 -198 -70q-103 0 -172 52.5
t-96 152.5l-5 19l130 34q20 -75 51.5 -105t90.5 -30q65 0 105.5 36.5t40.5 95.5q0 123 -149 123zM986 171v115l356 545l109 -65l-309 -475h202v197h133v-197h99v-120h-99v-171h-133v171h-358z" />
    <glyph glyph-name="questiondown" unicode="&#xbf;" horiz-adv-x="873" 
d="M395 668h179v-147q0 -95 -23 -146q-22 -49 -98 -114l-88 -74q-124 -106 -124 -224q0 -89 61 -144q56 -51 156 -51q65 0 110.5 20.5t87.5 68.5q27 30 56 76l133 -110q-127 -225 -378 -225q-209 0 -316 119q-90 101 -90 245q0 93 29 154q40 84 142 180l98 93q48 45 57 64
q8 21 8 84v131zM485 1011q48 0 81.5 -34t33.5 -83q0 -46 -34 -79q-34 -34 -82 -34t-82 33.5t-34 81.5t34 81.5t83 33.5z" />
    <glyph glyph-name="Agrave" unicode="&#xc0;" horiz-adv-x="1281" 
d="M943 369h-608l-138 -369h-190l520 1365h227l520 -1365h-192zM638 1181l-240 -642h482zM636 1448l-276 277l169 91l220 -303z" />
    <glyph glyph-name="Aacute" unicode="&#xc1;" horiz-adv-x="1281" 
d="M943 369h-608l-138 -369h-190l520 1365h227l520 -1365h-192zM638 1181l-240 -642h482zM747 1816l169 -91l-276 -277l-113 65z" />
    <glyph glyph-name="Acircumflex" unicode="&#xc2;" horiz-adv-x="1281" 
d="M943 369h-608l-138 -369h-190l520 1365h227l520 -1365h-192zM638 1181l-240 -642h482zM827 1448l-186 179l-187 -179l-129 65l252 275h128l251 -275z" />
    <glyph glyph-name="Atilde" unicode="&#xc3;" horiz-adv-x="1281" 
d="M943 369h-608l-138 -369h-190l520 1365h227l520 -1365h-192zM638 1181l-240 -642h482zM790 1738l144 -33q-16 -198 -175 -198q-68 0 -145 41q-55 29 -83 29q-30 0 -43 -76l-140 33q7 79 43 130q47 68 133 68q62 0 148 -45q47 -25 80 -25q32 0 38 76z" />
    <glyph glyph-name="Adieresis" unicode="&#xc4;" horiz-adv-x="1281" 
d="M943 369h-608l-138 -369h-190l520 1365h227l520 -1365h-192zM638 1181l-240 -642h482zM829 1735q49 0 83 -34t34 -82t-34 -82t-84 -34q-47 0 -82 35q-34 34 -34 83q0 45 35 80q34 34 82 34zM453 1735q49 0 83 -34t34 -82t-34 -82t-84 -34q-47 0 -82 35q-34 34 -34 83
q0 45 35 80q34 34 82 34z" />
    <glyph glyph-name="Aring" unicode="&#xc5;" horiz-adv-x="1281" 
d="M943 369h-608l-138 -369h-190l520 1365h227l520 -1365h-192zM638 1181l-240 -642h482zM640 1812q88 0 148 -65q49 -53 49 -127q0 -85 -64 -143q-56 -50 -132 -50q-81 0 -139 56q-58 57 -58 140q0 79 65 139q55 50 131 50zM640 1725q-44 0 -74.5 -31t-30.5 -76
q0 -41 32 -73q31 -31 73 -31q44 0 75 31t31 75t-31 74.5t-75 30.5z" />
    <glyph glyph-name="AE" unicode="&#xc6;" horiz-adv-x="1720" 
d="M898 0v369h-499l-188 -369h-204l707 1365h907v-168h-540v-420h479v-170h-479v-437h560v-170h-743zM486 539h412v658h-78z" />
    <glyph glyph-name="Ccedilla" unicode="&#xc7;" horiz-adv-x="1364" 
d="M1296 1161l-127 -124q-66 71 -126 109q-112 73 -256 73q-236 0 -386 -170q-137 -155 -137 -367q0 -245 175 -402q148 -134 348 -134q112 0 199 43q89 42 190 143l126 -124q-87 -88 -163 -136q-158 -98 -350 -98q-195 0 -359 95q-162 96 -256 259q-95 166 -95 354t94 354
q96 167 259 261t355 94q147 0 268 -54q121 -56 241 -176zM523 -371l186 292l161 -69l-224 -285z" />
    <glyph glyph-name="Egrave" unicode="&#xc8;" horiz-adv-x="979" 
d="M880 1365v-168h-540v-420h479v-170h-479v-437h560v-170h-743v1365h723zM541 1448l-276 277l169 91l220 -303z" />
    <glyph glyph-name="Eacute" unicode="&#xc9;" horiz-adv-x="979" 
d="M880 1365v-168h-540v-420h479v-170h-479v-437h560v-170h-743v1365h723zM624 1816l169 -91l-276 -277l-113 65z" />
    <glyph glyph-name="Ecircumflex" unicode="&#xca;" horiz-adv-x="979" 
d="M880 1365v-168h-540v-420h479v-170h-479v-437h560v-170h-743v1365h723zM715 1448l-186 179l-186 -179l-129 65l251 275h128l251 -275z" />
    <glyph glyph-name="Edieresis" unicode="&#xcb;" horiz-adv-x="979" 
d="M880 1365v-168h-540v-420h479v-170h-479v-437h560v-170h-743v1365h723zM714 1735q49 0 83 -34t34 -82t-34 -82t-83 -34t-83 34t-34 84q0 45 35 80q34 34 82 34zM338 1735q49 0 83 -34t34 -82t-34 -82t-83 -34t-83 34t-34 84q0 45 35 80q34 34 82 34z" />
    <glyph glyph-name="Igrave" unicode="&#xcc;" horiz-adv-x="497" 
d="M157 1365h183v-1365h-183v1365zM241 1448l-276 277l169 91l220 -303z" />
    <glyph glyph-name="Iacute" unicode="&#xcd;" horiz-adv-x="497" 
d="M157 1365h183v-1365h-183v1365zM362 1816l169 -91l-276 -277l-113 65z" />
    <glyph glyph-name="Icircumflex" unicode="&#xce;" horiz-adv-x="497" 
d="M157 1365h183v-1365h-183v1365zM434 1448l-186 179l-186 -179l-129 65l251 275h128l251 -275z" />
    <glyph glyph-name="Idieresis" unicode="&#xcf;" horiz-adv-x="497" 
d="M157 1365h183v-1365h-183v1365zM391 1735q49 0 83 -33.5t34 -82.5q0 -48 -34 -82t-83 -34t-83 34t-34 84q0 45 35 80q34 34 82 34zM105 1735q50 0 84 -34t34 -82t-34 -82t-84 -34q-49 0 -82.5 34.5t-33.5 83.5q0 45 35 80q34 34 81 34z" />
    <glyph glyph-name="Eth" unicode="&#xd0;" horiz-adv-x="1295" 
d="M185 654h-134v163h134v548h291q250 0 428 -102q149 -86 224 -221q88 -157 88 -359q0 -284 -164 -463q-202 -220 -576 -220h-291v654zM368 1195v-378h316v-163h-316v-484h115q185 0 315 75q108 61 166 164q68 122 68 274q0 302 -234 437q-130 75 -315 75h-115z" />
    <glyph glyph-name="Ntilde" unicode="&#xd1;" horiz-adv-x="1452" 
d="M340 0h-183v1365h165l790 -1060v1060h183v-1365h-165l-790 1060v-1060zM887 1738l144 -33q-17 -198 -175 -198q-68 0 -145 41q-55 29 -82 29q-31 0 -44 -76l-141 33q9 80 44 130q47 68 133 68q63 0 148 -45q47 -25 80 -25q32 0 38 76z" />
    <glyph glyph-name="Ograve" unicode="&#xd2;" horiz-adv-x="1563" 
d="M781 1391q309 0 520 -235q183 -202 183 -474q0 -189 -96 -355q-95 -165 -260 -259q-163 -94 -344 -94q-267 0 -469 181q-236 212 -236 536q0 185 95 345q102 170 261 261q163 94 346 94zM778 1219q-222 0 -376 -172q-138 -155 -138 -374q0 -175 105 -314
q82 -111 205 -167q99 -46 207 -46q132 0 252 69q123 71 194 194q72 125 72 272q0 244 -176 405q-145 133 -345 133zM779 1448l-276 277l169 91l221 -303z" />
    <glyph glyph-name="Oacute" unicode="&#xd3;" horiz-adv-x="1563" 
d="M781 1391q309 0 520 -235q183 -202 183 -474q0 -189 -96 -355q-95 -165 -260 -259q-163 -94 -344 -94q-267 0 -469 181q-236 212 -236 536q0 185 95 345q102 170 261 261q163 94 346 94zM778 1219q-222 0 -376 -172q-138 -155 -138 -374q0 -175 105 -314
q82 -111 205 -167q99 -46 207 -46q132 0 252 69q123 71 194 194q72 125 72 272q0 244 -176 405q-145 133 -345 133zM890 1816l169 -91l-275 -277l-114 65z" />
    <glyph glyph-name="Ocircumflex" unicode="&#xd4;" horiz-adv-x="1563" 
d="M781 1391q309 0 520 -235q183 -202 183 -474q0 -189 -96 -355q-95 -165 -260 -259q-163 -94 -344 -94q-267 0 -469 181q-236 212 -236 536q0 185 95 345q102 170 261 261q163 94 346 94zM778 1219q-222 0 -376 -172q-138 -155 -138 -374q0 -175 105 -314
q82 -111 205 -167q99 -46 207 -46q132 0 252 69q123 71 194 194q72 125 72 272q0 244 -176 405q-145 133 -345 133zM967 1448l-186 179l-186 -179l-129 65l252 275h127l251 -275z" />
    <glyph glyph-name="Otilde" unicode="&#xd5;" horiz-adv-x="1563" 
d="M781 1391q309 0 520 -235q183 -202 183 -474q0 -189 -96 -355q-95 -165 -260 -259q-163 -94 -344 -94q-267 0 -469 181q-236 212 -236 536q0 185 95 345q102 170 261 261q163 94 346 94zM778 1219q-222 0 -376 -172q-138 -155 -138 -374q0 -175 105 -314
q82 -111 205 -167q99 -46 207 -46q132 0 252 69q123 71 194 194q72 125 72 272q0 244 -176 405q-145 133 -345 133zM931 1738l143 -33q-16 -198 -174 -198q-68 0 -145 41q-55 29 -83 29q-30 0 -43 -76l-141 33q9 80 44 130q47 68 132 68q62 0 149 -45q47 -25 80 -25
q32 0 38 76z" />
    <glyph glyph-name="Odieresis" unicode="&#xd6;" horiz-adv-x="1563" 
d="M781 1391q309 0 520 -235q183 -202 183 -474q0 -189 -96 -355q-95 -165 -260 -259q-163 -94 -344 -94q-267 0 -469 181q-236 212 -236 536q0 185 95 345q102 170 261 261q163 94 346 94zM778 1219q-222 0 -376 -172q-138 -155 -138 -374q0 -175 105 -314
q82 -111 205 -167q99 -46 207 -46q132 0 252 69q123 71 194 194q72 125 72 272q0 244 -176 405q-145 133 -345 133zM969 1735q49 0 83 -34t34 -82t-34 -82t-83 -34t-83 34t-34 84q0 45 35 80q34 34 82 34zM593 1735q49 0 83 -34t34 -82t-34 -82t-84 -34q-47 0 -82 35
q-34 34 -34 83q0 45 35 80q34 34 82 34z" />
    <glyph glyph-name="multiply" unicode="&#xd7;" horiz-adv-x="1139" 
d="M170 350l289 289l-289 289l111 111l289 -289l288 289l111 -111l-288 -289l288 -289l-111 -111l-288 289l-289 -289z" />
    <glyph glyph-name="Oslash" unicode="&#xd8;" horiz-adv-x="1578" 
d="M104 92l142 144q-159 200 -159 445q0 188 95 355q96 166 261 261q163 94 348 94q244 0 443 -163l141 141l100 -96l-143 -144q160 -200 160 -446q0 -190 -96 -356q-95 -165 -260 -259q-163 -94 -348 -94q-245 0 -444 163l-140 -141zM374 363l736 741q-148 115 -317 115
q-231 0 -384 -172q-137 -155 -137 -370q0 -170 102 -314zM1205 1002l-735 -739q146 -117 318 -117q131 0 253 69q123 69 194 194q72 125 72 275q0 174 -102 318z" />
    <glyph glyph-name="Ugrave" unicode="&#xd9;" horiz-adv-x="1304" 
d="M157 481v884h183v-844q0 -97 9 -146q8 -52 30 -89q31 -56 99 -93q82 -47 174 -47q124 0 219 78q54 46 74 106q19 58 19 191v844h183v-884q0 -170 -59 -271q-58 -102 -168 -165q-125 -71 -268 -71q-200 0 -346 126q-80 70 -114 159q-35 88 -35 222zM664 1448l-276 277
l169 91l220 -303z" />
    <glyph glyph-name="Uacute" unicode="&#xda;" horiz-adv-x="1304" 
d="M157 481v884h183v-844q0 -97 9 -146q8 -52 30 -89q31 -56 99 -93q82 -47 174 -47q124 0 219 78q54 46 74 106q19 58 19 191v844h183v-884q0 -170 -59 -271q-58 -102 -168 -165q-125 -71 -268 -71q-200 0 -346 126q-80 70 -114 159q-35 88 -35 222zM747 1816l169 -91
l-276 -277l-113 65z" />
    <glyph glyph-name="Ucircumflex" unicode="&#xdb;" horiz-adv-x="1304" 
d="M157 481v884h183v-844q0 -97 9 -146q8 -52 30 -89q31 -56 99 -93q82 -47 174 -47q124 0 219 78q54 46 74 106q19 58 19 191v844h183v-884q0 -170 -59 -271q-58 -102 -168 -165q-125 -71 -268 -71q-200 0 -346 126q-80 70 -114 159q-35 88 -35 222zM838 1448l-186 179
l-186 -179l-129 65l251 275h128l251 -275z" />
    <glyph glyph-name="Udieresis" unicode="&#xdc;" horiz-adv-x="1304" 
d="M157 481v884h183v-844q0 -97 9 -146q8 -52 30 -89q31 -56 99 -93q82 -47 174 -47q124 0 219 78q54 46 74 106q19 58 19 191v844h183v-884q0 -170 -59 -271q-58 -102 -168 -165q-125 -71 -268 -71q-200 0 -346 126q-80 70 -114 159q-35 88 -35 222zM840 1735q49 0 83 -34
t34 -82t-34 -82t-84 -34q-47 0 -82 35q-34 34 -34 83q0 45 35 80q34 34 82 34zM464 1735q49 0 83 -34t34 -82t-34 -82t-83 -34t-83 34t-34 84q0 45 35 80q34 34 82 34z" />
    <glyph glyph-name="Yacute" unicode="&#xdd;" horiz-adv-x="1060" 
d="M867 1365h200l-445 -797v-568h-183v568l-446 797h202l336 -619zM625 1816l169 -91l-276 -277l-114 65z" />
    <glyph glyph-name="Thorn" unicode="&#xde;" horiz-adv-x="961" 
d="M340 1365v-198h108q186 0 287 -57q85 -48 135 -135q57 -101 57 -219q0 -169 -103 -284q-61 -70 -148 -100q-88 -30 -228 -30h-108v-342h-183v1365h183zM340 1000v-492h126q114 0 173 34q51 29 79.5 85t28.5 127q0 152 -106 212q-61 34 -175 34h-126z" />
    <glyph glyph-name="germandbls" unicode="&#xdf;" horiz-adv-x="1066" 
d="M297 0h-175v1015q0 221 180 326q86 50 190 50q185 0 291 -118q93 -102 93 -257q0 -167 -106 -263q81 -44 122 -91q40 -47 64 -117.5t24 -141.5q0 -179 -126 -294q-118 -109 -325 -109h-118v167h124q138 0 208 82q60 69 60 161q0 106 -73 176q-62 61 -200 61h-20v159h20
q84 0 126 50q48 56 48 155q0 115 -66 174q-55 49 -137 49q-95 0 -152 -64q-52 -58 -52 -155v-1015z" />
    <glyph glyph-name="agrave" unicode="&#xe0;" horiz-adv-x="1120" 
d="M998 908v-908h-175v99q-83 -67 -151 -97q-65 -28 -144 -28q-120 0 -226 61q-111 65 -173 173q-65 113 -65 247q0 219 158 360q134 119 306 119q78 0 144 -27q69 -31 151 -98v99h175zM533 775q-81 0 -150 -42q-142 -85 -142 -278q0 -161 100 -249q82 -73 194 -73
q130 0 212 91q79 86 79 235q0 157 -99 245q-80 71 -194 71zM529 1038l-276 277l169 91l220 -303z" />
    <glyph glyph-name="aacute" unicode="&#xe1;" horiz-adv-x="1120" 
d="M998 908v-908h-175v99q-83 -67 -151 -97q-65 -28 -144 -28q-120 0 -226 61q-111 65 -173 173q-65 113 -65 247q0 219 158 360q134 119 306 119q78 0 144 -27q69 -31 151 -98v99h175zM533 775q-81 0 -150 -42q-142 -85 -142 -278q0 -161 100 -249q82 -73 194 -73
q130 0 212 91q79 86 79 235q0 157 -99 245q-80 71 -194 71zM653 1406l169 -91l-276 -277l-113 65z" />
    <glyph glyph-name="acircumflex" unicode="&#xe2;" horiz-adv-x="1120" 
d="M998 908v-908h-175v99q-83 -67 -151 -97q-65 -28 -144 -28q-120 0 -226 61q-111 65 -173 173q-65 113 -65 247q0 219 158 360q134 119 306 119q78 0 144 -27q69 -31 151 -98v99h175zM533 775q-81 0 -150 -42q-142 -85 -142 -278q0 -161 100 -249q82 -73 194 -73
q130 0 212 91q79 86 79 235q0 157 -99 245q-80 71 -194 71zM717 1038l-186 179l-186 -179l-129 65l251 276h128l251 -276z" />
    <glyph glyph-name="atilde" unicode="&#xe3;" horiz-adv-x="1120" 
d="M998 908v-908h-175v99q-83 -67 -151 -97q-65 -28 -144 -28q-120 0 -226 61q-111 65 -173 173q-65 113 -65 247q0 219 158 360q134 119 306 119q78 0 144 -27q69 -31 151 -98v99h175zM533 775q-81 0 -150 -42q-142 -85 -142 -278q0 -161 100 -249q82 -73 194 -73
q130 0 212 91q79 86 79 235q0 157 -99 245q-80 71 -194 71zM681 1328l143 -33q-15 -198 -174 -198q-68 0 -145 41q-55 29 -83 29q-31 0 -43 -76l-141 33q9 82 43 130q47 68 133 68q62 0 149 -45q47 -25 80 -25q31 0 38 76z" />
    <glyph glyph-name="adieresis" unicode="&#xe4;" horiz-adv-x="1120" 
d="M998 908v-908h-175v99q-83 -67 -151 -97q-65 -28 -144 -28q-120 0 -226 61q-111 65 -173 173q-65 113 -65 247q0 219 158 360q134 119 306 119q78 0 144 -27q69 -31 151 -98v99h175zM533 775q-81 0 -150 -42q-142 -85 -142 -278q0 -161 100 -249q82 -73 194 -73
q130 0 212 91q79 86 79 235q0 157 -99 245q-80 71 -194 71zM736 1327q49 0 83 -34t34 -82t-34 -82t-84 -34q-47 0 -82 35q-34 34 -34 83q0 45 35 80q34 34 82 34zM360 1327q49 0 83 -34t34 -82t-34 -82t-83 -34t-83 34t-34 84q0 45 35 80q34 34 82 34z" />
    <glyph glyph-name="aring" unicode="&#xe5;" horiz-adv-x="1120" 
d="M998 908v-908h-175v99q-83 -67 -151 -97q-65 -28 -144 -28q-120 0 -226 61q-111 65 -173 173q-65 113 -65 247q0 219 158 360q134 119 306 119q78 0 144 -27q69 -31 151 -98v99h175zM533 775q-81 0 -150 -42q-142 -85 -142 -278q0 -161 100 -249q82 -73 194 -73
q130 0 212 91q79 86 79 235q0 157 -99 245q-80 71 -194 71zM554 1402q89 0 149 -65q49 -53 49 -127q0 -86 -64 -143q-56 -50 -132 -50q-82 0 -140 56q-58 57 -58 140q0 79 65 139q55 50 131 50zM554 1315q-44 0 -74.5 -31t-30.5 -76q0 -41 32 -73q31 -31 74 -31q44 0 75 31
t31 75t-31 74.5t-76 30.5z" />
    <glyph glyph-name="ae" unicode="&#xe6;" horiz-adv-x="1678" 
d="M1448 286l153 -64q-149 -248 -416 -248q-209 0 -342 159q-95 -159 -359 -159q-166 0 -275 64q-145 82 -145 248q0 170 143 250q96 54 246 54h268q-28 187 -251 187q-155 0 -286 -103l-86 116q94 75 187 110q92 33 205 33q254 0 346 -165q130 165 338 165q192 0 318 -142
q122 -137 122 -355q0 -22 -1 -52h-705q14 -82 56 -142q78 -109 223 -109q77 0 143.5 35t102.5 94q11 20 15 24zM727 298v151h-246q-243 0 -243 -161q0 -80 71 -121q64 -37 174 -37q69 0 124.5 17t82.5 47q37 40 37 104zM908 525h531q-18 93 -66 156q-74 95 -197 95
q-104 0 -175 -66.5t-93 -184.5z" />
    <glyph glyph-name="ccedilla" unicode="&#xe7;" horiz-adv-x="941" 
d="M897 769l-117 -116q-62 68 -114 95q-54 27 -126 27q-136 0 -221 -94q-78 -85 -78 -227q0 -159 98 -248q82 -73 202 -73q74 0 130 29q52 27 116 100l117 -116q-64 -68 -118 -102q-109 -70 -246 -70q-217 0 -354 155q-122 137 -122 325q0 219 156 360q132 120 320 120
q105 0 189 -39t168 -126zM277 -371l186 292l161 -69l-224 -285z" />
    <glyph glyph-name="egrave" unicode="&#xe8;" horiz-adv-x="1014" 
d="M949 384h-705q13 -82 57 -142q78 -109 222 -109q77 0 144 35t102 94q12 20 15 24l153 -64q-147 -248 -413 -248q-208 0 -339 150q-121 137 -121 331q0 222 155 365q125 114 292 114q190 0 318 -143q121 -136 121 -353q0 -23 -1 -54zM244 525h531q-16 94 -66 157
q-74 95 -197 95q-104 0 -175 -67t-93 -185zM515 1038l-275 277l169 91l220 -303z" />
    <glyph glyph-name="eacute" unicode="&#xe9;" horiz-adv-x="1014" 
d="M949 384h-705q13 -82 57 -142q78 -109 222 -109q77 0 144 35t102 94q12 20 15 24l153 -64q-147 -248 -413 -248q-208 0 -339 150q-121 137 -121 331q0 222 155 365q125 114 292 114q190 0 318 -143q121 -136 121 -353q0 -23 -1 -54zM244 525h531q-16 94 -66 157
q-74 95 -197 95q-104 0 -175 -67t-93 -185zM606 1406l169 -91l-276 -277l-113 65z" />
    <glyph glyph-name="ecircumflex" unicode="&#xea;" horiz-adv-x="1014" 
d="M949 384h-705q13 -82 57 -142q78 -109 222 -109q77 0 144 35t102 94q12 20 15 24l153 -64q-147 -248 -413 -248q-208 0 -339 150q-121 137 -121 331q0 222 155 365q125 114 292 114q190 0 318 -143q121 -136 121 -353q0 -23 -1 -54zM244 525h531q-16 94 -66 157
q-74 95 -197 95q-104 0 -175 -67t-93 -185zM693 1038l-186 179l-186 -179l-129 65l251 276h128l251 -276z" />
    <glyph glyph-name="edieresis" unicode="&#xeb;" horiz-adv-x="1014" 
d="M949 384h-705q13 -82 57 -142q78 -109 222 -109q77 0 144 35t102 94q12 20 15 24l153 -64q-147 -248 -413 -248q-208 0 -339 150q-121 137 -121 331q0 222 155 365q125 114 292 114q190 0 318 -143q121 -136 121 -353q0 -23 -1 -54zM244 525h531q-16 94 -66 157
q-74 95 -197 95q-104 0 -175 -67t-93 -185zM695 1327q49 0 83 -34t34 -82t-34 -82t-83 -34t-83 34t-34 84q0 45 35 80q34 34 82 34zM319 1327q49 0 83 -34t34 -82t-34 -82t-83 -34t-83 34t-34 84q0 46 35 81q34 33 82 33z" />
    <glyph glyph-name="igrave" unicode="&#xec;" horiz-adv-x="422" 
d="M124 908h175v-908h-175v908zM197 1038l-276 277l169 91l220 -303z" />
    <glyph glyph-name="iacute" unicode="&#xed;" horiz-adv-x="422" 
d="M124 908h175v-908h-175v908zM332 1406l169 -91l-276 -277l-113 65z" />
    <glyph glyph-name="icircumflex" unicode="&#xee;" horiz-adv-x="422" 
d="M123 908h175v-908h-175v908zM397 1038l-186 179l-186 -179l-129 65l251 276h128l251 -276z" />
    <glyph glyph-name="idieresis" unicode="&#xef;" horiz-adv-x="422" 
d="M123 908h175v-908h-175v908zM352 1327q49 0 83 -33.5t34 -82.5t-34 -82.5t-84 -33.5q-47 0 -82 35q-34 34 -34 83q0 45 35 80q34 34 82 34zM66 1327q50 0 84 -34t34 -82t-34 -82t-84 -34q-49 0 -82.5 34.5t-33.5 83.5q0 46 34 80q35 34 82 34z" />
    <glyph glyph-name="eth" unicode="&#xf0;" horiz-adv-x="1074" 
d="M783 863q-2 3 -6 13q-37 97 -103 194q-68 98 -138 159l-218 -113l-111 100l196 102q-115 62 -246 102l73 109q174 -46 324 -134l226 113l102 -99l-207 -108q135 -133 217 -296q56 -110 87 -248q31 -137 31 -274q0 -254 -159 -392q-133 -117 -314 -117q-212 0 -350 154
q-123 136 -123 326q0 219 158 362q131 118 314 118q137 0 247 -71zM535 775q-83 0 -152 -42q-142 -85 -142 -278q0 -161 100 -249q82 -73 196 -73q131 0 217 93q79 85 79 231q0 157 -99 245q-82 73 -199 73z" />
    <glyph glyph-name="ntilde" unicode="&#xf1;" horiz-adv-x="1043" 
d="M122 0v908h175v-84q101 110 252 110q146 0 250 -92q65 -57 93.5 -139t28.5 -213v-490h-175v474q0 140 -36 206q-50 90 -179 90q-64 0 -118 -27.5t-79 -72.5q-37 -65 -37 -216v-454h-175zM678 1328l143 -33q-17 -198 -174 -198q-68 0 -145 41q-55 29 -83 29q-31 0 -43 -76
l-141 33q9 82 43 130q48 68 133 68q62 0 149 -45q47 -25 80 -25q31 0 38 76z" />
    <glyph glyph-name="ograve" unicode="&#xf2;" horiz-adv-x="1074" 
d="M543 934q203 0 343 -153q123 -137 123 -326q0 -219 -158 -362q-131 -119 -314 -119q-212 0 -350 154q-123 136 -123 327q0 184 113 315q143 164 366 164zM531 775q-127 0 -212 -94q-78 -85 -78 -226q0 -161 100 -249q82 -73 196 -73q131 0 216 93q79 85 79 235
q0 153 -99 241q-82 73 -202 73zM534 1038l-275 277l169 91l220 -303z" />
    <glyph glyph-name="oacute" unicode="&#xf3;" horiz-adv-x="1074" 
d="M543 934q203 0 343 -153q123 -137 123 -326q0 -219 -158 -362q-131 -119 -314 -119q-212 0 -350 154q-123 136 -123 327q0 184 113 315q143 164 366 164zM531 775q-127 0 -212 -94q-78 -85 -78 -226q0 -161 100 -249q82 -73 196 -73q131 0 216 93q79 85 79 235
q0 153 -99 241q-82 73 -202 73zM646 1406l169 -91l-276 -277l-114 65z" />
    <glyph glyph-name="ocircumflex" unicode="&#xf4;" horiz-adv-x="1074" 
d="M544 934q203 0 342 -154q123 -135 123 -325q0 -220 -158 -363q-130 -118 -315 -118q-211 0 -349 153q-123 136 -123 332q0 214 158 357q131 118 322 118zM534 775q-82 0 -152 -42q-141 -85 -141 -278q0 -162 100 -250q83 -72 196 -72q131 0 216 93q79 85 79 231
q0 157 -99 245q-82 73 -199 73zM723 1038l-186 179l-186 -179l-129 65l251 276h128l251 -276z" />
    <glyph glyph-name="otilde" unicode="&#xf5;" horiz-adv-x="1074" 
d="M543 934q203 0 343 -153q123 -137 123 -326q0 -219 -158 -362q-131 -119 -314 -119q-212 0 -350 154q-123 136 -123 327q0 184 113 315q143 164 366 164zM531 775q-127 0 -212 -94q-78 -85 -78 -226q0 -161 100 -249q82 -73 196 -73q131 0 216 93q79 85 79 235
q0 153 -99 241q-82 73 -202 73zM686 1328l144 -33q-16 -198 -175 -198q-68 0 -145 41q-55 29 -82 29q-32 0 -44 -76l-141 33q9 80 44 130q47 68 133 68q62 0 148 -45q47 -25 80 -25q32 0 38 76z" />
    <glyph glyph-name="odieresis" unicode="&#xf6;" horiz-adv-x="1074" 
d="M543 934q203 0 343 -153q123 -137 123 -326q0 -219 -158 -362q-131 -119 -314 -119q-212 0 -350 154q-123 136 -123 327q0 184 113 315q143 164 366 164zM531 775q-127 0 -212 -94q-78 -85 -78 -226q0 -161 100 -249q82 -73 196 -73q131 0 216 93q79 85 79 235
q0 153 -99 241q-82 73 -202 73zM724 1327q49 0 83 -34t34 -82t-34 -82t-83 -34t-83 34t-34 84q0 45 35 80q34 34 82 34zM348 1327q49 0 83 -34t34 -82t-34 -82t-83 -34t-83 34t-34 84q0 45 35 80q34 34 82 34z" />
    <glyph glyph-name="divide" unicode="&#xf7;" horiz-adv-x="1139" 
d="M117 717h905v-156h-905v156zM572 1120q49 0 85 -36q36 -38 36 -87q0 -51 -36 -87t-87 -36q-50 0 -86 36q-37 36 -37 86q0 52 37 88q36 36 88 36zM572 404q49 0 85 -36q36 -38 36 -87q0 -51 -36 -87t-87 -36q-50 0 -86 36q-37 36 -37 86q0 52 37 88q36 36 88 36z" />
    <glyph glyph-name="oslash" unicode="&#xf8;" horiz-adv-x="1101" 
d="M168 -4l-90 87l89 87q-89 125 -89 283q0 220 158 363q131 118 317 118q161 0 295 -104l85 82l90 -87l-89 -86q89 -130 89 -282q0 -223 -158 -364q-131 -119 -316 -119q-165 0 -296 104zM812 620l-443 -430q79 -57 179 -57q134 0 220 93q78 85 78 230q0 95 -34 164z
M290 288l442 430q-80 57 -179 57q-135 0 -220 -93q-78 -86 -78 -232q0 -87 35 -162z" />
    <glyph glyph-name="ugrave" unicode="&#xf9;" horiz-adv-x="1043" 
d="M921 908v-908h-175v84q-101 -110 -252 -110q-146 0 -250 92q-65 57 -93.5 139t-28.5 213v490h175v-474q0 -140 36 -205q49 -91 179 -91q64 0 118 27.5t79 72.5q37 65 37 216v454h175zM523 1038l-276 277l169 91l220 -303z" />
    <glyph glyph-name="uacute" unicode="&#xfa;" horiz-adv-x="1043" 
d="M921 908v-908h-175v84q-101 -110 -252 -110q-146 0 -250 92q-65 57 -93.5 139t-28.5 213v490h175v-474q0 -140 36 -205q49 -91 179 -91q64 0 118 27.5t79 72.5q37 65 37 216v454h175zM620 1406l169 -91l-276 -277l-113 65z" />
    <glyph glyph-name="ucircumflex" unicode="&#xfb;" horiz-adv-x="1043" 
d="M921 908v-908h-175v84q-101 -110 -252 -110q-146 0 -250 92q-65 57 -93.5 139t-28.5 213v490h175v-474q0 -140 36 -205q49 -91 179 -91q64 0 118 27.5t79 72.5q37 65 37 216v454h175zM708 1038l-187 179l-186 -179l-129 65l252 276h128l251 -276z" />
    <glyph glyph-name="udieresis" unicode="&#xfc;" horiz-adv-x="1043" 
d="M921 908v-908h-175v84q-101 -110 -252 -110q-146 0 -250 92q-65 57 -93.5 139t-28.5 213v490h175v-474q0 -140 36 -205q49 -91 179 -91q64 0 118 27.5t79 72.5q37 65 37 216v454h175zM709 1327q49 0 83 -34t34 -82t-34 -82t-84 -34q-47 0 -82 35q-34 34 -34 83
q0 45 35 80q34 34 82 34zM333 1327q49 0 83 -34t34 -82t-34 -82t-83 -34t-83 34t-34 84q0 45 35 80q34 34 82 34z" />
    <glyph glyph-name="yacute" unicode="&#xfd;" horiz-adv-x="926" 
d="M567 1406l170 -91l-276 -277l-114 65zM321 -478h-182l227 520l-371 866h189l275 -653l284 653h189z" />
    <glyph glyph-name="thorn" unicode="&#xfe;" horiz-adv-x="1122" 
d="M124 -478v1843h175v-556q84 67 152 97q65 28 143 28q120 0 226 -61q111 -65 173 -173q65 -113 65 -247q0 -219 -158 -360q-134 -119 -306 -119q-80 0 -143 28q-68 30 -152 97v-577h-175zM587 775q-127 0 -209 -91q-79 -85 -79 -232q0 -160 99 -249q79 -70 191 -70
q81 0 150 42q142 85 142 278q0 162 -100 250q-83 72 -194 72z" />
    <glyph glyph-name="ydieresis" unicode="&#xff;" horiz-adv-x="926" 
d="M651 1327q49 0 83 -34t34 -82t-34 -82t-84 -34q-47 0 -82 35q-34 34 -34 83q0 45 35 80q34 34 82 34zM275 1327q49 0 83 -34t34 -82t-34 -82t-83 -34t-83 34t-34 84q0 45 35 80q34 34 82 34zM321 -478h-182l227 520l-371 866h189l275 -653l284 653h189z" />
    <glyph glyph-name="Amacron" unicode="&#x100;" horiz-adv-x="1281" 
d="M943 369h-608l-138 -369h-190l520 1365h227l520 -1365h-192zM638 1181l-240 -642h482zM347 1541v157h587v-157h-587z" />
    <glyph glyph-name="amacron" unicode="&#x101;" horiz-adv-x="1120" 
d="M998 908v-908h-175v99q-83 -67 -151 -97q-65 -28 -144 -28q-120 0 -226 61q-111 65 -173 173q-65 113 -65 247q0 219 158 360q134 119 306 119q78 0 144 -27q69 -31 151 -98v99h175zM533 775q-81 0 -150 -42q-142 -85 -142 -278q0 -161 100 -249q82 -73 194 -73
q130 0 212 91q79 86 79 235q0 157 -99 245q-80 71 -194 71zM263 1131v157h586v-157h-586z" />
    <glyph glyph-name="Abreve" unicode="&#x102;" horiz-adv-x="1281" 
d="M943 369h-608l-138 -369h-190l520 1365h227l520 -1365h-192zM638 1181l-240 -642h482zM357 1746l151 12v-14q3 -52 20 -81q38 -62 109 -62q82 0 119 79q10 21 17 78l151 -12q-10 -105 -56 -173q-80 -122 -230 -122q-126 0 -202 81q-78 81 -79 214z" />
    <glyph glyph-name="abreve" unicode="&#x103;" horiz-adv-x="1120" 
d="M998 908v-908h-175v99q-83 -67 -151 -97q-65 -28 -144 -28q-120 0 -226 61q-111 65 -173 173q-65 113 -65 247q0 219 158 360q134 119 306 119q78 0 144 -27q69 -31 151 -98v99h175zM533 775q-81 0 -150 -42q-142 -85 -142 -278q0 -161 100 -249q82 -73 194 -73
q130 0 212 91q79 86 79 235q0 157 -99 245q-80 71 -194 71zM251 1336l151 13q0 -12 1 -15q3 -53 19 -81q38 -62 109 -62q83 0 119 79q9 17 17 79l151 -13q-10 -105 -56 -173q-80 -122 -230 -122q-125 0 -202 80q-76 79 -79 215z" />
    <glyph glyph-name="Aogonek" unicode="&#x104;" horiz-adv-x="1281" 
d="M7 0l520 1365h227l520 -1365q-1 -1 -7 -9q-67 -80 -67 -127q0 -41 50 -41q36 0 87 19l51 -128q-87 -33 -153 -33q-96 0 -152 62q-43 47 -43 111q0 67 59 146h-17l-139 369h-608l-138 -369h-190zM638 1181l-240 -642h482z" />
    <glyph glyph-name="aogonek" unicode="&#x105;" horiz-adv-x="1120" 
d="M823 0v99q-83 -67 -151 -97q-65 -28 -144 -28q-120 0 -226 61q-111 65 -173 173q-65 113 -65 247q0 219 158 360q134 119 306 119q78 0 144 -27q69 -31 151 -98v99h175v-908q-1 -1 -3.5 -4.5t-4.5 -6.5q-66 -81 -66 -125q0 -41 50 -41q36 0 87 19l51 -128
q-87 -33 -153 -33q-96 0 -152 62q-43 47 -43 111q0 67 59 146zM533 775q-81 0 -150 -42q-142 -85 -142 -278q0 -161 100 -249q82 -73 194 -73q130 0 212 91q79 86 79 235q0 157 -99 245q-80 71 -194 71z" />
    <glyph glyph-name="Cacute" unicode="&#x106;" horiz-adv-x="1364" 
d="M1296 1161l-127 -124q-66 71 -126 109q-112 73 -256 73q-236 0 -386 -170q-137 -155 -137 -367q0 -245 175 -402q148 -134 348 -134q112 0 199 43q89 42 190 143l126 -124q-87 -88 -163 -136q-158 -98 -350 -98q-195 0 -359 95q-162 96 -256 259q-95 166 -95 354t94 354
q96 167 259 261t355 94q147 0 268 -54q121 -56 241 -176zM903 1816l169 -91l-276 -277l-113 65z" />
    <glyph glyph-name="cacute" unicode="&#x107;" horiz-adv-x="941" 
d="M897 769l-117 -116q-62 68 -114 95q-54 27 -126 27q-136 0 -221 -94q-78 -85 -78 -227q0 -159 98 -248q82 -73 202 -73q74 0 130 29q52 27 116 100l117 -116q-64 -68 -118 -102q-109 -70 -246 -70q-217 0 -354 155q-122 137 -122 325q0 219 156 360q132 120 320 120
q105 0 189 -39t168 -126zM616 1406l170 -91l-276 -277l-114 65z" />
    <glyph glyph-name="Ccircumflex" unicode="&#x108;" horiz-adv-x="1364" 
d="M1296 1161l-127 -124q-66 71 -126 109q-112 73 -256 73q-236 0 -386 -170q-137 -155 -137 -367q0 -245 175 -402q148 -134 348 -134q112 0 199 43q89 42 190 143l126 -124q-87 -88 -163 -136q-158 -98 -350 -98q-195 0 -359 95q-162 96 -256 259q-95 166 -95 354t94 354
q96 167 259 261t355 94q147 0 268 -54q121 -56 241 -176zM946 1448l-186 179l-186 -179l-129 65l251 275h128l251 -275z" />
    <glyph glyph-name="ccircumflex" unicode="&#x109;" horiz-adv-x="941" 
d="M897 769l-117 -116q-62 68 -114 95q-54 27 -126 27q-136 0 -221 -94q-78 -85 -78 -227q0 -159 98 -248q82 -73 202 -73q74 0 130 29q52 27 116 100l117 -116q-64 -68 -118 -102q-109 -70 -246 -70q-217 0 -354 155q-122 137 -122 325q0 219 156 360q132 120 320 120
q105 0 189 -39t168 -126zM698 1038l-186 179l-187 -179l-129 65l252 276h127l252 -276z" />
    <glyph glyph-name="Cdotaccent" unicode="&#x10a;" horiz-adv-x="1364" 
d="M1296 1161l-127 -124q-66 71 -126 109q-112 73 -256 73q-236 0 -386 -170q-137 -155 -137 -367q0 -245 175 -402q148 -134 348 -134q112 0 199 43q89 42 190 143l126 -124q-87 -88 -163 -136q-158 -98 -350 -98q-195 0 -359 95q-162 96 -256 259q-95 166 -95 354t94 354
q96 167 259 261t355 94q147 0 268 -54q121 -56 241 -176zM777 1735q49 0 83 -34t34 -82t-34 -82t-83 -34t-83 34t-34 84q0 45 35 80q34 34 82 34z" />
    <glyph glyph-name="cdotaccent" unicode="&#x10b;" horiz-adv-x="941" 
d="M897 769l-117 -116q-62 68 -114 95q-54 27 -126 27q-136 0 -221 -94q-78 -85 -78 -227q0 -159 98 -248q82 -73 202 -73q74 0 130 29q52 27 116 100l117 -116q-64 -68 -118 -102q-109 -70 -246 -70q-217 0 -354 155q-122 137 -122 325q0 219 156 360q132 120 320 120
q105 0 189 -39t168 -126zM519 1327q49 0 83 -34t34 -82t-34 -82t-84 -34q-49 0 -82.5 34.5t-33.5 83.5q0 45 35 80q34 34 82 34z" />
    <glyph glyph-name="Ccaron" unicode="&#x10c;" horiz-adv-x="1364" 
d="M1296 1161l-127 -124q-66 71 -126 109q-112 73 -256 73q-236 0 -386 -170q-137 -155 -137 -367q0 -245 175 -402q148 -134 348 -134q112 0 199 43q89 42 190 143l126 -124q-87 -88 -163 -136q-158 -98 -350 -98q-195 0 -359 95q-162 96 -256 259q-95 166 -95 354t94 354
q96 167 259 261t355 94q147 0 268 -54q121 -56 241 -176zM574 1803l186 -179l186 179l129 -65l-251 -275h-128l-251 275z" />
    <glyph glyph-name="ccaron" unicode="&#x10d;" horiz-adv-x="941" 
d="M897 769l-117 -116q-62 68 -114 95q-54 27 -126 27q-136 0 -221 -94q-78 -85 -78 -227q0 -159 98 -248q82 -73 202 -73q74 0 130 29q52 27 116 100l117 -116q-64 -68 -118 -102q-109 -70 -246 -70q-217 0 -354 155q-122 137 -122 325q0 219 156 360q132 120 320 120
q105 0 189 -39t168 -126zM325 1393l187 -179l186 179l129 -65l-252 -275h-127l-252 275z" />
    <glyph glyph-name="Dcaron" unicode="&#x10e;" horiz-adv-x="1267" 
d="M157 0v1365h291q250 0 428 -102q149 -86 224 -221q88 -157 88 -358q0 -285 -164 -464q-202 -220 -576 -220h-291zM455 1195h-115v-1025h115q185 0 315 75q108 62 166 164q68 122 68 275q0 301 -234 436q-130 75 -315 75zM409 1803l186 -179l186 179l129 -65l-251 -275
h-128l-251 275z" />
    <glyph glyph-name="dcaron" unicode="&#x10f;" horiz-adv-x="1338" 
d="M998 1365v-1365h-175v99q-83 -67 -151 -97q-65 -28 -144 -28q-120 0 -226 61q-111 65 -173 173q-65 113 -65 247q0 219 158 360q134 119 306 119q78 0 143 -28q68 -30 152 -97v556h175zM533 775q-81 0 -150 -42q-142 -85 -142 -278q0 -161 100 -249q82 -73 194 -73
q127 0 209 91q79 86 79 232q0 160 -99 249q-79 70 -191 70zM1210 1018l-126 39l103 348l169 -51z" />
    <glyph glyph-name="Dcroat" unicode="&#x110;" horiz-adv-x="1295" 
d="M185 654h-134v163h134v548h291q250 0 428 -102q149 -86 224 -221q88 -157 88 -359q0 -284 -164 -463q-202 -220 -576 -220h-291v654zM368 1195v-378h316v-163h-316v-484h115q185 0 315 75q108 61 166 164q68 122 68 274q0 302 -234 437q-130 75 -315 75h-115z" />
    <glyph glyph-name="dslash" unicode="&#x111;" horiz-adv-x="1121" 
d="M583 1211h240v154h175v-154h120v-158h-120v-1053h-175v99q-83 -67 -151 -97q-65 -28 -144 -28q-120 0 -226 61q-111 65 -173 173q-65 113 -65 247q0 219 158 360q134 119 306 119q78 0 143 -28q68 -30 152 -97v244h-240v158zM533 775q-81 0 -150 -42q-142 -85 -142 -278
q0 -161 100 -249q82 -73 194 -73q127 0 209 91q79 86 79 232q0 160 -99 249q-79 70 -191 70z" />
    <glyph glyph-name="Emacron" unicode="&#x112;" horiz-adv-x="979" 
d="M880 1365v-168h-540v-420h479v-170h-479v-437h560v-170h-743v1365h723zM236 1541v157h586v-157h-586z" />
    <glyph glyph-name="emacron" unicode="&#x113;" horiz-adv-x="1014" 
d="M949 384h-705q13 -82 57 -142q78 -109 222 -109q77 0 144 35t102 94q12 20 15 24l153 -64q-147 -248 -413 -248q-208 0 -339 150q-121 137 -121 331q0 222 155 365q125 114 292 114q190 0 318 -143q121 -136 121 -353q0 -23 -1 -54zM244 525h531q-16 94 -66 157
q-74 95 -197 95q-104 0 -175 -67t-93 -185zM214 1131v157h586v-157h-586z" />
    <glyph glyph-name="Ebreve" unicode="&#x114;" horiz-adv-x="979" 
d="M880 1365v-168h-540v-420h479v-170h-479v-437h560v-170h-743v1365h723zM245 1746l151 12v-14q3 -52 20 -81q38 -62 109 -62q82 0 119 79q10 21 17 78l151 -12q-10 -105 -56 -173q-80 -122 -230 -122q-126 0 -202 81q-78 81 -79 214z" />
    <glyph glyph-name="ebreve" unicode="&#x115;" horiz-adv-x="1014" 
d="M949 384h-705q13 -82 57 -142q78 -109 222 -109q77 0 144 35t102 94q12 20 15 24l153 -64q-147 -248 -413 -248q-208 0 -339 150q-121 137 -121 331q0 222 155 365q125 114 292 114q190 0 318 -143q121 -136 121 -353q0 -23 -1 -54zM244 525h531q-16 94 -66 157
q-74 95 -197 95q-104 0 -175 -67t-93 -185zM228 1336l151 13q3 -60 14 -84q35 -74 115 -74q83 0 119 79q9 20 17 79l151 -13q-10 -104 -56 -174q-81 -121 -230 -121q-125 0 -202 80q-78 81 -79 215z" />
    <glyph glyph-name="Edotaccent" unicode="&#x116;" horiz-adv-x="979" 
d="M880 1365v-168h-540v-420h479v-170h-479v-437h560v-170h-743v1365h723zM528 1735q49 0 83 -34t34 -82t-34 -82t-83 -34t-83 34t-34 84q0 45 35 80q34 34 82 34z" />
    <glyph glyph-name="edotaccent" unicode="&#x117;" horiz-adv-x="1014" 
d="M949 384h-705q13 -82 57 -142q78 -109 222 -109q77 0 144 35t102 94q12 20 15 24l153 -64q-147 -248 -413 -248q-208 0 -339 150q-121 137 -121 331q0 222 155 365q125 114 292 114q190 0 318 -143q121 -136 121 -353q0 -23 -1 -54zM244 525h531q-16 94 -66 157
q-74 95 -197 95q-104 0 -175 -67t-93 -185zM506 1327q49 0 83 -34t34 -82t-34 -82t-84 -34q-49 0 -82.5 34.5t-33.5 83.5q0 45 35 80q34 34 82 34z" />
    <glyph glyph-name="Eogonek" unicode="&#x118;" horiz-adv-x="979" 
d="M340 170h560v-170q-1 -1 -2.5 -3t-3 -4.5t-2.5 -3.5q-66 -82 -66 -125q0 -41 50 -41q37 0 87 19l51 -128q-87 -33 -153 -33q-96 0 -152 62q-43 47 -43 111q0 70 58 146h-567v1365h723v-168h-540v-420h479v-170h-479v-437z" />
    <glyph glyph-name="eogonek" unicode="&#x119;" horiz-adv-x="1014" 
d="M784 286l153 -64q-124 -208 -346 -243q-57 -71 -57 -115q0 -41 50 -41q36 0 87 19l51 -128q-88 -33 -153 -33q-96 0 -152 62q-43 47 -43 111q0 63 47 131q-104 26 -179 84q-80 64 -128 162q-50 106 -50 224q0 222 155 365q125 114 292 114q190 0 318 -143
q121 -136 121 -353q0 -23 -1 -54h-705q13 -82 57 -142q78 -109 222 -109q77 0 143.5 35t102.5 94q12 20 15 24zM244 525h531q-16 94 -66 157q-74 95 -197 95q-104 0 -175 -67t-93 -185z" />
    <glyph glyph-name="Ecaron" unicode="&#x11a;" horiz-adv-x="979" 
d="M880 1365v-168h-540v-420h479v-170h-479v-437h560v-170h-743v1365h723zM343 1803l186 -179l186 179l129 -65l-251 -275h-128l-251 275z" />
    <glyph glyph-name="ecaron" unicode="&#x11b;" horiz-adv-x="1014" 
d="M949 384h-705q13 -82 57 -142q78 -109 222 -109q77 0 144 35t102 94q12 20 15 24l153 -64q-147 -248 -413 -248q-208 0 -339 150q-121 137 -121 331q0 222 155 365q125 114 292 114q190 0 318 -143q121 -136 121 -353q0 -23 -1 -54zM244 525h531q-16 94 -66 157
q-74 95 -197 95q-104 0 -175 -67t-93 -185zM321 1393l186 -179l186 179l129 -65l-251 -275h-128l-251 275z" />
    <glyph glyph-name="Gcircumflex" unicode="&#x11c;" horiz-adv-x="1489" 
d="M822 550v170h584v-89q0 -207 -90 -371q-71 -131 -206 -206q-142 -80 -317 -80q-197 0 -361 95t-258 259q-95 164 -95 354q0 188 94 354q96 167 259 261t357 94q216 0 389 -127q51 -36 118 -102l-127 -124q-67 70 -128 110q-113 71 -254 71q-234 0 -386 -170
q-137 -155 -137 -367q0 -245 175 -402q149 -134 350 -134q162 0 274 88q132 103 155 316h-396zM942 1448l-186 179l-186 -179l-129 65l251 275h128l251 -275z" />
    <glyph glyph-name="gcircumflex" unicode="&#x11d;" horiz-adv-x="1120" 
d="M823 908h175v-925q0 -237 -147 -368q-134 -119 -332 -119q-204 0 -343 124q-31 28 -83 88l115 115q10 -12 12 -14q66 -76 103 -100q82 -54 191 -54q151 0 234 92q75 85 75 236v116q-128 -125 -294 -125q-121 0 -227 61q-110 63 -173 173q-65 113 -65 247q0 219 158 360
q134 119 307 119q166 0 294 -125v99zM533 775q-81 0 -150 -42q-142 -85 -142 -278q0 -161 100 -249q82 -73 194 -73q128 0 210 91q79 85 79 232q0 160 -99 249q-79 70 -192 70zM717 1038l-186 179l-186 -179l-129 65l251 276h128l251 -276z" />
    <glyph glyph-name="Gbreve" unicode="&#x11e;" horiz-adv-x="1489" 
d="M822 550v170h584v-89q0 -207 -90 -371q-71 -131 -206 -206q-142 -80 -317 -80q-197 0 -361 95t-258 259q-95 164 -95 354q0 188 94 354q96 167 259 261t357 94q216 0 389 -127q51 -36 118 -102l-127 -124q-67 70 -128 110q-113 71 -254 71q-234 0 -386 -170
q-137 -155 -137 -367q0 -245 175 -402q149 -134 350 -134q162 0 274 88q132 103 155 316h-396zM510 1746l150 12q3 -59 14 -83q36 -74 116 -74q82 0 119 79q10 21 17 78l151 -12q-10 -105 -56 -173q-81 -122 -230 -122q-125 0 -202 81q-78 81 -79 214z" />
    <glyph glyph-name="gbreve" unicode="&#x11f;" horiz-adv-x="1120" 
d="M823 908h175v-925q0 -237 -147 -368q-134 -119 -332 -119q-204 0 -343 124q-31 28 -83 88l115 115q10 -12 12 -14q66 -76 103 -100q82 -54 191 -54q151 0 234 92q75 85 75 236v116q-128 -125 -294 -125q-121 0 -227 61q-110 63 -173 173q-65 113 -65 247q0 219 158 360
q134 119 307 119q166 0 294 -125v99zM533 775q-81 0 -150 -42q-142 -85 -142 -278q0 -161 100 -249q82 -73 194 -73q128 0 210 91q79 85 79 232q0 160 -99 249q-79 70 -192 70zM251 1336l151 13q3 -59 14 -84q35 -74 115 -74q83 0 119 79q10 19 18 79l151 -13
q-12 -105 -57 -174q-79 -121 -230 -121q-125 0 -202 80q-78 81 -79 215z" />
    <glyph glyph-name="Gdotaccent" unicode="&#x120;" horiz-adv-x="1489" 
d="M822 550v170h584v-89q0 -207 -90 -371q-71 -131 -206 -206q-142 -80 -317 -80q-197 0 -361 95t-258 259q-95 164 -95 354q0 188 94 354q96 167 259 261t357 94q216 0 389 -127q51 -36 118 -102l-127 -124q-67 70 -128 110q-113 71 -254 71q-234 0 -386 -170
q-137 -155 -137 -367q0 -245 175 -402q149 -134 350 -134q162 0 274 88q132 103 155 316h-396zM790 1735q49 0 83 -34t34 -82t-34 -82t-83 -34t-83 34t-34 84q0 46 35 81q35 33 82 33z" />
    <glyph glyph-name="gdotaccent" unicode="&#x121;" horiz-adv-x="1120" 
d="M823 908h175v-925q0 -237 -147 -368q-134 -119 -332 -119q-204 0 -343 124q-31 28 -83 88l115 115q10 -12 12 -14q66 -76 103 -100q82 -54 191 -54q151 0 234 92q75 85 75 236v116q-128 -125 -294 -125q-121 0 -227 61q-110 63 -173 173q-65 113 -65 247q0 219 158 360
q134 119 307 119q166 0 294 -125v99zM533 775q-81 0 -150 -42q-142 -85 -142 -278q0 -161 100 -249q82 -73 194 -73q128 0 210 91q79 85 79 232q0 160 -99 249q-79 70 -192 70zM531 1327q50 0 84 -34t34 -82t-34 -82t-84 -34q-49 0 -82.5 34.5t-33.5 83.5q0 45 35 80
q34 34 81 34z" />
    <glyph glyph-name="Gcommaaccent" unicode="&#x122;" horiz-adv-x="1489" 
d="M822 550v170h584v-89q0 -207 -90 -371q-71 -131 -206 -206q-142 -80 -317 -80q-197 0 -361 95t-258 259q-95 164 -95 354q0 188 94 354q96 167 259 261t357 94q216 0 389 -127q51 -36 118 -102l-127 -124q-67 70 -128 110q-113 71 -254 71q-234 0 -386 -170
q-137 -155 -137 -367q0 -245 175 -402q149 -134 350 -134q162 0 274 88q132 103 155 316h-396zM734 -466l-126 39l103 348l168 -51z" />
    <glyph glyph-name="gcommaaccent" unicode="&#x123;" horiz-adv-x="1120" 
d="M823 908h175v-925q0 -237 -147 -368q-134 -119 -332 -119q-204 0 -343 124q-31 28 -83 88l115 115q10 -12 12 -14q66 -76 103 -100q82 -54 191 -54q151 0 234 92q75 85 75 236v116q-128 -125 -294 -125q-121 0 -227 61q-110 63 -173 173q-65 113 -65 247q0 219 158 360
q134 119 307 119q166 0 294 -125v99zM533 775q-81 0 -150 -42q-142 -85 -142 -278q0 -161 100 -249q82 -73 194 -73q128 0 210 91q79 85 79 232q0 160 -99 249q-79 70 -192 70zM594 1405l126 -39l-103 -349l-168 52z" />
    <glyph glyph-name="Hcircumflex" unicode="&#x124;" horiz-adv-x="1332" 
d="M157 0v1365h183v-588h652v588h183v-1365h-183v607h-652v-607h-183zM852 1448l-186 179l-186 -179l-129 65l251 275h128l251 -275z" />
    <glyph glyph-name="hcircumflex" unicode="&#x125;" horiz-adv-x="1043" 
d="M122 0v1365h175v-541q101 110 252 110q146 0 250 -92q66 -57 94 -138.5t28 -213.5v-490h-175v474q0 140 -36 205q-49 91 -179 91q-64 0 -118 -27.5t-79 -72.5q-37 -65 -37 -216v-454h-175zM714 1448l-186 179l-186 -179l-129 65l251 275h128l251 -275z" />
    <glyph glyph-name="Hbar" unicode="&#x126;" horiz-adv-x="1334" 
d="M1297 1053h-121v-1053h-183v607h-651v-607h-183v1053h-121v158h121v154h183v-154h651v154h183v-154h121v-158zM993 777v276h-651v-276h651z" />
    <glyph glyph-name="hbar" unicode="&#x127;" horiz-adv-x="1042" 
d="M539 1053h-243v-230q100 111 252 111q147 0 251 -92q64 -57 92.5 -139t28.5 -213v-490h-175v474q0 140 -36 205q-49 91 -178 91q-65 0 -118.5 -27.5t-79.5 -72.5q-37 -65 -37 -216v-454h-175v1053h-121v158h121v154h175v-154h243v-158z" />
    <glyph glyph-name="Itilde" unicode="&#x128;" horiz-adv-x="497" 
d="M157 1365h183v-1365h-183v1365zM398 1738l143 -33q-17 -198 -174 -198q-68 0 -145 41q-55 29 -83 29q-31 0 -43 -76l-141 33q9 82 43 130q48 68 133 68q62 0 149 -45q47 -25 80 -25q31 0 38 76z" />
    <glyph glyph-name="itilde" unicode="&#x129;" horiz-adv-x="423" 
d="M123 908h175v-908h-175v908zM361 1328l143 -33q-16 -198 -174 -198q-68 0 -145 41q-55 29 -83 29q-31 0 -43 -76l-141 33q9 82 43 130q48 68 133 68q62 0 149 -45q47 -25 80 -25q31 0 38 76z" />
    <glyph glyph-name="Imacron" unicode="&#x12a;" horiz-adv-x="497" 
d="M157 1365h183v-1365h-183v1365zM-45 1541v157h586v-157h-586z" />
    <glyph glyph-name="imacron" unicode="&#x12b;" horiz-adv-x="422" 
d="M123 908h175v-908h-175v908zM-82 1131v157h586v-157h-586z" />
    <glyph glyph-name="Ibreve" unicode="&#x12c;" horiz-adv-x="497" 
d="M157 1365h183v-1365h-183v1365zM-35 1746l151 12q0 -11 1 -14q3 -53 19 -81q38 -62 109 -62q83 0 119 79q9 20 18 78l150 -12q-10 -105 -56 -173q-80 -122 -230 -122q-126 0 -202 81q-77 79 -79 214z" />
    <glyph glyph-name="ibreve" unicode="&#x12d;" horiz-adv-x="422" 
d="M124 908h175v-908h-175v908zM-72 1336l151 13q3 -60 14 -84q35 -74 115 -74q82 0 119 79q10 19 18 79l150 -13q-10 -104 -56 -174q-79 -121 -230 -121q-125 0 -202 80q-77 79 -79 215z" />
    <glyph glyph-name="Iogonek" unicode="&#x12e;" horiz-adv-x="497" 
d="M157 0v1365h183v-1365q-4 -6 -7 -9q-67 -80 -67 -127q0 -41 50 -41q36 0 87 19l51 -128q-86 -33 -153 -33q-96 0 -152 62q-43 47 -43 111q0 67 59 146h-8z" />
    <glyph glyph-name="iogonek" unicode="&#x12f;" horiz-adv-x="422" 
d="M299 908v-908q-1 -1 -3.5 -4.5t-4.5 -6.5q-66 -81 -66 -125q0 -41 49 -41q37 0 88 19l51 -128q-87 -33 -153 -33q-96 0 -152 62q-43 47 -43 111q0 67 59 146v908h175zM211 1329q49 0 83.5 -34t34.5 -84q0 -48 -34 -82q-35 -35 -84 -35t-83.5 34.5t-34.5 84.5q0 47 35 82
q34 34 83 34z" />
    <glyph glyph-name="Idot" unicode="&#x130;" horiz-adv-x="497" 
d="M157 1365h183v-1365h-183v1365zM247 1735q50 0 84 -34t34 -82t-34 -82t-84 -34q-49 0 -82.5 34.5t-33.5 83.5q0 46 35 81q34 33 81 33z" />
    <glyph glyph-name="dotlessi" unicode="&#x131;" horiz-adv-x="422" 
d="M124 908h175v-908h-175v908z" />
    <glyph glyph-name="IJ" unicode="&#x132;" horiz-adv-x="1317" 
d="M157 1365h183v-1365h-183v1365zM977 1365h183v-951q0 -102 -12 -164q-14 -63 -45 -118q-41 -69 -112 -111q-82 -47 -179 -47q-90 0 -166 36q-79 37 -166 121l112 132q116 -117 216 -117q74 0 117 49q52 56 52 219v951z" />
    <glyph glyph-name="ij" unicode="&#x133;" horiz-adv-x="857" 
d="M124 908h175v-908h-175v908zM211 1329q50 0 84.5 -34.5t34.5 -83.5q0 -48 -34 -82q-35 -35 -84 -35q-50 0 -84.5 34.5t-34.5 84.5q0 47 35 82q34 34 83 34zM647 1329q49 0 83.5 -34t34.5 -83t-34.5 -83.5t-83.5 -34.5q-50 0 -84.5 34.5t-34.5 84.5q0 47 35 82
q34 34 84 34zM399 -477v162q54 -14 81 -14q79 0 79 130v1107h175v-1107q0 -171 -78 -241q-61 -53 -147 -53q-52 0 -110 16z" />
    <glyph glyph-name="Jcircumflex" unicode="&#x134;" horiz-adv-x="837" 
d="M497 1365h183v-951q0 -102 -12 -164q-14 -63 -45 -118q-39 -69 -112 -111q-82 -47 -179 -47q-90 0 -166 36q-79 37 -166 121l112 132q116 -117 216 -117q74 0 117 49q52 56 52 219v951zM699 1448l-186 179l-186 -179l-129 65l251 275h128l251 -275z" />
    <glyph glyph-name="jcircumflex" unicode="&#x135;" horiz-adv-x="442" 
d="M-17 -477v162q54 -14 81 -14q79 0 79 130v1107h175v-1107q0 -172 -78 -241q-62 -53 -147 -53q-53 0 -110 16zM389 1038l-186 179l-186 -179l-129 65l251 276h128l251 -276z" />
    <glyph glyph-name="Kcommaaccent" unicode="&#x136;" horiz-adv-x="1179" 
d="M610 -466l-126 39l103 348l168 -51zM1163 1365l-522 -570l529 -795h-214l-438 661l-178 -195v-466h-183v1365h183v-657l600 657h223z" />
    <glyph glyph-name="kcommaaccent" unicode="&#x137;" horiz-adv-x="963" 
d="M926 908l-377 -373l417 -535h-216l-320 418l-133 -132v-286h-175v1365h175v-857l402 400h227zM468 -466l-127 39l103 348l169 -51z" />
    <glyph glyph-name="kgreenlandic" unicode="&#x138;" horiz-adv-x="963" 
d="M926 908l-377 -373l417 -535h-216l-320 418l-133 -132v-286h-175v908h175v-400l402 400h227z" />
    <glyph glyph-name="Lacute" unicode="&#x139;" horiz-adv-x="867" 
d="M157 1365h183v-1195h520v-170h-703v1365zM364 1816l169 -91l-276 -277l-113 65z" />
    <glyph glyph-name="lacute" unicode="&#x13a;" horiz-adv-x="424" 
d="M300 1365v-1365h-175v1365h175zM333 1840l169 -91l-276 -277l-113 65z" />
    <glyph glyph-name="Lcommaaccent" unicode="&#x13b;" horiz-adv-x="878" 
d="M157 1365h183v-1195h520v-170h-703v1365zM506 -466l-126 39l103 348l168 -51z" />
    <glyph glyph-name="lcommaaccent" unicode="&#x13c;" horiz-adv-x="424" 
d="M299 1365v-1365h-175v1365h175zM168 -466l-126 39l103 348l168 -51z" />
    <glyph glyph-name="Lcaron" unicode="&#x13d;" horiz-adv-x="878" 
d="M157 1365h183v-1195h520v-170h-703v1365zM643 1010l-126 39l103 348l168 -51z" />
    <glyph glyph-name="lcaron" unicode="&#x13e;" horiz-adv-x="639" 
d="M299 1365v-1365h-175v1365h175zM512 1018l-126 39l103 348l168 -51z" />
    <glyph glyph-name="Ldot" unicode="&#x13f;" horiz-adv-x="878" 
d="M666 798q48 0 82 -33.5t34 -81.5t-34 -82t-82 -34q-49 0 -82.5 34t-33.5 84q0 45 35 80q35 33 81 33zM157 1365h183v-1195h520v-170h-703v1365z" />
    <glyph glyph-name="ldot" unicode="&#x140;" horiz-adv-x="710" 
d="M299 1365v-1365h-175v1365h175zM566 798q48 0 82 -33.5t34 -82.5q0 -47 -34 -81t-82 -34t-82 34t-34 83q0 46 35 81q35 33 81 33z" />
    <glyph glyph-name="Lslash" unicode="&#x141;" horiz-adv-x="906" 
d="M51 651l134 91v623h183v-526l229 157v-187l-229 -157v-482h520v-170h-703v555l-134 -92v188z" />
    <glyph glyph-name="lslash" unicode="&#x142;" horiz-adv-x="523" 
d="M348 0h-175v563l-129 -86v191l129 86v611h175v-494l130 87v-191l-130 -87v-680z" />
    <glyph glyph-name="Nacute" unicode="&#x143;" horiz-adv-x="1452" 
d="M340 0h-183v1365h165l790 -1060v1060h183v-1365h-165l-790 1060v-1060zM855 1816l169 -91l-275 -277l-114 65z" />
    <glyph glyph-name="nacute" unicode="&#x144;" horiz-adv-x="1043" 
d="M122 0v908h175v-84q101 110 252 110q146 0 250 -92q65 -57 93.5 -139t28.5 -213v-490h-175v474q0 140 -36 206q-50 90 -179 90q-64 0 -118 -27.5t-79 -72.5q-37 -65 -37 -216v-454h-175zM654 1406l169 -91l-276 -277l-113 65z" />
    <glyph glyph-name="Ncommaaccent" unicode="&#x145;" horiz-adv-x="1452" 
d="M340 0h-183v1365h165l790 -1060v1060h183v-1365h-165l-790 1060v-1060zM718 -466l-127 39l103 348l169 -51z" />
    <glyph glyph-name="ncommaaccent" unicode="&#x146;" horiz-adv-x="1043" 
d="M122 0v908h175v-84q101 110 252 110q146 0 250 -92q65 -57 93.5 -139t28.5 -213v-490h-175v474q0 140 -36 206q-50 90 -179 90q-64 0 -118 -27.5t-79 -72.5q-37 -65 -37 -216v-454h-175zM513 -466l-126 39l103 348l168 -51z" />
    <glyph glyph-name="Ncaron" unicode="&#x147;" horiz-adv-x="1452" 
d="M340 0h-183v1365h165l790 -1060v1060h183v-1365h-165l-790 1060v-1060zM574 1803l186 -179l186 179l129 -65l-251 -275h-127l-252 275z" />
    <glyph glyph-name="ncaron" unicode="&#x148;" horiz-adv-x="1043" 
d="M122 0v908h175v-84q101 110 252 110q146 0 250 -92q65 -57 93.5 -139t28.5 -213v-490h-175v474q0 140 -36 206q-50 90 -179 90q-64 0 -118 -27.5t-79 -72.5q-37 -65 -37 -216v-454h-175zM345 1393l186 -179l187 179l129 -65l-252 -275h-127l-252 275z" />
    <glyph glyph-name="napostrophe" unicode="&#x149;" horiz-adv-x="1218" 
d="M297 0v908h175v-84q101 110 251 110q145 0 251 -92q64 -57 92.5 -139t28.5 -213v-490h-175v474q0 139 -35 206q-49 90 -179 90q-64 0 -118 -27.5t-79 -72.5q-37 -65 -37 -216v-454h-175zM-7 865l178 495l160 -58l-217 -486z" />
    <glyph glyph-name="Eng" unicode="&#x14a;" horiz-adv-x="1452" 
d="M1112 1365h183v-1378q0 -120 -41 -193q-57 -102 -184 -102q-47 0 -110 17v162q52 -15 81 -15q79 0 79 130v27l-780 1047v-1060h-183v1365h165l790 -1060v1060z" />
    <glyph glyph-name="eng" unicode="&#x14b;" horiz-adv-x="1043" 
d="M297 0h-175v908h175v-84q101 110 252 110q146 0 250 -92q65 -57 93.5 -139t28.5 -213v-512q0 -163 -79 -233q-61 -53 -146 -53q-47 0 -110 17v162q52 -15 80 -15q80 0 80 130v488q0 140 -36 206q-50 90 -179 90q-64 0 -117.5 -27t-79.5 -73q-37 -65 -37 -216v-454z" />
    <glyph glyph-name="Omacron" unicode="&#x14c;" horiz-adv-x="1563" 
d="M781 1391q309 0 520 -235q183 -202 183 -474q0 -189 -96 -355q-95 -165 -260 -259q-163 -94 -344 -94q-267 0 -469 181q-236 212 -236 536q0 185 95 345q102 170 261 261q163 94 346 94zM778 1219q-222 0 -376 -172q-138 -155 -138 -374q0 -175 105 -314
q82 -111 205 -167q99 -46 207 -46q132 0 252 69q123 71 194 194q72 125 72 272q0 244 -176 405q-145 133 -345 133zM488 1541v157h586v-157h-586z" />
    <glyph glyph-name="omacron" unicode="&#x14d;" horiz-adv-x="1074" 
d="M544 934q203 0 342 -154q123 -136 123 -325q0 -219 -158 -362q-131 -119 -314 -119q-212 0 -350 153q-123 136 -123 331q0 215 158 358q130 118 322 118zM534 775q-82 0 -151 -42q-142 -85 -142 -278q0 -161 100 -249q82 -73 196 -73q131 0 216 93q79 85 79 231
q0 157 -99 245q-82 73 -199 73zM244 1131v157h586v-157h-586z" />
    <glyph glyph-name="Obreve" unicode="&#x14e;" horiz-adv-x="1563" 
d="M781 1391q309 0 520 -235q183 -202 183 -474q0 -189 -96 -355q-95 -165 -260 -259q-163 -94 -344 -94q-267 0 -469 181q-236 212 -236 536q0 185 95 345q102 170 261 261q163 94 346 94zM778 1219q-222 0 -376 -172q-138 -155 -138 -374q0 -175 105 -314
q82 -111 205 -167q99 -46 207 -46q132 0 252 69q123 71 194 194q72 125 72 272q0 244 -176 405q-145 133 -345 133zM498 1746l151 12q3 -62 13 -83q36 -74 116 -74q83 0 119 79q9 19 17 78l151 -12q-10 -105 -56 -173q-81 -122 -230 -122q-125 0 -202 80q-76 79 -79 215z
" />
    <glyph glyph-name="obreve" unicode="&#x14f;" horiz-adv-x="1074" 
d="M544 934q203 0 342 -154q123 -136 123 -325q0 -219 -158 -362q-131 -119 -314 -119q-212 0 -350 153q-123 136 -123 331q0 215 158 358q130 118 322 118zM534 775q-82 0 -151 -42q-142 -85 -142 -278q0 -161 100 -249q82 -73 196 -73q131 0 216 93q79 85 79 231
q0 157 -99 245q-82 73 -199 73zM253 1336l151 13q3 -59 14 -84q35 -74 115 -74q82 0 119 79q10 19 18 79l150 -13q-10 -104 -56 -174q-79 -121 -230 -121q-125 0 -202 80q-78 81 -79 215z" />
    <glyph glyph-name="Ohungarumlaut" unicode="&#x150;" horiz-adv-x="1563" 
d="M781 1391q309 0 520 -235q183 -202 183 -474q0 -189 -96 -355q-95 -165 -260 -259q-163 -94 -344 -94q-267 0 -469 181q-236 212 -236 536q0 185 95 345q102 170 261 261q163 94 346 94zM778 1219q-222 0 -376 -172q-138 -155 -138 -374q0 -175 105 -314
q82 -111 205 -167q99 -46 207 -46q132 0 252 69q123 71 194 194q72 125 72 272q0 244 -176 405q-145 133 -345 133zM757 1816l158 -89l-278 -279l-100 65zM1049 1816l157 -91l-276 -277l-103 63z" />
    <glyph glyph-name="ohungarumlaut" unicode="&#x151;" horiz-adv-x="1075" 
d="M543 934q203 0 343 -153q123 -137 123 -326q0 -219 -158 -362q-131 -119 -314 -119q-212 0 -350 154q-123 136 -123 327q0 184 113 315q143 164 366 164zM531 775q-127 0 -212 -94q-78 -85 -78 -226q0 -161 100 -249q82 -73 196 -73q131 0 216 93q79 85 79 235
q0 153 -99 241q-82 73 -202 73zM533 1407l158 -90l-278 -279l-100 66zM825 1407l157 -92l-276 -277l-103 63z" />
    <glyph glyph-name="OE" unicode="&#x152;" horiz-adv-x="2121" 
d="M1299 1155v210h722v-168h-540v-420h480v-170h-480v-437h560v-170h-742v210q-62 -70 -137 -120q-173 -116 -378 -116q-186 0 -349 94q-165 95 -260 260q-96 165 -96 354q0 188 95 354q96 166 261 261q163 94 349 94q238 0 425 -150q45 -36 90 -86zM778 1220
q-222 0 -376 -172q-138 -154 -138 -374q0 -174 105 -315q81 -109 205 -166q103 -47 207 -47q132 0 252 69q123 71 194 194q72 125 72 273q0 243 -176 405q-145 133 -345 133z" />
    <glyph glyph-name="oe" unicode="&#x153;" horiz-adv-x="1783" 
d="M1553 286l152 -64q-146 -248 -415 -248q-230 0 -371 196q-39 -57 -94 -99q-124 -97 -287 -97q-213 0 -351 154q-123 136 -123 327q0 218 158 361q131 118 316 118q240 0 381 -196q138 196 359 196q193 0 319 -143q66 -76 97 -185q24 -84 24 -173v-49h-705q14 -84 56 -142
q76 -109 223 -109q77 0 143.5 35t102.5 94q12 20 15 24zM534 775q-82 0 -151 -42q-142 -85 -142 -278q0 -161 100 -249q82 -73 196 -73q131 0 216 93q79 86 79 231q0 157 -99 245q-82 73 -199 73zM1013 525h531q-18 95 -67 157q-75 95 -196 95q-103 0 -177 -68
q-73 -69 -91 -184z" />
    <glyph glyph-name="Racute" unicode="&#x154;" horiz-adv-x="1106" 
d="M626 1816l170 -91l-276 -277l-114 65zM735 588l327 -588h-205l-300 546q-75 -5 -109 -5h-108v-541h-183v1365h291q204 0 314 -62q90 -52 142 -142q57 -97 57 -214q0 -119 -59.5 -213.5t-166.5 -145.5zM340 1197v-490h126q315 0 315 241q0 69 -30 125t-82 85
q-69 39 -203 39h-126z" />
    <glyph glyph-name="racute" unicode="&#x155;" horiz-adv-x="610" 
d="M122 0v908h175v-88q37 32 63 51q58 40 154 40q32 0 60 -4v-157q-36 3 -56 3q-134 0 -184 -92q-37 -70 -37 -223v-438h-175zM402 1406l169 -91l-275 -277l-114 65z" />
    <glyph glyph-name="Rcommaaccent" unicode="&#x156;" horiz-adv-x="1106" 
d="M557 -466l-126 39l103 348l168 -51zM735 588l327 -588h-205l-300 546q-75 -5 -109 -5h-108v-541h-183v1365h291q204 0 314 -62q90 -52 142 -142q57 -97 57 -214q0 -119 -59.5 -213.5t-166.5 -145.5zM340 1197v-490h126q315 0 315 241q0 69 -30 125t-82 85q-69 39 -203 39
h-126z" />
    <glyph glyph-name="rcommaaccent" unicode="&#x157;" horiz-adv-x="610" 
d="M122 0v908h175v-88q37 32 63 51q58 40 154 40q32 0 60 -4v-157q-36 3 -56 3q-136 0 -184 -92q-37 -70 -37 -223v-438h-175zM162 -466l-126 39l103 348l168 -51z" />
    <glyph glyph-name="Rcaron" unicode="&#x158;" horiz-adv-x="1106" 
d="M342 1803l186 -179l186 179l129 -65l-251 -275h-128l-251 275zM735 588l327 -588h-205l-300 546q-75 -5 -109 -5h-108v-541h-183v1365h291q204 0 314 -62q90 -52 142 -142q57 -97 57 -214q0 -119 -59.5 -213.5t-166.5 -145.5zM340 1197v-490h126q315 0 315 241
q0 69 -30 125t-82 85q-69 39 -203 39h-126z" />
    <glyph glyph-name="rcaron" unicode="&#x159;" horiz-adv-x="610" 
d="M122 0v908h175v-88q37 32 63 51q58 40 154 40q32 0 60 -4v-157q-36 3 -56 3q-136 0 -184 -92q-37 -70 -37 -223v-438h-175zM162 1393l186 -179l186 179l129 -65l-251 -275h-128l-251 275z" />
    <glyph glyph-name="Sacute" unicode="&#x15a;" horiz-adv-x="1045" 
d="M926 1160l-147 -94q-48 71 -85 101q-66 54 -157 54q-109 0 -173 -73q-53 -61 -53 -136q0 -126 186 -196l132 -51q205 -80 275 -191q49 -79 49 -179q0 -185 -138 -309q-125 -112 -305 -112q-169 0 -281 96t-154 276l177 48q23 -88 43 -124q74 -125 218 -125q118 0 193 83
q63 72 63 166q0 62 -33 105q-45 59 -191 116l-126 49q-289 112 -289 349q0 166 121 274q119 104 292 104q125 0 217 -55.5t166 -175.5zM652 1816l169 -91l-276 -277l-114 65z" />
    <glyph glyph-name="sacute" unicode="&#x15b;" horiz-adv-x="769" 
d="M54 223l147 60q42 -85 83 -118.5t102 -33.5q74 0 111 45q33 39 33 87q0 44 -27 68q-30 25 -118 59l-95 37q-192 73 -192 237q0 118 87 193q89 77 213 77q187 0 286 -181l-138 -71q-64 97 -152 97q-58 0 -94.5 -30.5t-36.5 -79.5q0 -44 25 -65q25 -22 119 -58l87 -34
q111 -43 161 -100.5t50 -141.5q0 -129 -97 -214q-91 -82 -226 -82q-234 0 -328 249zM492 1406l169 -91l-276 -277l-113 65z" />
    <glyph glyph-name="Scircumflex" unicode="&#x15c;" horiz-adv-x="1045" 
d="M926 1160l-147 -94q-48 71 -85 101q-66 54 -157 54q-109 0 -173 -73q-53 -61 -53 -136q0 -126 186 -196l132 -51q205 -80 275 -191q49 -79 49 -179q0 -185 -138 -309q-125 -112 -305 -112q-169 0 -281 96t-154 276l177 48q23 -88 43 -124q74 -125 218 -125q118 0 193 83
q63 72 63 166q0 62 -33 105q-45 59 -191 116l-126 49q-289 112 -289 349q0 166 121 274q119 104 292 104q125 0 217 -55.5t166 -175.5zM701 1448l-186 179l-186 -179l-129 65l252 275h127l251 -275z" />
    <glyph glyph-name="scircumflex" unicode="&#x15d;" horiz-adv-x="776" 
d="M54 223l147 60q42 -85 83 -118.5t102 -33.5q74 0 111 45q33 39 33 87q0 44 -27 68q-30 25 -118 59l-95 37q-192 73 -192 237q0 118 87 193q89 77 213 77q187 0 286 -181l-138 -71q-64 97 -152 97q-58 0 -94.5 -30.5t-36.5 -79.5q0 -44 25 -65q25 -22 119 -58l87 -34
q111 -43 161 -100.5t50 -141.5q0 -129 -97 -214q-91 -82 -226 -82q-234 0 -328 249zM569 1038l-186 179l-186 -179l-129 65l251 276h128l251 -276z" />
    <glyph glyph-name="Scedilla" unicode="&#x15e;" horiz-adv-x="1045" 
d="M926 1160l-147 -94q-48 71 -85 101q-66 54 -157 54q-109 0 -173 -73q-53 -61 -53 -136q0 -126 186 -196l132 -51q205 -80 275 -191q49 -79 49 -179q0 -185 -138 -309q-125 -112 -305 -112q-169 0 -281 96t-154 276l177 48q23 -88 43 -124q74 -125 218 -125q118 0 193 83
q63 72 63 166q0 62 -33 105q-45 59 -191 116l-126 49q-289 112 -289 349q0 166 121 274q119 104 292 104q125 0 217 -55.5t166 -175.5zM343 -371l186 292l161 -69l-224 -285z" />
    <glyph glyph-name="scedilla" unicode="&#x15f;" horiz-adv-x="769" 
d="M54 223l147 60q42 -85 83 -118.5t102 -33.5q74 0 111 45q33 39 33 87q0 44 -27 68q-30 25 -118 59l-95 37q-192 73 -192 237q0 118 87 193q89 77 213 77q187 0 286 -181l-138 -71q-64 97 -152 97q-58 0 -94.5 -30.5t-36.5 -79.5q0 -44 25 -65q25 -22 119 -58l87 -34
q111 -43 161 -100.5t50 -141.5q0 -129 -97 -214q-91 -82 -226 -82q-234 0 -328 249zM194 -371l185 292l162 -69l-224 -285z" />
    <glyph glyph-name="Scaron" unicode="&#x160;" horiz-adv-x="1045" 
d="M926 1160l-147 -94q-48 71 -85 101q-66 54 -157 54q-109 0 -173 -73q-53 -61 -53 -136q0 -126 186 -196l132 -51q205 -80 275 -191q49 -79 49 -179q0 -185 -138 -309q-125 -112 -305 -112q-169 0 -281 96t-154 276l177 48q23 -88 43 -124q74 -125 218 -125q118 0 193 83
q63 72 63 166q0 62 -33 105q-45 59 -191 116l-126 49q-289 112 -289 349q0 166 121 274q119 104 292 104q125 0 217 -55.5t166 -175.5zM329 1803l186 -179l186 179l129 -65l-251 -275h-127l-252 275z" />
    <glyph glyph-name="scaron" unicode="&#x161;" horiz-adv-x="776" 
d="M54 223l147 60q42 -85 83 -118.5t102 -33.5q74 0 111 45q33 39 33 87q0 44 -27 68q-30 25 -118 59l-95 37q-192 73 -192 237q0 118 87 193q89 77 213 77q187 0 286 -181l-138 -71q-64 97 -152 97q-58 0 -94.5 -30.5t-36.5 -79.5q0 -44 25 -65q25 -22 119 -58l87 -34
q111 -43 161 -100.5t50 -141.5q0 -129 -97 -214q-91 -82 -226 -82q-234 0 -328 249zM197 1393l186 -179l186 179l129 -65l-251 -275h-128l-251 275z" />
    <glyph glyph-name="Tcommaaccent" unicode="&#x162;" horiz-adv-x="890" 
d="M884 1365v-168h-347v-1197h-183v1197h-347v168h877zM405 -466l-126 39l103 348l168 -51z" />
    <glyph glyph-name="tcommaaccent" unicode="&#x163;" horiz-adv-x="518" 
d="M313 908h147v-158h-147v-470q0 -131 79 -131q28 0 81 15v-162q-62 -17 -110 -17q-99 0 -161 68q-64 70 -64 227v470h-100v158h100v208l175 69v-277zM247 -466l-126 39l103 348l168 -51z" />
    <glyph glyph-name="Tcaron" unicode="&#x164;" horiz-adv-x="890" 
d="M884 1365v-168h-347v-1197h-183v1197h-347v168h877zM259 1803l186 -179l187 179l129 -65l-252 -275h-127l-252 275z" />
    <glyph glyph-name="tcaron" unicode="&#x165;" horiz-adv-x="653" 
d="M313 908h147v-158h-147v-470q0 -131 79 -131q28 0 81 15v-162q-62 -17 -110 -17q-99 0 -161 68q-64 70 -64 227v470h-100v158h100v208l175 69v-277zM526 1018l-126 39l103 348l168 -51z" />
    <glyph glyph-name="Tbar" unicode="&#x166;" horiz-adv-x="890" 
d="M750 908v-160h-213v-748h-183v748h-213v160h213v289h-347v168h877v-168h-347v-289h213z" />
    <glyph glyph-name="tbar" unicode="&#x167;" horiz-adv-x="518" 
d="M473 164v-162q-62 -17 -110 -17q-99 0 -161 68q-64 70 -64 227v228h-100v153h100v94h-100v153h100v208l175 69v-277h147v-153h-147v-94h147v-153h-147v-228q0 -131 79 -131q28 0 81 15z" />
    <glyph glyph-name="Utilde" unicode="&#x168;" horiz-adv-x="1304" 
d="M157 481v884h183v-844q0 -97 9 -146q8 -52 30 -89q31 -56 99 -93q82 -47 174 -47q124 0 219 78q54 46 74 106q19 58 19 191v844h183v-884q0 -170 -59 -271q-58 -102 -168 -165q-125 -71 -268 -71q-200 0 -346 126q-80 70 -114 159q-35 88 -35 222zM802 1738l143 -33
q-15 -198 -174 -198q-68 0 -145 41q-55 29 -83 29q-31 0 -43 -76l-141 33q7 79 43 130q47 68 133 68q62 0 149 -45q47 -25 79 -25t39 76z" />
    <glyph glyph-name="utilde" unicode="&#x169;" horiz-adv-x="1043" 
d="M921 908v-908h-175v84q-101 -110 -252 -110q-146 0 -250 92q-65 57 -93.5 139t-28.5 213v490h175v-474q0 -140 36 -205q49 -91 179 -91q64 0 118 27.5t79 72.5q37 65 37 216v454h175zM671 1328l143 -33q-15 -198 -174 -198q-68 0 -145 41q-55 29 -83 29q-30 0 -43 -76
l-141 33q9 80 44 130q47 68 132 68q62 0 149 -45q47 -25 80 -25q32 0 38 76z" />
    <glyph glyph-name="Umacron" unicode="&#x16a;" horiz-adv-x="1304" 
d="M157 481v884h183v-844q0 -97 9 -146q8 -52 30 -89q31 -56 99 -93q82 -47 174 -47q124 0 219 78q54 46 74 106q19 58 19 191v844h183v-884q0 -170 -59 -271q-58 -102 -168 -165q-125 -71 -268 -71q-200 0 -346 126q-80 70 -114 159q-35 88 -35 222zM359 1541v157h586v-157
h-586z" />
    <glyph glyph-name="umacron" unicode="&#x16b;" horiz-adv-x="1043" 
d="M921 908v-908h-175v84q-101 -110 -252 -110q-146 0 -250 92q-65 57 -93.5 139t-28.5 213v490h175v-474q0 -140 36 -205q49 -91 179 -91q64 0 118 27.5t79 72.5q37 65 37 216v454h175zM228 1131v157h586v-157h-586z" />
    <glyph glyph-name="Ubreve" unicode="&#x16c;" horiz-adv-x="1304" 
d="M157 481v884h183v-844q0 -97 9 -146q8 -52 30 -89q31 -56 99 -93q82 -47 174 -47q124 0 219 78q54 46 74 106q19 58 19 191v844h183v-884q0 -170 -59 -271q-58 -102 -168 -165q-125 -71 -268 -71q-200 0 -346 126q-80 70 -114 159q-35 88 -35 222zM368 1746l151 12
q1 -6 1 -14q3 -52 20 -81q38 -62 109 -62q82 0 118 79q11 20 18 78l151 -12q-12 -106 -57 -173q-80 -122 -230 -122q-125 0 -202 81q-78 81 -79 214z" />
    <glyph glyph-name="ubreve" unicode="&#x16d;" horiz-adv-x="1043" 
d="M921 908v-908h-175v84q-101 -110 -252 -110q-146 0 -250 92q-65 57 -93.5 139t-28.5 213v490h175v-474q0 -140 36 -205q49 -91 179 -91q64 0 118 27.5t79 72.5q37 65 37 216v454h175zM238 1336l151 13q3 -63 13 -84q36 -74 116 -74q82 0 119 79q10 21 17 79l151 -13
q-10 -104 -56 -174q-79 -121 -230 -121q-125 0 -202 80q-76 79 -79 215z" />
    <glyph glyph-name="Uring" unicode="&#x16e;" horiz-adv-x="1304" 
d="M157 481v884h183v-844q0 -97 9 -146q8 -52 30 -89q31 -56 99 -93q82 -47 174 -47q124 0 219 78q54 46 74 106q19 58 19 191v844h183v-884q0 -170 -59 -271q-58 -102 -168 -165q-125 -71 -268 -71q-200 0 -346 126q-80 70 -114 159q-35 88 -35 222zM651 1812q89 0 149 -65
q49 -53 49 -127q0 -85 -64 -143q-56 -50 -135 -50q-86 0 -145 65q-50 56 -50 130q0 80 65 140q55 50 131 50zM651 1725q-44 0 -74.5 -31t-30.5 -76q0 -41 32 -73q31 -31 74 -31q44 0 75 31t31 75t-31 74.5t-76 30.5z" />
    <glyph glyph-name="uring" unicode="&#x16f;" horiz-adv-x="1043" 
d="M921 908v-908h-175v84q-101 -110 -252 -110q-146 0 -250 92q-65 57 -93.5 139t-28.5 213v490h175v-474q0 -140 36 -205q49 -91 179 -91q64 0 118 27.5t79 72.5q37 65 37 216v454h175zM520 1402q89 0 149 -65q49 -53 49 -127q0 -86 -64 -143q-56 -50 -133 -50
q-81 0 -139 56q-58 58 -58 140q0 79 65 139q55 50 131 50zM520 1315q-44 0 -74.5 -31t-30.5 -76q0 -41 32 -73q31 -31 74 -31q44 0 75 31t31 75t-31 74.5t-76 30.5z" />
    <glyph glyph-name="Uhungarumlaut" unicode="&#x170;" horiz-adv-x="1304" 
d="M157 481v884h183v-844q0 -97 9 -146q8 -52 30 -89q31 -56 99 -93q82 -47 174 -47q124 0 219 78q54 46 74 106q19 58 19 191v844h183v-884q0 -170 -59 -271q-58 -102 -168 -165q-125 -71 -268 -71q-200 0 -346 126q-80 70 -114 159q-35 88 -35 222zM607 1816l159 -89
l-278 -279l-101 65zM900 1816l156 -91l-276 -277l-102 63z" />
    <glyph glyph-name="uhungarumlaut" unicode="&#x171;" horiz-adv-x="1043" 
d="M921 908v-908h-175v84q-101 -110 -252 -110q-146 0 -250 92q-65 57 -93.5 139t-28.5 213v490h175v-474q0 -140 36 -205q49 -91 179 -91q64 0 118 27.5t79 72.5q37 65 37 216v454h175zM487 1407l158 -90l-278 -279l-100 66zM779 1407l156 -92l-275 -277l-103 63z" />
    <glyph glyph-name="Uogonek" unicode="&#x172;" horiz-adv-x="1304" 
d="M964 1365h183v-884q0 -131 -30 -211q-41 -110 -139 -187q-101 -78 -228 -100q-60 -74 -60 -119q0 -41 49 -41q37 0 88 19l50 -128q-86 -33 -152 -33q-96 0 -152 62q-43 47 -43 111q0 60 44 125q-417 73 -417 502v884h183v-844q0 -97 9 -147q8 -50 30 -89q31 -55 99 -93
q82 -47 174 -47q124 0 219 78q55 46 74 107q19 58 19 191v844z" />
    <glyph glyph-name="uogonek" unicode="&#x173;" horiz-adv-x="1043" 
d="M921 908v-908q-1 -1 -3.5 -4.5t-4.5 -6.5q-66 -81 -66 -125q0 -41 50 -41q36 0 87 19l51 -128q-87 -33 -153 -33q-96 0 -152 62q-43 47 -43 111q0 67 59 146v84q-101 -110 -252 -110q-146 0 -250 92q-65 57 -93.5 139t-28.5 213v490h175v-474q0 -140 36 -205
q49 -91 179 -91q64 0 118 27.5t79 72.5q37 65 37 216v454h175z" />
    <glyph glyph-name="Wcircumflex" unicode="&#x174;" horiz-adv-x="1800" 
d="M7 1365h190l314 -1076l310 1076h158l311 -1076l313 1076h190l-413 -1365h-91h-87l-302 1037l-301 -1037h-88h-91zM1086 1448l-186 179l-186 -179l-129 65l251 275h128l251 -275z" />
    <glyph glyph-name="wcircumflex" unicode="&#x175;" horiz-adv-x="1364" 
d="M869 1038l-186 179l-187 -179l-129 65l252 276h128l251 -276zM-5 908h188l222 -634l206 634h143l207 -634l222 634h187l-337 -908h-144l-206 627l-207 -627h-143z" />
    <glyph glyph-name="Ycircumflex" unicode="&#x176;" horiz-adv-x="1060" 
d="M867 1365h200l-445 -797v-568h-183v568l-446 797h202l336 -619zM716 1448l-186 179l-186 -179l-129 65l251 275h128l251 -275z" />
    <glyph glyph-name="ycircumflex" unicode="&#x177;" horiz-adv-x="926" 
d="M651 1038l-186 179l-186 -179l-129 65l251 276h128l251 -276zM321 -478h-182l227 520l-371 866h189l275 -653l284 653h189z" />
    <glyph glyph-name="Ydieresis" unicode="&#x178;" horiz-adv-x="1060" 
d="M867 1365h200l-445 -797v-568h-183v568l-446 797h202l336 -619zM718 1735q49 0 83 -33.5t34 -82.5q0 -48 -34 -82t-83 -34t-83 34t-34 84q0 45 35 80q34 34 82 34zM341 1735q50 0 84 -34t34 -82t-34.5 -82t-84.5 -34q-48 0 -81.5 34.5t-33.5 83.5q0 45 35 80q34 34 81 34
z" />
    <glyph glyph-name="Zacute" unicode="&#x179;" horiz-adv-x="1044" 
d="M985 1365v-153l-720 -1042h735v-170h-959v153l731 1044h-671v168h884zM615 1816l169 -91l-276 -277l-113 65z" />
    <glyph glyph-name="zacute" unicode="&#x17a;" horiz-adv-x="853" 
d="M534 1406l169 -91l-276 -277l-113 65zM806 908v-138l-529 -612h549v-158h-774v138l530 613h-500v157h724z" />
    <glyph glyph-name="Zdotaccent" unicode="&#x17b;" horiz-adv-x="1044" 
d="M985 1365v-153l-720 -1042h735v-170h-959v153l731 1044h-671v168h884zM554 1735q49 0 83 -34t34 -82t-34 -82t-83 -34t-83 34t-34 84q0 45 35 80q34 34 82 34z" />
    <glyph glyph-name="zdotaccent" unicode="&#x17c;" horiz-adv-x="853" 
d="M439 1327q49 0 83 -34t34 -82t-34 -82t-83 -34t-83 34t-34 84q0 46 35 81q35 33 82 33zM806 908v-138l-529 -612h549v-158h-774v138l530 613h-500v157h724z" />
    <glyph glyph-name="Zcaron" unicode="&#x17d;" horiz-adv-x="1044" 
d="M985 1365v-153l-720 -1042h735v-170h-959v153l731 1044h-671v168h884zM368 1803l186 -179l186 179l129 -65l-251 -275h-128l-251 275z" />
    <glyph glyph-name="zcaron" unicode="&#x17e;" horiz-adv-x="853" 
d="M253 1393l186 -179l186 179l129 -65l-251 -275h-128l-251 275zM806 908v-138l-529 -612h549v-158h-774v138l530 613h-500v157h724z" />
    <glyph glyph-name="longs" unicode="&#x17f;" horiz-adv-x="474" 
d="M481 1365v-158q-50 12 -74 12q-86 0 -86 -133v-1086h-175v750h-90v158h90v178q0 121 40 192q57 102 188 102q47 0 107 -15z" />
    <glyph glyph-name="florin" unicode="&#x192;" horiz-adv-x="967" 
d="M10 -386l33 162q55 -15 78 -15q81 0 109 136l174 853h-91l33 158h91l9 46l27 132q36 174 130 243q70 52 158 52q43 0 110 -18l-34 -163q-53 15 -75 15q-83 0 -111 -136l-35 -171h165l-32 -158h-166l-176 -859q-34 -175 -129 -244q-70 -52 -159 -52q-46 0 -109 19z" />
    <glyph glyph-name="Ohorn" unicode="&#x1a0;" horiz-adv-x="1570" 
d="M1278 1180q98 47 98 131q0 83 -98 163l128 64q126 -92 126 -226q0 -155 -158 -254q110 -173 110 -376q0 -189 -96 -355q-95 -165 -260 -259q-163 -94 -347 -94q-183 0 -346 94q-165 94 -260 259q-96 165 -96 355q0 188 95 354q96 166 261 261q163 94 347 94
q286 0 496 -211zM778 1219q-222 0 -376 -172q-138 -155 -138 -374q0 -174 105 -315q81 -109 205 -166q99 -46 207 -46q132 0 252 69q123 71 194 194q72 125 72 273q0 243 -176 404q-145 133 -345 133z" />
    <glyph glyph-name="ohorn" unicode="&#x1a1;" horiz-adv-x="1151" 
d="M984 613q25 -76 25 -158q0 -221 -158 -362q-133 -119 -314 -119q-212 0 -350 154q-123 136 -123 326q0 219 158 362q131 118 316 118q231 0 375 -186q54 42 54 106q0 83 -97 162l127 64q126 -91 126 -226q0 -144 -139 -241zM534 775q-82 0 -151 -42q-142 -85 -142 -278
q0 -161 100 -249q82 -73 196 -73q131 0 216 93q79 85 79 231q0 157 -99 245q-82 73 -199 73z" />
    <glyph glyph-name="Uhorn" unicode="&#x1af;" horiz-adv-x="1380" 
d="M1147 1365v-175q77 47 77 122q0 83 -97 162l127 63q126 -91 126 -227q0 -155 -165 -254q-36 -22 -68 -35v-540q0 -170 -59 -271q-58 -102 -168 -165q-125 -71 -268 -71q-201 0 -346 127q-80 71 -114 158q-35 88 -35 222v884h183v-844q0 -97 9 -146q8 -52 30 -89
q31 -54 99 -93q82 -47 174 -47q124 0 219 78q55 46 74 107q19 58 19 190v844h183z" />
    <glyph glyph-name="uhorn" unicode="&#x1b0;" horiz-adv-x="1183" 
d="M921 908v-175q79 45 79 122q0 81 -98 161l128 64q126 -92 126 -228q0 -91 -59 -165.5t-166 -118.5q-4 -2 -10 -4v-564h-175v84q-101 -110 -252 -110q-146 0 -250 92q-65 57 -93.5 139t-28.5 213v490h175v-474q0 -140 36 -205q49 -91 179 -91q64 0 118 27.5t79 72.5
q37 65 37 216v454h175z" />
    <glyph glyph-name="uni01C4" unicode="&#x1c4;" horiz-adv-x="2311" 
d="M157 0v1365h291q250 0 428 -102q149 -86 224 -221q88 -157 88 -358q0 -285 -164 -464q-202 -220 -576 -220h-291zM455 1195h-115v-1025h115q185 0 315 75q108 62 166 164q68 122 68 275q0 301 -234 436q-130 75 -315 75zM2252 1365v-153l-719 -1042h734v-170h-959v153
l731 1044h-670v168h883zM1635 1803l186 -179l187 179l129 -65l-251 -275h-128l-252 275z" />
    <glyph glyph-name="uni01C5" unicode="&#x1c5;" horiz-adv-x="2120" 
d="M157 0v1365h291q250 0 428 -102q149 -86 224 -221q88 -157 88 -358q0 -285 -164 -464q-202 -220 -576 -220h-291zM455 1195h-115v-1025h115q185 0 315 75q108 62 166 164q68 122 68 275q0 301 -234 436q-130 75 -315 75zM1520 1393l186 -179l186 179l129 -65l-251 -275
h-128l-251 275zM2073 908v-138l-529 -612h549v-158h-774v138l530 613h-500v157h724z" />
    <glyph glyph-name="uni01C6" unicode="&#x1c6;" horiz-adv-x="1973" 
d="M998 1365v-1365h-175v99q-83 -67 -151 -97q-65 -28 -144 -28q-120 0 -226 61q-111 65 -173 173q-65 113 -65 247q0 219 158 360q134 119 306 119q78 0 143 -28q68 -30 152 -97v556h175zM533 775q-81 0 -150 -42q-142 -85 -142 -278q0 -161 100 -249q82 -73 194 -73
q127 0 209 91q79 86 79 232q0 160 -99 249q-79 70 -191 70zM1373 1393l186 -179l186 179l129 -65l-251 -275h-128l-251 275zM1926 908v-138l-529 -612h549v-158h-774v138l530 613h-500v157h724z" />
    <glyph glyph-name="uni01C7" unicode="&#x1c7;" horiz-adv-x="1715" 
d="M157 1365h183v-1195h520v-170h-703v1365zM1375 1365h183v-951q0 -102 -12 -164q-14 -63 -45 -118q-39 -69 -112 -111q-82 -47 -179 -47q-90 0 -166 36q-79 37 -166 121l112 132q116 -117 216 -117q74 0 117 49q52 56 52 219v951z" />
    <glyph glyph-name="uni01C8" unicode="&#x1c8;" horiz-adv-x="1320" 
d="M157 1365h183v-1195h520v-170h-703v1365zM1109 1329q49 0 83.5 -34t34.5 -83t-34.5 -83.5t-83.5 -34.5q-50 0 -84.5 34.5t-34.5 84.5q0 47 35 82q34 34 84 34zM861 -477v162q54 -14 81 -14q79 0 79 130v1107h175v-1107q0 -171 -78 -241q-61 -53 -147 -53q-52 0 -110 16z
" />
    <glyph glyph-name="uni01C9" unicode="&#x1c9;" horiz-adv-x="865" 
d="M299 1365v-1365h-175v1365h175zM655 1329q49 0 83.5 -34t34.5 -83t-34.5 -83.5t-83.5 -34.5q-50 0 -84.5 34.5t-34.5 84.5q0 47 35 82q34 34 84 34zM406 -477v162q54 -14 81 -14q80 0 80 130v1107h175v-1107q0 -172 -78 -241q-62 -53 -147 -53q-51 0 -111 16z" />
    <glyph glyph-name="uni01CA" unicode="&#x1ca;" horiz-adv-x="2289" 
d="M340 0h-183v1365h165l790 -1060v1060h183v-1365h-165l-790 1060v-1060zM1949 1365h183v-951q0 -102 -12 -164q-14 -63 -45 -118q-39 -69 -112 -111q-82 -47 -179 -47q-90 0 -166 36q-79 37 -166 121l112 132q116 -117 216 -117q74 0 117 49q52 56 52 219v951z" />
    <glyph glyph-name="uni01CB" unicode="&#x1cb;" horiz-adv-x="1894" 
d="M340 0h-183v1365h165l790 -1060v1060h183v-1365h-165l-790 1060v-1060zM1684 1329q49 0 83.5 -34t34.5 -83t-34.5 -83.5t-83.5 -34.5q-50 0 -84.5 34.5t-34.5 84.5q0 47 35 82q34 34 84 34zM1435 -477v162q54 -14 81 -14q79 0 79 130v1107h175v-1107q0 -171 -78 -241
q-61 -53 -147 -53q-52 0 -110 16z" />
    <glyph glyph-name="uni01CC" unicode="&#x1cc;" horiz-adv-x="1485" 
d="M122 0v908h175v-84q101 110 252 110q146 0 250 -92q65 -57 93.5 -139t28.5 -213v-490h-175v474q0 140 -36 206q-50 90 -179 90q-64 0 -118 -27.5t-79 -72.5q-37 -65 -37 -216v-454h-175zM1274 1329q49 0 83.5 -34t34.5 -83t-34.5 -83.5t-83.5 -34.5q-50 0 -84.5 34.5
t-34.5 84.5q0 47 35 82q34 34 84 34zM1026 -477v162q54 -14 81 -14q79 0 79 130v1107h175v-1107q0 -171 -78 -241q-61 -53 -147 -53q-52 0 -110 16z" />
    <glyph glyph-name="uni01CD" unicode="&#x1cd;" horiz-adv-x="1281" 
d="M943 369h-608l-138 -369h-190l520 1365h227l520 -1365h-192zM638 1181l-240 -642h482zM454 1803l187 -179l186 179l129 -65l-251 -275h-128l-252 275z" />
    <glyph glyph-name="uni01CE" unicode="&#x1ce;" horiz-adv-x="1120" 
d="M998 908v-908h-175v99q-83 -67 -151 -97q-65 -28 -144 -28q-120 0 -226 61q-111 65 -173 173q-65 113 -65 247q0 219 158 360q134 119 306 119q78 0 144 -27q69 -31 151 -98v99h175zM533 775q-81 0 -150 -42q-142 -85 -142 -278q0 -161 100 -249q82 -73 194 -73
q130 0 212 91q79 86 79 235q0 157 -99 245q-80 71 -194 71zM345 1393l186 -179l186 179l129 -65l-251 -275h-128l-251 275z" />
    <glyph glyph-name="uni01CF" unicode="&#x1cf;" horiz-adv-x="497" 
d="M157 1365h183v-1365h-183v1365zM62 1803l186 -179l186 179l129 -65l-251 -275h-128l-251 275z" />
    <glyph glyph-name="uni01D0" unicode="&#x1d0;" horiz-adv-x="422" 
d="M123 908h175v-908h-175v908zM25 1393l186 -179l186 179l129 -65l-251 -275h-128l-251 275z" />
    <glyph glyph-name="uni01D1" unicode="&#x1d1;" horiz-adv-x="1563" 
d="M781 1391q309 0 520 -235q183 -202 183 -474q0 -189 -96 -355q-95 -165 -260 -259q-163 -94 -344 -94q-267 0 -469 181q-236 212 -236 536q0 185 95 345q102 170 261 261q163 94 346 94zM778 1219q-222 0 -376 -172q-138 -155 -138 -374q0 -175 105 -314
q82 -111 205 -167q99 -46 207 -46q132 0 252 69q123 71 194 194q72 125 72 272q0 244 -176 405q-145 133 -345 133zM595 1803l186 -179l186 179l129 -65l-251 -275h-127l-252 275z" />
    <glyph glyph-name="uni01D2" unicode="&#x1d2;" horiz-adv-x="1074" 
d="M544 934q203 0 342 -154q123 -136 123 -325q0 -219 -158 -362q-131 -119 -314 -119q-212 0 -350 153q-123 136 -123 331q0 215 158 358q130 118 322 118zM534 775q-82 0 -151 -42q-142 -85 -142 -278q0 -161 100 -249q82 -73 196 -73q131 0 216 93q79 85 79 231
q0 157 -99 245q-82 73 -199 73zM351 1393l186 -179l186 179l129 -65l-251 -275h-128l-251 275z" />
    <glyph glyph-name="uni01D3" unicode="&#x1d3;" horiz-adv-x="1304" 
d="M157 481v884h183v-844q0 -97 9 -146q8 -52 30 -89q31 -56 99 -93q82 -47 174 -47q124 0 219 78q54 46 74 106q19 58 19 191v844h183v-884q0 -170 -59 -271q-58 -102 -168 -165q-125 -71 -268 -71q-200 0 -346 126q-80 70 -114 159q-35 88 -35 222zM466 1803l186 -179
l186 179l129 -65l-251 -275h-128l-251 275z" />
    <glyph glyph-name="uni01D4" unicode="&#x1d4;" horiz-adv-x="1043" 
d="M921 908v-908h-175v84q-101 -110 -252 -110q-146 0 -250 92q-65 57 -93.5 139t-28.5 213v490h175v-474q0 -140 36 -205q49 -91 179 -91q64 0 118 27.5t79 72.5q37 65 37 216v454h175zM335 1393l186 -179l186 179l129 -65l-251 -275h-127l-252 275z" />
    <glyph glyph-name="Gcaron" unicode="&#x1e6;" horiz-adv-x="1489" 
d="M822 550v170h584v-89q0 -207 -90 -371q-71 -131 -206 -206q-142 -80 -317 -80q-197 0 -361 95t-258 259q-95 164 -95 354q0 188 94 354q96 167 259 261t357 94q216 0 389 -127q51 -36 118 -102l-127 -124q-67 70 -128 110q-113 71 -254 71q-234 0 -386 -170
q-137 -155 -137 -367q0 -245 175 -402q149 -134 350 -134q162 0 274 88q132 103 155 316h-396zM604 1803l186 -179l186 179l129 -65l-251 -275h-128l-251 275z" />
    <glyph glyph-name="gcaron" unicode="&#x1e7;" horiz-adv-x="1120" 
d="M823 908h175v-925q0 -237 -147 -368q-134 -119 -332 -119q-204 0 -343 124q-31 28 -83 88l115 115q10 -12 12 -14q66 -76 103 -100q82 -54 191 -54q151 0 234 92q75 85 75 236v116q-128 -125 -294 -125q-121 0 -227 61q-110 63 -173 173q-65 113 -65 247q0 219 158 360
q134 119 307 119q166 0 294 -125v99zM533 775q-81 0 -150 -42q-142 -85 -142 -278q0 -161 100 -249q82 -73 194 -73q128 0 210 91q79 85 79 232q0 160 -99 249q-79 70 -192 70zM345 1393l186 -179l186 179l129 -65l-251 -275h-127l-252 275z" />
    <glyph glyph-name="uni01F4" unicode="&#x1f4;" horiz-adv-x="1489" 
d="M822 550v170h584v-89q0 -207 -90 -371q-71 -131 -206 -206q-142 -80 -317 -80q-197 0 -361 95t-258 259q-95 164 -95 354q0 188 94 354q96 167 259 261t357 94q216 0 389 -127q51 -36 118 -102l-127 -124q-67 70 -128 110q-113 71 -254 71q-234 0 -386 -170
q-137 -155 -137 -367q0 -245 175 -402q149 -134 350 -134q162 0 274 88q132 103 155 316h-396zM899 1816l169 -91l-276 -277l-113 65z" />
    <glyph glyph-name="uni01F5" unicode="&#x1f5;" horiz-adv-x="1120" 
d="M823 908h175v-925q0 -237 -147 -368q-134 -119 -332 -119q-204 0 -343 124q-31 28 -83 88l115 115q10 -12 12 -14q66 -76 103 -100q82 -54 191 -54q151 0 234 92q75 85 75 236v116q-128 -125 -294 -125q-121 0 -227 61q-110 63 -173 173q-65 113 -65 247q0 219 158 360
q134 119 307 119q166 0 294 -125v99zM533 775q-81 0 -150 -42q-142 -85 -142 -278q0 -161 100 -249q82 -73 194 -73q128 0 210 91q79 85 79 232q0 160 -99 249q-79 70 -192 70zM637 1406l169 -91l-276 -277l-113 65z" />
    <glyph glyph-name="Aringacute" unicode="&#x1fa;" horiz-adv-x="1281" 
d="M943 369h-608l-138 -369h-190l520 1365h227l520 -1365h-192zM638 1181l-240 -642h482zM643 1812q85 0 145 -65q49 -53 49 -127q0 -85 -64 -143q-56 -50 -133 -50q-88 0 -147 65q-50 56 -50 129q0 79 59 135t141 56zM639 1725q-44 0 -74.5 -31t-30.5 -76q0 -41 32 -73
q31 -31 74 -31q44 0 75 31t31 75t-31 74.5t-76 30.5zM668 2188l169 -91l-276 -277l-114 65z" />
    <glyph glyph-name="aringacute" unicode="&#x1fb;" horiz-adv-x="1120" 
d="M998 908v-908h-175v99q-83 -67 -151 -97q-65 -28 -144 -28q-120 0 -226 61q-111 65 -173 173q-65 113 -65 247q0 219 158 360q134 119 306 119q78 0 144 -27q69 -31 151 -98v99h175zM533 775q-81 0 -150 -42q-142 -85 -142 -278q0 -161 100 -249q82 -73 194 -73
q130 0 212 91q79 86 79 235q0 157 -99 245q-80 71 -194 71zM557 1400q89 0 149 -65q49 -53 49 -127q0 -86 -64 -143q-56 -50 -135 -50q-86 0 -145 65q-50 56 -50 130q0 81 65 140q55 50 131 50zM557 1313q-44 0 -74.5 -31t-30.5 -76q0 -41 32 -73q31 -31 74 -31q44 0 75 31
t31 75t-31 74.5t-76 30.5zM585 1816l169 -91l-275 -277l-114 65z" />
    <glyph glyph-name="AEacute" unicode="&#x1fc;" horiz-adv-x="1720" 
d="M898 0v369h-499l-188 -369h-204l707 1365h907v-168h-540v-420h479v-170h-479v-437h560v-170h-743zM486 539h412v658h-78zM1172 1816l169 -91l-275 -277l-114 65z" />
    <glyph glyph-name="aeacute" unicode="&#x1fd;" horiz-adv-x="1678" 
d="M1448 286l153 -64q-149 -248 -416 -248q-209 0 -342 159q-95 -159 -359 -159q-166 0 -275 64q-145 82 -145 248q0 170 143 250q96 54 246 54h268q-28 187 -251 187q-155 0 -286 -103l-86 116q94 75 187 110q92 33 205 33q254 0 346 -165q130 165 338 165q192 0 318 -142
q122 -137 122 -355q0 -22 -1 -52h-705q14 -82 56 -142q78 -109 223 -109q77 0 143.5 35t102.5 94q11 20 15 24zM727 298v151h-246q-243 0 -243 -161q0 -80 71 -121q64 -37 174 -37q69 0 124.5 17t82.5 47q37 40 37 104zM908 525h531q-18 93 -66 156q-74 95 -197 95
q-104 0 -175 -66.5t-93 -184.5zM937 1406l169 -91l-276 -277l-114 65z" />
    <glyph glyph-name="Oslashacute" unicode="&#x1fe;" horiz-adv-x="1578" 
d="M104 92l142 144q-159 200 -159 445q0 188 95 355q96 166 261 261q163 94 348 94q244 0 443 -163l141 141l100 -96l-143 -144q160 -200 160 -446q0 -190 -96 -356q-95 -165 -260 -259q-163 -94 -348 -94q-245 0 -444 163l-140 -141zM374 363l736 741q-148 115 -317 115
q-231 0 -384 -172q-137 -155 -137 -370q0 -170 102 -314zM1205 1002l-735 -739q146 -117 318 -117q131 0 253 69q123 69 194 194q72 125 72 275q0 174 -102 318zM898 1816l169 -91l-275 -277l-114 65z" />
    <glyph glyph-name="oslashacute" unicode="&#x1ff;" horiz-adv-x="1101" 
d="M168 -4l-90 87l89 87q-89 125 -89 283q0 220 158 363q131 118 317 118q161 0 295 -104l85 82l90 -87l-89 -86q89 -130 89 -282q0 -223 -158 -364q-131 -119 -316 -119q-165 0 -296 104zM812 620l-443 -430q79 -57 179 -57q134 0 220 93q78 85 78 230q0 95 -34 164z
M290 288l442 430q-80 57 -179 57q-135 0 -220 -93q-78 -86 -78 -232q0 -87 35 -162zM660 1406l169 -91l-276 -277l-114 65z" />
    <glyph glyph-name="uni0200" unicode="&#x200;" horiz-adv-x="1281" 
d="M943 369h-608l-138 -369h-190l520 1365h227l520 -1365h-192zM638 1181l-240 -642h482zM783 1448l-276 277l162 91l220 -303zM496 1448l-276 277l162 91l220 -303z" />
    <glyph glyph-name="uni0201" unicode="&#x201;" horiz-adv-x="1120" 
d="M988 908v-908h-175v99q-83 -67 -151 -97q-65 -28 -144 -28q-120 0 -226 61q-111 65 -173 173q-65 113 -65 247q0 219 158 360q134 119 306 119q78 0 144 -27q69 -31 151 -98v99h175zM521 775q-125 0 -211 -93q-79 -85 -79 -227q0 -161 100 -249q82 -73 194 -73
q130 0 212 91q79 86 79 233q0 159 -99 247q-80 71 -196 71zM618 1038l-276 277l162 92l220 -303zM332 1038l-276 277l162 92l220 -303z" />
    <glyph glyph-name="Scommaaccent" unicode="&#x218;" horiz-adv-x="1045" 
d="M926 1160l-147 -94q-48 71 -85 101q-66 54 -157 54q-109 0 -173 -73q-53 -61 -53 -136q0 -126 186 -196l132 -51q205 -80 275 -191q49 -79 49 -179q0 -185 -138 -309q-125 -112 -305 -112q-169 0 -281 96t-154 276l177 48q23 -88 43 -124q74 -125 218 -125q118 0 193 83
q63 72 63 166q0 62 -33 105q-45 59 -191 116l-126 49q-289 112 -289 349q0 166 121 274q119 104 292 104q125 0 217 -55.5t166 -175.5zM332 -371l186 292l161 -69l-224 -285z" />
    <glyph glyph-name="scommaaccent" unicode="&#x219;" horiz-adv-x="769" 
d="M54 223l147 60q42 -85 83 -118.5t102 -33.5q74 0 111 45q33 39 33 87q0 44 -27 68q-30 25 -118 59l-95 37q-192 73 -192 237q0 118 87 193q89 77 213 77q187 0 286 -181l-138 -71q-64 97 -152 97q-58 0 -94.5 -30.5t-36.5 -79.5q0 -44 25 -65q25 -22 119 -58l87 -34
q111 -43 161 -100.5t50 -141.5q0 -129 -97 -214q-91 -82 -226 -82q-234 0 -328 249zM373 -466l-127 39l103 348l169 -51z" />
    <glyph glyph-name="uni021A" unicode="&#x21a;" horiz-adv-x="890" 
d="M884 1365v-168h-347v-1197h-183v1197h-347v168h877zM405 -466l-126 39l103 348l168 -51z" />
    <glyph glyph-name="uni021B" unicode="&#x21b;" horiz-adv-x="518" 
d="M313 908h147v-158h-147v-470q0 -131 79 -131q28 0 81 15v-162q-62 -17 -110 -17q-99 0 -161 68q-64 70 -64 227v470h-100v158h100v208l175 69v-277zM247 -466l-126 39l103 348l168 -51z" />
    <glyph glyph-name="uni0226" unicode="&#x226;" horiz-adv-x="1281" 
d="M943 369h-608l-138 -369h-190l520 1365h227l520 -1365h-192zM638 1181l-240 -642h482zM641 1735q49 0 83 -34t34 -82t-34 -82t-83 -34t-83 34t-34 84q0 46 35 81q34 33 82 33z" />
    <glyph glyph-name="uni0227" unicode="&#x227;" horiz-adv-x="1120" 
d="M998 908v-908h-175v99q-83 -67 -151 -97q-65 -28 -144 -28q-120 0 -226 61q-111 65 -173 173q-65 113 -65 247q0 219 158 360q134 119 306 119q78 0 144 -27q69 -31 151 -98v99h175zM533 775q-81 0 -150 -42q-142 -85 -142 -278q0 -161 100 -249q82 -73 194 -73
q130 0 212 91q79 86 79 235q0 157 -99 245q-80 71 -194 71zM531 1327q50 0 84 -34t34 -82t-34 -82t-84 -34q-49 0 -82.5 34.5t-33.5 83.5q0 45 35 80q34 34 81 34z" />
    <glyph glyph-name="uni0237" unicode="&#x237;" horiz-adv-x="442" 
d="M-17 -477v162q54 -14 81 -14q79 0 79 130v1107h175v-1107q0 -171 -78 -241q-62 -53 -147 -53q-52 0 -110 16z" />
    <glyph glyph-name="uni02BB" unicode="&#x2bb;" horiz-adv-x="488" 
d="M426 1402l-178 -496l-160 58l217 487z" />
    <glyph glyph-name="afii57929" unicode="&#x2bc;" horiz-adv-x="558" 
d="M109 954l179 497l160 -58l-217 -487z" />
    <glyph glyph-name="circumflex" unicode="&#x2c6;" horiz-adv-x="975" 
d="M673 1038l-186 179l-186 -179l-129 65l251 276h128l251 -276z" />
    <glyph glyph-name="caron" unicode="&#x2c7;" horiz-adv-x="975" 
d="M301 1393l186 -179l186 179l129 -65l-251 -275h-128l-251 275z" />
    <glyph glyph-name="uni02C9" unicode="&#x2c9;" horiz-adv-x="975" 
d="M194 1131v157h586v-157h-586z" />
    <glyph glyph-name="breve" unicode="&#x2d8;" horiz-adv-x="975" 
d="M204 1336l151 13q3 -59 14 -84q35 -74 115 -74q82 0 119 79q10 19 18 79l150 -13q-10 -104 -56 -174q-79 -121 -230 -121q-125 0 -202 80q-78 81 -79 215z" />
    <glyph glyph-name="dotaccent" unicode="&#x2d9;" horiz-adv-x="975" 
d="M487 1327q50 0 84 -34t34 -82t-34 -82t-84 -34q-49 0 -82.5 34.5t-33.5 83.5q0 45 35 80q34 34 81 34z" />
    <glyph glyph-name="ring" unicode="&#x2da;" horiz-adv-x="975" 
d="M487 1402q89 0 149 -65q49 -52 49 -127q0 -86 -64 -143q-56 -50 -133 -50q-81 0 -139 56q-58 57 -58 140q0 80 65 139q56 50 131 50zM487 1315q-44 0 -74.5 -31t-30.5 -76q0 -41 32 -73q31 -31 74 -31q44 0 75 31t31 75t-31 74.5t-76 30.5z" />
    <glyph glyph-name="ogonek" unicode="&#x2db;" horiz-adv-x="975" 
d="M711 0h175q-74 -89 -74 -136q0 -41 49 -41q37 0 88 19l51 -128q-87 -33 -153 -33q-96 0 -152 62q-43 47 -43 111q0 67 59 146z" />
    <glyph glyph-name="tilde" unicode="&#x2dc;" horiz-adv-x="975" 
d="M637 1328l143 -33q-16 -198 -174 -198q-68 0 -145 41q-55 29 -83 29q-31 0 -43 -76l-141 33q9 82 43 130q48 68 133 68q62 0 149 -45q47 -25 80 -25q31 0 38 76z" />
    <glyph glyph-name="hungarumlaut" unicode="&#x2dd;" horiz-adv-x="975" 
d="M458 1407l158 -90l-278 -279l-100 66zM750 1407l157 -92l-276 -277l-102 63z" />
    <glyph glyph-name="uni0309" unicode="&#x309;" horiz-adv-x="975" 
d="M404 1663l-51 128q86 33 157 33q103 0 154 -58q37 -40 37 -95q0 -53 -34 -105l-32 -49q-12 -19 -12 -45v-2v-7h-157q2 61 30 102l20 28q25 35 25 52q0 37 -48 37q-35 0 -89 -19z" />
    <glyph glyph-name="uni0323" unicode="&#x323;" horiz-adv-x="975" 
d="M487 -111q49 0 83.5 -34t34.5 -84q0 -49 -34 -83t-84 -34q-49 0 -83.5 34.5t-34.5 84.5q0 46 35 81t83 35z" />
    <glyph glyph-name="uni037E" unicode="&#x37e;" horiz-adv-x="484" 
d="M42 -279l179 496l160 -58l-217 -487zM276 877q48 0 82 -33.5t34 -81.5t-34 -81.5t-82 -33.5q-49 0 -82.5 34t-33.5 83q0 46 34 80q35 33 82 33z" />
    <glyph glyph-name="uni0387" unicode="&#x387;" horiz-adv-x="480" 
d="M240 798q48 0 82 -33.5t34 -82.5q0 -48 -34 -81.5t-83 -33.5q-48 0 -81 35q-34 34 -34 82q0 46 35 81q35 33 81 33z" />
    <glyph glyph-name="uni1E1E" unicode="&#x1e1e;" horiz-adv-x="900" 
d="M833 1365v-168h-493v-420h449v-170h-449v-607h-183v1365h676zM495 1735q49 0 83 -34t34 -82t-34 -82t-83 -34t-83 34t-34 84q0 46 35 81q34 33 82 33z" />
    <glyph glyph-name="uni1E1F" unicode="&#x1e1f;" horiz-adv-x="521" 
d="M486 908v-158h-163v-750h-175v750h-90v158h90v178q0 121 40 192q57 102 188 102q47 0 107 -15v-158q-50 12 -74 12q-86 0 -86 -133v-178h163zM324 1732q49 0 83 -34t34 -82t-34 -82t-84 -34q-47 0 -82 35q-34 34 -34 83q0 46 35 81q34 33 82 33z" />
    <glyph glyph-name="Wgrave" unicode="&#x1e80;" horiz-adv-x="1800" 
d="M7 1365h190l314 -1076l310 1076h158l311 -1076l313 1076h190l-413 -1365h-91h-87l-302 1037l-301 -1037h-88h-91zM912 1448l-276 277l169 91l220 -303z" />
    <glyph glyph-name="wgrave" unicode="&#x1e81;" horiz-adv-x="1364" 
d="M-5 908h188l222 -634l206 634h143l207 -634l222 634h187l-337 -908h-144l-206 627l-207 -627h-143zM680 1038l-276 277l170 91l220 -303z" />
    <glyph glyph-name="Wacute" unicode="&#x1e82;" horiz-adv-x="1800" 
d="M7 1365h190l314 -1076l310 1076h158l311 -1076l313 1076h190l-413 -1365h-91h-87l-302 1037l-301 -1037h-88h-91zM1009 1816l169 -91l-276 -277l-113 65z" />
    <glyph glyph-name="wacute" unicode="&#x1e83;" horiz-adv-x="1366" 
d="M-5 908h188l222 -634l206 634h143l207 -634l222 634h187l-337 -908h-144l-206 627l-207 -627h-143zM730 1406l169 -91l-276 -277l-113 65z" />
    <glyph glyph-name="Wdieresis" unicode="&#x1e84;" horiz-adv-x="1800" 
d="M7 1365h190l314 -1076l310 1076h158l311 -1076l313 1076h190l-413 -1365h-91h-87l-302 1037l-301 -1037h-88h-91zM1088 1735q49 0 83 -34t34 -82t-34 -82t-83 -34t-83 34t-34 84q0 45 35 80q34 34 82 34zM712 1735q49 0 83 -34t34 -82t-34 -82t-83 -34t-83 34t-34 84
q0 46 35 81q35 33 82 33z" />
    <glyph glyph-name="wdieresis" unicode="&#x1e85;" horiz-adv-x="1364" 
d="M-5 908h188l222 -634l206 634h143l207 -634l222 634h187l-337 -908h-144l-206 627l-207 -627h-143zM871 1327q49 0 83 -34t34 -82t-34 -82t-83 -34t-83 34.5t-34 83.5q0 45 35 80q34 34 82 34zM495 1327q49 0 83 -34t34 -82t-34 -82t-84 -34q-49 0 -82.5 34.5t-33.5 83.5
q0 45 35 80q34 34 82 34z" />
    <glyph glyph-name="uni1EA0" unicode="&#x1ea0;" horiz-adv-x="1281" 
d="M943 369h-608l-138 -369h-190l520 1365h227l520 -1365h-192zM638 1181l-240 -642h482zM641 -110q49 0 83 -34t34 -82t-34 -82t-83 -34t-83 34t-34 84q0 47 35 80q34 34 82 34z" />
    <glyph glyph-name="uni1EA1" unicode="&#x1ea1;" horiz-adv-x="1120" 
d="M998 908v-908h-175v99q-83 -67 -151 -97q-65 -28 -144 -28q-120 0 -226 61q-111 65 -173 173q-65 113 -65 247q0 219 158 360q134 119 306 119q78 0 144 -27q69 -31 151 -98v99h175zM533 775q-81 0 -150 -42q-142 -85 -142 -278q0 -161 100 -249q82 -73 194 -73
q130 0 212 91q79 86 79 235q0 157 -99 245q-80 71 -194 71zM556 -110q49 0 83 -34t34 -82t-34 -82t-84 -34q-48 0 -82 34t-34 84q0 47 35 80q34 34 82 34z" />
    <glyph glyph-name="uni1EA2" unicode="&#x1ea2;" horiz-adv-x="1281" 
d="M943 369h-608l-138 -369h-190l520 1365h227l520 -1365h-192zM638 1181l-240 -642h482zM515 1663l-50 128q85 33 157 33q103 0 154 -58q37 -40 37 -95q0 -50 -35 -105l-31 -49q-13 -19 -13 -45v-2v-7h-157q3 62 31 102l19 28q26 37 26 52q0 37 -48 37q-36 0 -90 -19z" />
    <glyph glyph-name="uni1EA3" unicode="&#x1ea3;" horiz-adv-x="1120" 
d="M998 908v-908h-175v99q-83 -67 -151 -97q-65 -28 -144 -28q-120 0 -226 61q-111 65 -173 173q-65 113 -65 247q0 219 158 360q134 119 306 119q78 0 144 -27q69 -31 151 -98v99h175zM533 775q-81 0 -150 -42q-142 -85 -142 -278q0 -161 100 -249q82 -73 194 -73
q130 0 212 91q79 86 79 235q0 157 -99 245q-80 71 -194 71zM420 1241l-50 128q87 33 157 33q103 0 154 -58q37 -40 37 -95q0 -52 -34 -105l-32 -49q-13 -19 -13 -45v-2l1 -7h-157q1 61 30 102l19 28q26 37 26 52q0 37 -48 37q-36 0 -90 -19z" />
    <glyph glyph-name="uni1EA4" unicode="&#x1ea4;" horiz-adv-x="1281" 
d="M1130 1837l-246 -246l72 -78l-129 -65l-186 179l-187 -179l-129 65l252 275h128l85 -94l171 234zM943 369h-608l-138 -369h-190l520 1365h227l520 -1365h-192zM638 1181l-240 -642h482z" />
    <glyph glyph-name="uni1EA5" unicode="&#x1ea5;" horiz-adv-x="1120" 
d="M717 1004l-186 179l-186 -179l-129 65l251 275h128l251 -275zM998 908v-908h-175v99q-83 -67 -151 -97q-65 -28 -144 -28q-120 0 -226 61q-111 65 -173 173q-65 113 -65 247q0 219 158 360q134 119 306 119q78 0 144 -27q69 -31 151 -98v99h175zM533 775q-81 0 -150 -42
q-142 -85 -142 -278q0 -161 100 -249q82 -73 194 -73q130 0 212 91q79 86 79 235q0 157 -99 245q-80 71 -194 71zM917 1616l169 -91l-276 -277l-114 65z" />
    <glyph glyph-name="uni1EA6" unicode="&#x1ea6;" horiz-adv-x="1281" 
d="M943 369h-608l-138 -369h-190l520 1365h227l520 -1365h-192zM638 1181l-240 -642h482zM827 1448l-186 179l-187 -179l-129 65l252 275h128l251 -275zM1010 1560l-276 278l169 91l220 -304z" />
    <glyph glyph-name="uni1EA7" unicode="&#x1ea7;" horiz-adv-x="1120" 
d="M998 908v-908h-175v99q-83 -67 -151 -97q-65 -28 -144 -28q-120 0 -226 61q-111 65 -173 173q-65 113 -65 247q0 219 158 360q134 119 306 119q78 0 144 -27q69 -31 151 -98v99h175zM533 775q-81 0 -150 -42q-142 -85 -142 -278q0 -161 100 -249q82 -73 194 -73
q130 0 212 91q79 86 79 235q0 157 -99 245q-80 71 -194 71zM717 1004l-186 179l-186 -179l-129 65l251 275h128l251 -275zM794 1248l-275 277l169 91l220 -303z" />
    <glyph glyph-name="uni1EA8" unicode="&#x1ea8;" horiz-adv-x="1281" 
d="M705 1788l181 -199q11 50 31 77l19 27q25 35 25 53q0 37 -48 37q-35 0 -89 -19l-51 128q87 33 157 33q103 0 155 -58q36 -40 36 -95q0 -53 -34 -105l-31 -49q-13 -19 -13 -45v-2v-7h-134l47 -51l-129 -64l-186 178l-187 -178l-129 64l252 275h128zM943 369h-608
l-138 -369h-190l520 1365h227l520 -1365h-192zM638 1181l-240 -642h482z" />
    <glyph glyph-name="uni1EA9" unicode="&#x1ea9;" horiz-adv-x="1120" 
d="M998 908v-908h-175v99q-83 -67 -151 -97q-65 -28 -144 -28q-120 0 -226 61q-111 65 -173 173q-65 113 -65 247q0 219 158 360q134 119 306 119q78 0 144 -27q69 -31 151 -98v99h175zM533 775q-81 0 -150 -42q-142 -85 -142 -278q0 -161 100 -249q82 -73 194 -73
q130 0 212 91q79 86 79 235q0 157 -99 245q-80 71 -194 71zM717 1004l-186 179l-186 -179l-129 65l251 275h128l251 -275zM653 1451l-50 128q85 33 157 33q103 0 154 -58q37 -40 37 -95q0 -52 -34 -105l-32 -49q-13 -19 -13 -45v-2l1 -7h-152h-6q1 60 31 102l19 28
q26 37 26 52q0 37 -48 37q-36 0 -90 -19z" />
    <glyph glyph-name="uni1EAA" unicode="&#x1eaa;" horiz-adv-x="1281" 
d="M943 369h-608l-138 -369h-190l520 1365h227l520 -1365h-192zM638 1181l-240 -642h482zM827 1403l-186 179l-187 -179l-129 64l252 276h128l251 -276zM790 2005l144 -34q-17 -197 -175 -197q-69 0 -145 40q-55 29 -82 29q-30 0 -44 -75l-140 33q7 78 43 129q47 68 133 68
q62 0 148 -44q47 -25 80 -25q32 0 38 76z" />
    <glyph glyph-name="uni1EAB" unicode="&#x1eab;" horiz-adv-x="1120" 
d="M998 908v-908h-175v99q-83 -67 -151 -97q-65 -28 -144 -28q-120 0 -226 61q-111 65 -173 173q-65 113 -65 247q0 219 158 360q134 119 306 119q78 0 144 -27q69 -31 151 -98v99h175zM533 775q-81 0 -150 -42q-142 -85 -142 -278q0 -161 100 -249q82 -73 194 -73
q130 0 212 91q79 86 79 235q0 157 -99 245q-80 71 -194 71zM680 1632l144 -33q-16 -198 -175 -198q-68 0 -144 40q-56 29 -83 29q-30 0 -44 -75l-140 33q7 78 43 129q47 68 133 68q62 0 148 -44q49 -25 80 -25q32 0 38 76zM717 1004l-186 179l-186 -179l-129 65l251 275h128
l251 -275z" />
    <glyph glyph-name="uni1EAC" unicode="&#x1eac;" horiz-adv-x="1281" 
d="M943 369h-608l-138 -369h-190l520 1365h227l520 -1365h-192zM638 1181l-240 -642h482zM827 1448l-186 179l-187 -179l-129 65l252 275h128l251 -275zM641 -110q49 0 83 -34t34 -82t-34 -82t-83 -34t-83 34t-34 84q0 47 35 80q34 34 82 34z" />
    <glyph glyph-name="uni1EAD" unicode="&#x1ead;" horiz-adv-x="1120" 
d="M998 908v-908h-175v99q-83 -67 -151 -97q-65 -28 -144 -28q-120 0 -226 61q-111 65 -173 173q-65 113 -65 247q0 219 158 360q134 119 306 119q78 0 144 -27q69 -31 151 -98v99h175zM533 775q-81 0 -150 -42q-142 -85 -142 -278q0 -161 100 -249q82 -73 194 -73
q130 0 212 91q79 86 79 235q0 157 -99 245q-80 71 -194 71zM547 -110q50 0 84 -33.5t34 -82.5q0 -48 -34 -82t-84 -34q-49 0 -82.5 34.5t-33.5 83.5q0 47 35 80q34 34 81 34zM717 1038l-186 179l-186 -179l-129 65l251 276h128l251 -276z" />
    <glyph glyph-name="uni1EAE" unicode="&#x1eae;" horiz-adv-x="1281" 
d="M943 369h-608l-138 -369h-190l520 1365h227l520 -1365h-192zM638 1181l-240 -642h482zM357 1702l151 13l1 -10q9 -148 128 -148q83 0 119 79q11 21 18 79l151 -13q-10 -105 -56 -173q-81 -122 -231 -122q-124 0 -201 80t-80 215zM742 2010l170 -91l-276 -277l-114 65z
" />
    <glyph glyph-name="uni1EAF" unicode="&#x1eaf;" horiz-adv-x="1120" 
d="M998 908v-908h-175v99q-83 -67 -151 -97q-65 -28 -144 -28q-120 0 -226 61q-111 65 -173 173q-65 113 -65 247q0 219 158 360q134 119 306 119q78 0 144 -27q69 -31 151 -98v99h175zM533 775q-81 0 -150 -42q-142 -85 -142 -278q0 -161 100 -249q82 -73 194 -73
q130 0 212 91q79 86 79 235q0 157 -99 245q-80 71 -194 71zM251 1302l151 13q3 -60 14 -84q35 -74 115 -74q83 0 119 79q10 21 17 79l151 -13q-10 -105 -56 -173q-80 -122 -230 -122q-125 0 -202 80q-76 79 -79 215zM647 1639l169 -91l-276 -277l-113 64z" />
    <glyph glyph-name="uni1EB0" unicode="&#x1eb0;" horiz-adv-x="1281" 
d="M943 369h-608l-138 -369h-190l520 1365h227l520 -1365h-192zM638 1181l-240 -642h482zM357 1702l151 13q5 -64 14 -84q35 -74 115 -74q114 0 137 158l151 -13q-10 -105 -56 -173q-81 -122 -231 -122q-124 0 -201 80t-80 215zM636 1642l-276 277l169 91l220 -303z" />
    <glyph glyph-name="uni1EB1" unicode="&#x1eb1;" horiz-adv-x="1120" 
d="M998 908v-908h-175v99q-83 -67 -151 -97q-65 -28 -144 -28q-120 0 -226 61q-111 65 -173 173q-65 113 -65 247q0 219 158 360q134 119 306 119q78 0 144 -27q69 -31 151 -98v99h175zM533 775q-81 0 -150 -42q-142 -85 -142 -278q0 -161 100 -249q82 -73 194 -73
q130 0 212 91q79 86 79 235q0 157 -99 245q-80 71 -194 71zM251 1302l151 13q3 -60 14 -84q35 -74 115 -74q83 0 119 79q10 21 17 79l151 -13q-10 -105 -56 -173q-80 -122 -230 -122q-125 0 -202 80q-76 79 -79 215zM522 1271l-276 277l169 91l221 -304z" />
    <glyph glyph-name="uni1EB2" unicode="&#x1eb2;" horiz-adv-x="1281" 
d="M943 369h-608l-138 -369h-190l520 1365h227l520 -1365h-192zM638 1181l-240 -642h482zM357 1706l151 13l1 -17q3 -51 21 -80q37 -61 108 -61q82 0 118 79q10 19 18 79l151 -13q-10 -105 -56 -173q-81 -122 -230 -122q-125 0 -202 81q-77 80 -80 214zM490 1859l-50 128
q87 33 157 33q102 0 154 -58q37 -40 37 -95q0 -50 -35 -105l-31 -49q-13 -19 -13 -45v-2v-7h-157q1 60 31 102l19 28q26 37 26 52q0 37 -48 37q-36 0 -90 -19z" />
    <glyph glyph-name="uni1EB3" unicode="&#x1eb3;" horiz-adv-x="1120" 
d="M998 908v-908h-175v99q-83 -67 -151 -97q-65 -28 -144 -28q-120 0 -226 61q-111 65 -173 173q-65 113 -65 247q0 219 158 360q134 119 306 119q78 0 144 -27q69 -31 151 -98v99h175zM533 775q-81 0 -150 -42q-142 -85 -142 -278q0 -161 100 -249q82 -73 194 -73
q130 0 212 91q79 86 79 235q0 157 -99 245q-80 71 -194 71zM251 1302l151 13q3 -60 14 -84q35 -74 115 -74q83 0 119 79q10 21 17 79l151 -13q-10 -105 -56 -173q-80 -122 -230 -122q-125 0 -202 80q-76 79 -79 215zM384 1497l-51 128q89 33 157 33q102 0 154 -58
q37 -40 37 -95q0 -53 -34 -105l-32 -49q-12 -19 -12 -45v-2v-7h-157q2 61 30 102l20 28q25 35 25 52q0 37 -48 37q-36 0 -89 -19z" />
    <glyph glyph-name="uni1EB4" unicode="&#x1eb4;" horiz-adv-x="1281" 
d="M943 369h-608l-138 -369h-190l520 1365h227l520 -1365h-192zM638 1181l-240 -642h482zM790 2005l144 -34q-17 -197 -175 -197q-69 0 -145 40q-55 29 -82 29q-30 0 -44 -75l-140 33q7 78 43 129q47 68 133 68q62 0 148 -44q47 -25 80 -25q32 0 38 76zM357 1706l151 13
q3 -60 14 -84q35 -74 115 -74q82 0 119 79q10 21 17 79l151 -13q-10 -105 -56 -173q-80 -122 -230 -122q-126 0 -202 81q-78 81 -79 214z" />
    <glyph glyph-name="uni1EB5" unicode="&#x1eb5;" horiz-adv-x="1120" 
d="M998 908v-908h-175v99q-83 -67 -151 -97q-65 -28 -144 -28q-120 0 -226 61q-111 65 -173 173q-65 113 -65 247q0 219 158 360q134 119 306 119q78 0 144 -27q69 -31 151 -98v99h175zM533 775q-81 0 -150 -42q-142 -85 -142 -278q0 -161 100 -249q82 -73 194 -73
q130 0 212 91q79 86 79 235q0 157 -99 245q-80 71 -194 71zM681 1632l143 -33q-16 -198 -175 -198q-68 0 -144 40q-55 29 -83 29q-31 0 -43 -75l-141 33q9 80 43 129q48 68 133 68q61 0 149 -44q47 -25 79 -25t39 76zM249 1308l151 12q3 -59 14 -83q36 -74 115 -74
q83 0 119 79q10 22 18 78l151 -12q-11 -106 -57 -173q-80 -122 -230 -122q-125 0 -202 80q-76 79 -79 215z" />
    <glyph glyph-name="uni1EB6" unicode="&#x1eb6;" horiz-adv-x="1281" 
d="M943 369h-608l-138 -369h-190l520 1365h227l520 -1365h-192zM638 1181l-240 -642h482zM641 -110q49 0 83 -34t34 -82t-34 -82t-83 -34t-83 34t-34 84q0 47 35 80q34 34 82 34zM357 1746l151 12v-14q3 -52 20 -81q38 -62 109 -62q82 0 119 79q10 21 17 78l151 -12
q-10 -105 -56 -173q-80 -122 -230 -122q-126 0 -202 81q-78 81 -79 214z" />
    <glyph glyph-name="uni1EB7" unicode="&#x1eb7;" horiz-adv-x="1120" 
d="M998 908v-908h-175v99q-83 -67 -151 -97q-65 -28 -144 -28q-120 0 -226 61q-111 65 -173 173q-65 113 -65 247q0 219 158 360q134 119 306 119q78 0 144 -27q69 -31 151 -98v99h175zM533 775q-81 0 -150 -42q-142 -85 -142 -278q0 -161 100 -249q82 -73 194 -73
q130 0 212 91q79 86 79 235q0 157 -99 245q-80 71 -194 71zM547 -110q50 0 84 -33.5t34 -82.5q0 -48 -34 -82t-84 -34q-49 0 -82.5 34.5t-33.5 83.5q0 47 35 80q34 34 81 34zM247 1336l151 13q3 -60 14 -84q36 -74 115 -74q83 0 119 79q11 23 18 79l151 -13
q-11 -105 -57 -174q-79 -121 -230 -121q-125 0 -202 80q-76 79 -79 215z" />
    <glyph glyph-name="uni1EB8" unicode="&#x1eb8;" horiz-adv-x="979" 
d="M880 1365v-168h-540v-420h479v-170h-479v-437h560v-170h-743v1365h723zM556 -110q49 0 83 -34t34 -82t-34 -82t-84 -34q-48 0 -82 34t-34 84q0 45 35 80q34 34 82 34z" />
    <glyph glyph-name="uni1EB9" unicode="&#x1eb9;" horiz-adv-x="1014" 
d="M949 384h-705q13 -82 57 -142q78 -109 222 -109q77 0 144 35t102 94q12 20 15 24l153 -64q-147 -248 -413 -248q-208 0 -339 150q-121 137 -121 331q0 222 155 365q125 114 292 114q190 0 318 -143q121 -136 121 -353q0 -23 -1 -54zM244 525h531q-16 94 -66 157
q-74 95 -197 95q-104 0 -175 -67t-93 -185zM522 -110q49 0 83 -34t34 -82t-34 -82t-83 -34t-83 34t-34 84q0 47 35 80q34 34 82 34z" />
    <glyph glyph-name="uni1EBA" unicode="&#x1eba;" horiz-adv-x="979" 
d="M880 1365v-168h-540v-420h479v-170h-479v-437h560v-170h-743v1365h723zM405 1663l-51 128q85 33 157 33q85 0 138 -42.5t53 -109.5q0 -54 -34 -106l-31 -49q-13 -19 -13 -45v-2v-7h-157q1 60 31 102l19 28q25 34 25 52q0 37 -48 37q-35 0 -89 -19z" />
    <glyph glyph-name="uni1EBB" unicode="&#x1ebb;" horiz-adv-x="1014" 
d="M949 384h-705q13 -82 57 -142q78 -109 222 -109q77 0 144 35t102 94q12 20 15 24l153 -64q-147 -248 -413 -248q-208 0 -339 150q-121 137 -121 331q0 222 155 365q125 114 292 114q190 0 318 -143q121 -136 121 -353q0 -23 -1 -54zM244 525h531q-16 94 -66 157
q-74 95 -197 95q-104 0 -175 -67t-93 -185zM396 1241l-50 128q87 33 157 33q103 0 154 -58q37 -40 37 -95q0 -53 -34 -105l-32 -49q-12 -19 -12 -45v-2v-7h-157q1 61 30 102l20 28q25 35 25 52q0 37 -48 37q-34 0 -90 -19z" />
    <glyph glyph-name="uni1EBC" unicode="&#x1ebc;" horiz-adv-x="979" 
d="M880 1365v-168h-540v-420h479v-170h-479v-437h560v-170h-743v1365h723zM637 1738l143 -33q-16 -198 -174 -198q-68 0 -145 41q-55 29 -83 29q-31 0 -43 -76l-141 33q9 80 44 130q47 68 132 68q62 0 149 -45q47 -25 80 -25q31 0 38 76z" />
    <glyph glyph-name="uni1EBD" unicode="&#x1ebd;" horiz-adv-x="1014" 
d="M949 384h-705q13 -82 57 -142q78 -109 222 -109q77 0 144 35t102 94q12 20 15 24l153 -64q-147 -248 -413 -248q-208 0 -339 150q-121 137 -121 331q0 222 155 365q125 114 292 114q190 0 318 -143q121 -136 121 -353q0 -23 -1 -54zM244 525h531q-16 94 -66 157
q-74 95 -197 95q-104 0 -175 -67t-93 -185zM657 1328l143 -33q-16 -198 -174 -198q-68 0 -145 41q-55 29 -83 29q-31 0 -43 -76l-141 33q9 82 43 130q48 68 133 68q62 0 149 -45q47 -25 79 -25t39 76z" />
    <glyph glyph-name="uni1EBE" unicode="&#x1ebe;" horiz-adv-x="979" 
d="M994 1837l-245 -246l71 -78l-129 -65l-186 179l-186 -179l-129 65l251 275h128l86 -94l170 234zM880 1365v-168h-540v-420h479v-170h-479v-437h560v-170h-743v1365h723z" />
    <glyph glyph-name="uni1EBF" unicode="&#x1ebf;" horiz-adv-x="1014" 
d="M949 384h-705q13 -82 57 -142q78 -109 222 -109q77 0 144 35t102 94q12 20 15 24l153 -64q-147 -248 -413 -248q-208 0 -339 150q-121 137 -121 331q0 222 155 365q125 114 292 114q190 0 318 -143q121 -136 121 -353q0 -23 -1 -54zM244 525h531q-16 94 -66 157
q-74 95 -197 95q-104 0 -175 -67t-93 -185zM896 1616l169 -91l-275 -277l-114 65zM697 1004l-186 179l-186 -179l-129 65l251 275h128l251 -275z" />
    <glyph glyph-name="uni1EC0" unicode="&#x1ec0;" horiz-adv-x="979" 
d="M880 1365v-168h-540v-420h479v-170h-479v-437h560v-170h-743v1365h723zM874 1560l-276 278l169 91l220 -304zM691 1448l-186 179l-186 -179l-129 65l251 275h128l251 -275z" />
    <glyph glyph-name="uni1EC1" unicode="&#x1ec1;" horiz-adv-x="1014" 
d="M949 384h-705q13 -82 57 -142q78 -109 222 -109q77 0 144 35t102 94q12 20 15 24l153 -64q-147 -248 -413 -248q-208 0 -339 150q-121 137 -121 331q0 222 155 365q125 114 292 114q190 0 318 -143q121 -136 121 -353q0 -23 -1 -54zM244 525h531q-16 94 -66 157
q-74 95 -197 95q-104 0 -175 -67t-93 -185zM774 1248l-276 277l169 91l221 -303zM697 1004l-186 179l-186 -179l-129 65l251 275h128l251 -275z" />
    <glyph glyph-name="uni1EC2" unicode="&#x1ec2;" horiz-adv-x="979" 
d="M569 1788l182 -198q9 46 30 76l19 27q26 38 26 53q0 37 -48 37q-36 0 -90 -19l-50 128q86 33 157 33q103 0 154 -58q37 -40 37 -95q0 -53 -34 -105l-32 -49q-12 -20 -12 -45v-2v-7h-134l46 -51l-129 -64l-186 178l-186 -178l-129 64l251 275h128zM880 1365v-168h-540
v-420h479v-170h-479v-437h560v-170h-743v1365h723z" />
    <glyph glyph-name="uni1EC3" unicode="&#x1ec3;" horiz-adv-x="1014" 
d="M949 384h-705q13 -82 57 -142q78 -109 222 -109q77 0 144 35t102 94q12 20 15 24l153 -64q-147 -248 -413 -248q-208 0 -339 150q-121 137 -121 331q0 222 155 365q125 114 292 114q190 0 318 -143q121 -136 121 -353q0 -23 -1 -54zM244 525h531q-16 94 -66 157
q-74 95 -197 95q-104 0 -175 -67t-93 -185zM697 1004l-186 179l-186 -179l-129 65l251 275h128l251 -275zM633 1451l-51 128q87 33 157 33q85 0 138 -42.5t53 -109.5q0 -54 -34 -106l-31 -49q-13 -19 -13 -45v-2v-7h-152h-6q3 61 32 102l19 28q25 34 25 52q0 37 -48 37
q-35 0 -89 -19z" />
    <glyph glyph-name="uni1EC4" unicode="&#x1ec4;" horiz-adv-x="979" 
d="M880 1365v-168h-540v-420h479v-170h-479v-437h560v-170h-743v1365h723zM691 1403l-186 179l-186 -179l-129 64l251 276h128l251 -276zM655 2005l143 -34q-17 -197 -174 -197q-69 0 -145 40q-55 29 -83 29q-31 0 -43 -75l-141 33q7 78 43 129q48 68 133 68q61 0 149 -44
q47 -25 79 -25t39 76z" />
    <glyph glyph-name="uni1EC5" unicode="&#x1ec5;" horiz-adv-x="1014" 
d="M949 384h-705q13 -82 57 -142q78 -109 222 -109q77 0 144 35t102 94q12 20 15 24l153 -64q-147 -248 -413 -248q-208 0 -339 150q-121 137 -121 331q0 222 155 365q125 114 292 114q190 0 318 -143q121 -136 121 -353q0 -23 -1 -54zM244 525h531q-16 94 -66 157
q-74 95 -197 95q-104 0 -175 -67t-93 -185zM660 1632l144 -33q-16 -198 -175 -198q-68 0 -144 40q-56 29 -83 29q-31 0 -43 -75l-141 33q7 78 43 129q47 68 133 68q61 0 149 -44q47 -25 79 -25t38 76zM697 1004l-186 179l-186 -179l-129 65l251 275h128l251 -275z" />
    <glyph glyph-name="uni1EC6" unicode="&#x1ec6;" horiz-adv-x="979" 
d="M880 1365v-168h-540v-420h479v-170h-479v-437h560v-170h-743v1365h723zM556 -110q49 0 83 -34t34 -82t-34 -82t-84 -34q-48 0 -82 34t-34 84q0 45 35 80q34 34 82 34zM715 1448l-186 179l-186 -179l-129 65l251 275h128l251 -275z" />
    <glyph glyph-name="uni1EC7" unicode="&#x1ec7;" horiz-adv-x="1014" 
d="M949 384h-705q13 -82 57 -142q78 -109 222 -109q77 0 144 35t102 94q12 20 15 24l153 -64q-147 -248 -413 -248q-208 0 -339 150q-121 137 -121 331q0 222 155 365q125 114 292 114q190 0 318 -143q121 -136 121 -353q0 -23 -1 -54zM244 525h531q-16 94 -66 157
q-74 95 -197 95q-104 0 -175 -67t-93 -185zM521 -110q49 0 83 -34t34 -82t-34 -82t-84 -34q-48 0 -82 34t-34 84q0 45 35 80q34 34 82 34zM700 1038l-186 179l-186 -179l-129 65l251 276h128l251 -276z" />
    <glyph glyph-name="uni1EC8" unicode="&#x1ec8;" horiz-adv-x="497" 
d="M157 1365h183v-1365h-183v1365zM122 1663l-51 128q86 33 157 33q103 0 154 -58q37 -40 37 -95q0 -53 -34 -105l-32 -49q-12 -19 -12 -45v-2v-7h-157q2 61 30 102l20 28q25 35 25 52q0 37 -48 37q-35 0 -89 -19z" />
    <glyph glyph-name="uni1EC9" unicode="&#x1ec9;" horiz-adv-x="423" 
d="M124 908h175v-908h-175v908zM83 1241l-51 128q87 33 157 33q103 0 154 -58q37 -40 37 -95q0 -53 -34 -105l-32 -49q-12 -19 -12 -45v-2v-7h-157q1 61 30 102l20 28q25 35 25 52q0 37 -48 37q-35 0 -89 -19z" />
    <glyph glyph-name="uni1ECA" unicode="&#x1eca;" horiz-adv-x="497" 
d="M157 1365h183v-1365h-183v1365zM248 -110q49 0 83 -34t34 -82t-34 -82t-84 -34q-48 0 -82 34t-34 84q0 45 35 80q34 34 82 34z" />
    <glyph glyph-name="uni1ECB" unicode="&#x1ecb;" horiz-adv-x="423" 
d="M124 908h175v-908h-175v908zM211 1329q50 0 84.5 -34.5t34.5 -83.5q0 -48 -34 -82q-35 -35 -84 -35q-50 0 -84.5 34.5t-34.5 84.5q0 47 35 82q34 34 83 34zM211 -110q49 0 83 -34t34 -82t-34 -82t-83 -34t-83 34t-34 84q0 45 35 80q34 34 82 34z" />
    <glyph glyph-name="uni1ECC" unicode="&#x1ecc;" horiz-adv-x="1563" 
d="M781 1391q309 0 520 -235q183 -202 183 -474q0 -189 -96 -355q-95 -165 -260 -259q-163 -94 -344 -94q-267 0 -469 181q-236 212 -236 536q0 185 95 345q102 170 261 261q163 94 346 94zM778 1219q-222 0 -376 -172q-138 -155 -138 -374q0 -175 105 -314
q82 -111 205 -167q99 -46 207 -46q132 0 252 69q123 71 194 194q72 125 72 272q0 244 -176 405q-145 133 -345 133zM781 -110q50 0 84 -34t34 -82t-34 -82t-84 -34q-49 0 -82.5 34.5t-33.5 83.5q0 47 35 80q34 34 81 34z" />
    <glyph glyph-name="uni1ECD" unicode="&#x1ecd;" horiz-adv-x="1074" 
d="M544 934q203 0 342 -154q123 -136 123 -325q0 -219 -158 -362q-131 -119 -314 -119q-212 0 -350 153q-123 136 -123 331q0 215 158 358q130 118 322 118zM534 775q-82 0 -151 -42q-142 -85 -142 -278q0 -161 100 -249q82 -73 196 -73q131 0 216 93q79 85 79 231
q0 157 -99 245q-82 73 -199 73zM537 -110q49 0 83 -34t34 -82t-34 -82t-84 -34q-48 0 -82 34t-34 84q0 45 35 80q34 34 82 34z" />
    <glyph glyph-name="uni1ECE" unicode="&#x1ece;" horiz-adv-x="1563" 
d="M781 1391q309 0 520 -235q183 -202 183 -474q0 -189 -96 -355q-95 -165 -260 -259q-163 -94 -344 -94q-267 0 -469 181q-236 212 -236 536q0 185 95 345q102 170 261 261q163 94 346 94zM778 1219q-222 0 -376 -172q-138 -155 -138 -374q0 -175 105 -314
q82 -111 205 -167q99 -46 207 -46q132 0 252 69q123 71 194 194q72 125 72 272q0 244 -176 405q-145 133 -345 133zM658 1663l-50 128q86 33 156 33q103 0 155 -58q36 -41 36 -95q0 -53 -34 -105l-31 -49q-13 -19 -13 -45v-2v-7h-157q1 60 31 102l19 28q25 34 25 52
q0 37 -48 37q-35 0 -89 -19z" />
    <glyph glyph-name="uni1ECF" unicode="&#x1ecf;" horiz-adv-x="1074" 
d="M544 934q203 0 342 -154q123 -136 123 -325q0 -219 -158 -362q-131 -119 -314 -119q-212 0 -350 153q-123 136 -123 331q0 215 158 358q130 118 322 118zM534 775q-82 0 -151 -42q-142 -85 -142 -278q0 -161 100 -249q82 -73 196 -73q131 0 216 93q79 85 79 231
q0 157 -99 245q-82 73 -199 73zM413 1241l-50 128q86 33 157 33q102 0 154 -58q37 -40 37 -95q0 -52 -34 -105l-32 -49q-13 -19 -13 -45v-2l1 -7h-157q2 61 30 102l19 28q26 37 26 52q0 37 -48 37q-36 0 -90 -19z" />
    <glyph glyph-name="uni1ED0" unicode="&#x1ed0;" horiz-adv-x="1563" 
d="M1271 1837l-246 -246l71 -78l-129 -65l-186 176l-186 -176l-129 65l252 275h127l86 -94l171 234zM781 1391q309 0 520 -235q183 -202 183 -474q0 -189 -96 -355q-95 -165 -260 -259q-163 -94 -344 -94q-267 0 -469 181q-236 212 -236 536q0 185 95 345q102 170 261 261
q163 94 346 94zM778 1219q-222 0 -376 -172q-138 -155 -138 -374q0 -175 105 -314q82 -111 205 -167q99 -46 207 -46q132 0 252 69q123 71 194 194q72 125 72 272q0 244 -176 405q-145 133 -345 133z" />
    <glyph glyph-name="uni1ED1" unicode="&#x1ed1;" horiz-adv-x="1074" 
d="M544 934q203 0 342 -154q123 -136 123 -325q0 -219 -158 -362q-131 -119 -314 -119q-212 0 -350 153q-123 136 -123 331q0 215 158 358q130 118 322 118zM534 775q-82 0 -151 -42q-142 -85 -142 -278q0 -161 100 -249q82 -73 196 -73q131 0 216 93q79 85 79 231
q0 157 -99 245q-82 73 -199 73zM723 1004l-186 179l-186 -179l-129 65l251 275h128l251 -275zM922 1616l169 -91l-276 -277l-113 65z" />
    <glyph glyph-name="uni1ED2" unicode="&#x1ed2;" horiz-adv-x="1563" 
d="M781 1391q309 0 520 -235q183 -202 183 -474q0 -189 -96 -355q-95 -165 -260 -259q-163 -94 -344 -94q-267 0 -469 181q-236 212 -236 536q0 185 95 345q102 170 261 261q163 94 346 94zM778 1219q-222 0 -376 -172q-138 -155 -138 -374q0 -175 105 -314
q82 -111 205 -167q99 -46 207 -46q132 0 252 69q123 71 194 194q72 125 72 272q0 244 -176 405q-145 133 -345 133zM967 1448l-186 179l-186 -179l-129 65l252 275h127l251 -275zM1150 1560l-275 278l169 91l220 -304z" />
    <glyph glyph-name="uni1ED3" unicode="&#x1ed3;" horiz-adv-x="1074" 
d="M544 934q203 0 342 -154q123 -136 123 -325q0 -219 -158 -362q-131 -119 -314 -119q-212 0 -350 153q-123 136 -123 331q0 215 158 358q130 118 322 118zM534 775q-82 0 -151 -42q-142 -85 -142 -278q0 -161 100 -249q82 -73 196 -73q131 0 216 93q79 85 79 231
q0 157 -99 245q-82 73 -199 73zM723 1004l-186 179l-186 -179l-129 65l251 275h128l251 -275zM800 1248l-276 277l169 91l220 -303z" />
    <glyph glyph-name="uni1ED4" unicode="&#x1ed4;" horiz-adv-x="1563" 
d="M845 1788l182 -198q10 46 30 76l20 27q25 35 25 53q0 37 -48 37q-35 0 -89 -19l-51 128q85 33 157 33q103 0 155 -58q36 -40 36 -95q0 -53 -34 -105l-31 -49q-13 -19 -13 -45v-2v-7h-134l46 -51l-129 -64l-186 178l-186 -178l-129 64l252 275h127zM781 1391
q309 0 520 -235q183 -202 183 -474q0 -189 -96 -355q-95 -165 -260 -259q-163 -94 -344 -94q-267 0 -469 181q-236 212 -236 536q0 185 95 345q102 170 261 261q163 94 346 94zM778 1219q-222 0 -376 -172q-138 -155 -138 -374q0 -175 105 -314q82 -111 205 -167
q99 -46 207 -46q132 0 252 69q123 71 194 194q72 125 72 272q0 244 -176 405q-145 133 -345 133z" />
    <glyph glyph-name="uni1ED5" unicode="&#x1ed5;" horiz-adv-x="1074" 
d="M544 934q203 0 342 -154q123 -136 123 -325q0 -219 -158 -362q-131 -119 -314 -119q-212 0 -350 153q-123 136 -123 331q0 215 158 358q130 118 322 118zM534 775q-82 0 -151 -42q-142 -85 -142 -278q0 -161 100 -249q82 -73 196 -73q131 0 216 93q79 85 79 231
q0 157 -99 245q-82 73 -199 73zM723 1004l-186 179l-186 -179l-129 65l251 275h128l251 -275zM659 1451l-51 128q87 33 157 33q85 0 138 -42.5t53 -109.5q0 -54 -34 -106l-32 -49q-12 -19 -12 -45v-2v-7h-152h-6q3 62 31 102l20 28q25 35 25 52q0 37 -48 37q-35 0 -89 -19z
" />
    <glyph glyph-name="uni1ED6" unicode="&#x1ed6;" horiz-adv-x="1563" 
d="M781 1391q309 0 520 -235q183 -202 183 -474q0 -189 -96 -355q-95 -165 -260 -259q-163 -94 -344 -94q-267 0 -469 181q-236 212 -236 536q0 185 95 345q102 170 261 261q163 94 346 94zM778 1219q-222 0 -376 -172q-138 -155 -138 -374q0 -175 105 -314
q82 -111 205 -167q99 -46 207 -46q132 0 252 69q123 71 194 194q72 125 72 272q0 244 -176 405q-145 133 -345 133zM967 1403l-186 179l-186 -179l-129 64l252 276h127l251 -276zM931 2005l143 -34q-17 -197 -174 -197q-69 0 -145 40q-55 29 -82 29q-31 0 -44 -75l-141 33
q9 79 44 129q47 68 132 68q63 0 149 -44q47 -25 80 -25q32 0 38 76z" />
    <glyph glyph-name="uni1ED7" unicode="&#x1ed7;" horiz-adv-x="1074" 
d="M544 934q203 0 342 -154q123 -136 123 -325q0 -219 -158 -362q-131 -119 -314 -119q-212 0 -350 153q-123 136 -123 331q0 215 158 358q130 118 322 118zM534 775q-82 0 -151 -42q-142 -85 -142 -278q0 -161 100 -249q82 -73 196 -73q131 0 216 93q79 85 79 231
q0 157 -99 245q-82 73 -199 73zM686 1632l144 -33q-16 -198 -175 -198q-69 0 -145 40q-55 29 -82 29q-31 0 -44 -75l-141 33q9 79 44 129q47 68 133 68q62 0 148 -44q47 -25 80 -25q32 0 38 76zM723 1004l-186 179l-186 -179l-129 65l251 275h128l251 -275z" />
    <glyph glyph-name="uni1ED8" unicode="&#x1ed8;" horiz-adv-x="1563" 
d="M781 1391q309 0 520 -235q183 -202 183 -474q0 -189 -96 -355q-95 -165 -260 -259q-163 -94 -344 -94q-267 0 -469 181q-236 212 -236 536q0 185 95 345q102 170 261 261q163 94 346 94zM778 1219q-222 0 -376 -172q-138 -155 -138 -374q0 -175 105 -314
q82 -111 205 -167q99 -46 207 -46q132 0 252 69q123 71 194 194q72 125 72 272q0 244 -176 405q-145 133 -345 133zM967 1448l-186 179l-186 -179l-129 65l252 275h127l251 -275zM781 -110q49 0 83 -34t34 -82t-34 -82t-84 -34q-49 0 -82.5 34.5t-33.5 83.5q0 47 35 80
q34 34 82 34z" />
    <glyph glyph-name="uni1ED9" unicode="&#x1ed9;" horiz-adv-x="1074" 
d="M544 934q203 0 342 -154q123 -136 123 -325q0 -219 -158 -362q-131 -119 -314 -119q-212 0 -350 153q-123 136 -123 331q0 215 158 358q130 118 322 118zM534 775q-82 0 -151 -42q-142 -85 -142 -278q0 -161 100 -249q82 -73 196 -73q131 0 216 93q79 85 79 231
q0 157 -99 245q-82 73 -199 73zM537 -110q49 0 83 -34t34 -82t-34 -82t-84 -34q-48 0 -82 34t-34 84q0 45 35 80q34 34 82 34zM723 1038l-186 179l-186 -179l-129 65l251 276h128l251 -276z" />
    <glyph glyph-name="uni1EDA" unicode="&#x1eda;" horiz-adv-x="1570" 
d="M1278 1180q98 47 98 131q0 83 -98 163l128 64q126 -92 126 -226q0 -155 -158 -254q110 -173 110 -376q0 -189 -96 -355q-95 -165 -260 -259q-163 -94 -347 -94q-183 0 -346 94q-165 94 -260 259q-96 165 -96 355q0 188 95 354q96 166 261 261q163 94 347 94
q286 0 496 -211zM778 1219q-222 0 -376 -172q-138 -155 -138 -374q0 -174 105 -315q81 -109 205 -166q99 -46 207 -46q132 0 252 69q123 71 194 194q72 125 72 273q0 243 -176 404q-145 133 -345 133zM890 1816l169 -91l-275 -277l-114 65z" />
    <glyph glyph-name="uni1EDB" unicode="&#x1edb;" horiz-adv-x="1151" 
d="M984 613q25 -76 25 -158q0 -221 -158 -362q-133 -119 -314 -119q-212 0 -350 154q-123 136 -123 326q0 219 158 362q131 118 316 118q231 0 375 -186q54 42 54 106q0 83 -97 162l127 64q126 -91 126 -226q0 -144 -139 -241zM534 775q-82 0 -151 -42q-142 -85 -142 -278
q0 -161 100 -249q82 -73 196 -73q131 0 216 93q79 85 79 231q0 157 -99 245q-82 73 -199 73zM616 1406l170 -91l-276 -277l-114 65z" />
    <glyph glyph-name="uni1EDC" unicode="&#x1edc;" horiz-adv-x="1570" 
d="M1278 1180q98 47 98 131q0 83 -98 163l128 64q126 -92 126 -226q0 -155 -158 -254q110 -173 110 -376q0 -189 -96 -355q-95 -165 -260 -259q-163 -94 -347 -94q-183 0 -346 94q-165 94 -260 259q-96 165 -96 355q0 188 95 354q96 166 261 261q163 94 347 94
q286 0 496 -211zM778 1219q-222 0 -376 -172q-138 -155 -138 -374q0 -174 105 -315q81 -109 205 -166q99 -46 207 -46q132 0 252 69q123 71 194 194q72 125 72 273q0 243 -176 404q-145 133 -345 133zM779 1448l-276 277l169 91l221 -303z" />
    <glyph glyph-name="uni1EDD" unicode="&#x1edd;" horiz-adv-x="1151" 
d="M984 613q25 -76 25 -158q0 -221 -158 -362q-133 -119 -314 -119q-212 0 -350 154q-123 136 -123 326q0 219 158 362q131 118 316 118q231 0 375 -186q54 42 54 106q0 83 -97 162l127 64q126 -91 126 -226q0 -144 -139 -241zM534 775q-82 0 -151 -42q-142 -85 -142 -278
q0 -161 100 -249q82 -73 196 -73q131 0 216 93q79 85 79 231q0 157 -99 245q-82 73 -199 73zM534 1038l-275 277l169 91l220 -303z" />
    <glyph glyph-name="uni1EDE" unicode="&#x1ede;" horiz-adv-x="1570" 
d="M1278 1180q98 47 98 131q0 83 -98 163l128 64q126 -92 126 -226q0 -155 -158 -254q110 -173 110 -376q0 -189 -96 -355q-95 -165 -260 -259q-163 -94 -347 -94q-183 0 -346 94q-165 94 -260 259q-96 165 -96 355q0 188 95 354q96 166 261 261q163 94 347 94
q286 0 496 -211zM778 1219q-222 0 -376 -172q-138 -155 -138 -374q0 -174 105 -315q81 -109 205 -166q99 -46 207 -46q132 0 252 69q123 71 194 194q72 125 72 273q0 243 -176 404q-145 133 -345 133zM675 1663l-51 128q86 33 157 33q103 0 155 -58q36 -41 36 -95
q0 -53 -34 -105l-32 -49q-12 -19 -12 -45v-2v-7h-157q1 61 30 102l20 28q25 35 25 52q0 37 -48 37q-35 0 -89 -19z" />
    <glyph glyph-name="uni1EDF" unicode="&#x1edf;" horiz-adv-x="1151" 
d="M984 613q25 -76 25 -158q0 -221 -158 -362q-133 -119 -314 -119q-212 0 -350 154q-123 136 -123 326q0 219 158 362q131 118 316 118q231 0 375 -186q54 42 54 106q0 83 -97 162l127 64q126 -91 126 -226q0 -144 -139 -241zM534 775q-82 0 -151 -42q-142 -85 -142 -278
q0 -161 100 -249q82 -73 196 -73q131 0 216 93q79 85 79 231q0 157 -99 245q-82 73 -199 73zM427 1241l-51 128q87 33 157 33q103 0 154 -58q37 -40 37 -95q0 -53 -34 -105l-32 -49q-12 -19 -12 -45v-2v-7h-157q1 61 30 102l20 28q25 35 25 52q0 37 -48 37q-35 0 -89 -19z
" />
    <glyph glyph-name="uni1EE0" unicode="&#x1ee0;" horiz-adv-x="1570" 
d="M1278 1180q98 47 98 131q0 83 -98 163l128 64q126 -92 126 -226q0 -155 -158 -254q110 -173 110 -376q0 -189 -96 -355q-95 -165 -260 -259q-163 -94 -347 -94q-183 0 -346 94q-165 94 -260 259q-96 165 -96 355q0 188 95 354q96 166 261 261q163 94 347 94
q286 0 496 -211zM778 1219q-222 0 -376 -172q-138 -155 -138 -374q0 -174 105 -315q81 -109 205 -166q99 -46 207 -46q132 0 252 69q123 71 194 194q72 125 72 273q0 243 -176 404q-145 133 -345 133zM931 1738l143 -33q-16 -198 -175 -198q-67 0 -144 41q-55 29 -83 29
q-31 0 -43 -76l-141 33q7 79 43 130q48 68 133 68q62 0 149 -45q47 -25 79 -25t39 76z" />
    <glyph glyph-name="uni1EE1" unicode="&#x1ee1;" horiz-adv-x="1151" 
d="M984 613q25 -76 25 -158q0 -221 -158 -362q-133 -119 -314 -119q-212 0 -350 154q-123 136 -123 326q0 219 158 362q131 118 316 118q231 0 375 -186q54 42 54 106q0 83 -97 162l127 64q126 -91 126 -226q0 -144 -139 -241zM534 775q-82 0 -151 -42q-142 -85 -142 -278
q0 -161 100 -249q82 -73 196 -73q131 0 216 93q79 85 79 231q0 157 -99 245q-82 73 -199 73zM686 1328l144 -33q-16 -198 -175 -198q-68 0 -145 41q-55 29 -82 29q-32 0 -44 -76l-141 33q9 80 44 130q47 68 133 68q62 0 148 -45q47 -25 80 -25q32 0 38 76z" />
    <glyph glyph-name="uni1EE2" unicode="&#x1ee2;" horiz-adv-x="1570" 
d="M1278 1180q98 47 98 131q0 83 -98 163l128 64q126 -92 126 -226q0 -155 -158 -254q110 -173 110 -376q0 -189 -96 -355q-95 -165 -260 -259q-163 -94 -347 -94q-183 0 -346 94q-165 94 -260 259q-96 165 -96 355q0 188 95 354q96 166 261 261q163 94 347 94
q286 0 496 -211zM778 1219q-222 0 -376 -172q-138 -155 -138 -374q0 -174 105 -315q81 -109 205 -166q99 -46 207 -46q132 0 252 69q123 71 194 194q72 125 72 273q0 243 -176 404q-145 133 -345 133zM781 -110q50 0 84 -33.5t34 -82.5q0 -48 -34 -82t-83 -34t-83 34t-34 84
q0 47 35 80q34 34 81 34z" />
    <glyph glyph-name="uni1EE3" unicode="&#x1ee3;" horiz-adv-x="1151" 
d="M984 613q25 -76 25 -158q0 -221 -158 -362q-133 -119 -314 -119q-212 0 -350 154q-123 136 -123 326q0 219 158 362q131 118 316 118q231 0 375 -186q54 42 54 106q0 83 -97 162l127 64q126 -91 126 -226q0 -144 -139 -241zM534 775q-82 0 -151 -42q-142 -85 -142 -278
q0 -161 100 -249q82 -73 196 -73q131 0 216 93q79 85 79 231q0 157 -99 245q-82 73 -199 73zM537 -110q49 0 83 -34t34 -82t-34 -82t-84 -34q-48 0 -82 34t-34 84q0 47 35 80q34 34 82 34z" />
    <glyph glyph-name="uni1EE4" unicode="&#x1ee4;" horiz-adv-x="1304" 
d="M157 481v884h183v-844q0 -97 9 -146q8 -52 30 -89q31 -56 99 -93q82 -47 174 -47q124 0 219 78q54 46 74 106q19 58 19 191v844h183v-884q0 -170 -59 -271q-58 -102 -168 -165q-125 -71 -268 -71q-200 0 -346 126q-80 70 -114 159q-35 88 -35 222zM652 -110q50 0 84 -34
t34 -82t-34 -82t-83 -34t-83 34t-34 84q0 47 35 80q34 34 81 34z" />
    <glyph glyph-name="uni1EE5" unicode="&#x1ee5;" horiz-adv-x="1043" 
d="M921 908v-908h-175v84q-101 -110 -252 -110q-146 0 -250 92q-65 57 -93.5 139t-28.5 213v490h175v-474q0 -140 36 -205q49 -91 179 -91q64 0 118 27.5t79 72.5q37 65 37 216v454h175zM506 -110q49 0 83 -34t34 -82t-34 -82t-83 -34t-83 34t-34 84q0 47 35 80q34 34 82 34
z" />
    <glyph glyph-name="uni1EE6" unicode="&#x1ee6;" horiz-adv-x="1304" 
d="M157 481v884h183v-844q0 -97 9 -146q8 -52 30 -89q31 -56 99 -93q82 -47 174 -47q124 0 219 78q54 46 74 106q19 58 19 191v844h183v-884q0 -170 -59 -271q-58 -102 -168 -165q-125 -71 -268 -71q-200 0 -346 126q-80 70 -114 159q-35 88 -35 222zM527 1663l-51 128
q86 33 157 33q103 0 154 -58q37 -40 37 -95q0 -53 -34 -105l-32 -49q-12 -19 -12 -45v-2v-7h-157q1 61 30 102l20 28q25 35 25 52q0 37 -48 37q-35 0 -89 -19z" />
    <glyph glyph-name="uni1EE7" unicode="&#x1ee7;" horiz-adv-x="1043" 
d="M921 908v-908h-175v84q-101 -110 -252 -110q-146 0 -250 92q-65 57 -93.5 139t-28.5 213v490h175v-474q0 -140 36 -205q49 -91 179 -91q64 0 118 27.5t79 72.5q37 65 37 216v454h175zM396 1241l-50 128q86 33 157 33q102 0 154 -58q36 -40 36 -95q0 -53 -34 -105l-31 -49
q-13 -19 -13 -45v-2v-7h-157q1 60 31 102l19 28q25 34 25 52q0 37 -48 37q-35 0 -89 -19z" />
    <glyph glyph-name="uni1EE8" unicode="&#x1ee8;" horiz-adv-x="1380" 
d="M1147 1365v-175q77 47 77 122q0 83 -97 162l127 63q126 -91 126 -227q0 -155 -165 -254q-36 -22 -68 -35v-540q0 -170 -59 -271q-58 -102 -168 -165q-125 -71 -268 -71q-201 0 -346 127q-80 71 -114 158q-35 88 -35 222v884h183v-844q0 -97 9 -146q8 -52 30 -89
q31 -54 99 -93q82 -47 174 -47q124 0 219 78q55 46 74 107q19 58 19 190v844h183zM761 1816l169 -91l-276 -277l-113 65z" />
    <glyph glyph-name="uni1EE9" unicode="&#x1ee9;" horiz-adv-x="1183" 
d="M921 908v-175q79 45 79 122q0 81 -98 161l128 64q126 -92 126 -228q0 -91 -59 -165.5t-166 -118.5q-4 -2 -10 -4v-564h-175v84q-101 -110 -252 -110q-146 0 -250 92q-65 57 -93.5 139t-28.5 213v490h175v-474q0 -140 36 -205q49 -91 179 -91q64 0 118 27.5t79 72.5
q37 65 37 216v454h175zM620 1406l169 -91l-276 -277l-113 65z" />
    <glyph glyph-name="uni1EEA" unicode="&#x1eea;" horiz-adv-x="1380" 
d="M1147 1365v-175q77 47 77 122q0 83 -97 162l127 63q126 -91 126 -227q0 -155 -165 -254q-36 -22 -68 -35v-540q0 -170 -59 -271q-58 -102 -168 -165q-125 -71 -268 -71q-201 0 -346 127q-80 71 -114 158q-35 88 -35 222v884h183v-844q0 -97 9 -146q8 -52 30 -89
q31 -54 99 -93q82 -47 174 -47q124 0 219 78q55 46 74 107q19 58 19 190v844h183zM650 1448l-276 277l169 91l220 -303z" />
    <glyph glyph-name="uni1EEB" unicode="&#x1eeb;" horiz-adv-x="1183" 
d="M921 908v-175q79 45 79 122q0 81 -98 161l128 64q126 -92 126 -228q0 -91 -59 -165.5t-166 -118.5q-4 -2 -10 -4v-564h-175v84q-101 -110 -252 -110q-146 0 -250 92q-65 57 -93.5 139t-28.5 213v490h175v-474q0 -140 36 -205q49 -91 179 -91q64 0 118 27.5t79 72.5
q37 65 37 216v454h175zM509 1038l-276 277l169 91l221 -303z" />
    <glyph glyph-name="uni1EEC" unicode="&#x1eec;" horiz-adv-x="1380" 
d="M1147 1365v-175q77 47 77 122q0 83 -97 162l127 63q126 -91 126 -227q0 -155 -165 -254q-36 -22 -68 -35v-540q0 -170 -59 -271q-58 -102 -168 -165q-125 -71 -268 -71q-201 0 -346 127q-80 71 -114 158q-35 88 -35 222v884h183v-844q0 -97 9 -146q8 -52 30 -89
q31 -54 99 -93q82 -47 174 -47q124 0 219 78q55 46 74 107q19 58 19 190v844h183zM542 1663l-51 128q85 33 157 33q103 0 154 -58q37 -40 37 -95q0 -53 -34 -105l-31 -49q-13 -19 -13 -45v-2v-7h-157q2 61 30 102l20 28q25 34 25 52q0 37 -48 37q-35 0 -89 -19z" />
    <glyph glyph-name="uni1EED" unicode="&#x1eed;" horiz-adv-x="1183" 
d="M921 908v-175q79 45 79 122q0 81 -98 161l128 64q126 -92 126 -228q0 -91 -59 -165.5t-166 -118.5q-4 -2 -10 -4v-564h-175v84q-101 -110 -252 -110q-146 0 -250 92q-65 57 -93.5 139t-28.5 213v490h175v-474q0 -140 36 -205q49 -91 179 -91q64 0 118 27.5t79 72.5
q37 65 37 216v454h175zM401 1241l-50 128q85 33 157 33q102 0 154 -58q37 -40 37 -95q0 -50 -35 -105l-31 -49q-13 -19 -13 -45v-2v-7h-157q3 62 31 102l19 28q26 37 26 52q0 37 -48 37q-36 0 -90 -19z" />
    <glyph glyph-name="uni1EEE" unicode="&#x1eee;" horiz-adv-x="1380" 
d="M1147 1365v-175q77 47 77 122q0 83 -97 162l127 63q126 -91 126 -227q0 -155 -165 -254q-36 -22 -68 -35v-540q0 -170 -59 -271q-58 -102 -168 -165q-125 -71 -268 -71q-201 0 -346 127q-80 71 -114 158q-35 88 -35 222v884h183v-844q0 -97 9 -146q8 -52 30 -89
q31 -54 99 -93q82 -47 174 -47q124 0 219 78q55 46 74 107q19 58 19 190v844h183zM802 1738l144 -33q-16 -198 -175 -198q-67 0 -144 41q-55 29 -83 29q-31 0 -43 -76l-141 33q7 79 43 130q47 68 133 68q62 0 149 -45q47 -25 79 -25t38 76z" />
    <glyph glyph-name="uni1EEF" unicode="&#x1eef;" horiz-adv-x="1183" 
d="M921 908v-175q79 45 79 122q0 81 -98 161l128 64q126 -92 126 -228q0 -91 -59 -165.5t-166 -118.5q-4 -2 -10 -4v-564h-175v84q-101 -110 -252 -110q-146 0 -250 92q-65 57 -93.5 139t-28.5 213v490h175v-474q0 -140 36 -205q49 -91 179 -91q64 0 118 27.5t79 72.5
q37 65 37 216v454h175zM671 1328l144 -33q-17 -198 -175 -198q-67 0 -144 41q-55 29 -83 29q-31 0 -44 -76l-140 33q7 79 43 130q47 68 133 68q63 0 148 -45q49 -25 80 -25q32 0 38 76z" />
    <glyph glyph-name="uni1EF0" unicode="&#x1ef0;" horiz-adv-x="1380" 
d="M1147 1365v-175q77 47 77 122q0 83 -97 162l127 63q126 -91 126 -227q0 -155 -165 -254q-36 -22 -68 -35v-540q0 -170 -59 -271q-58 -102 -168 -165q-125 -71 -268 -71q-201 0 -346 127q-80 71 -114 158q-35 88 -35 222v884h183v-844q0 -97 9 -146q8 -52 30 -89
q31 -54 99 -93q82 -47 174 -47q124 0 219 78q55 46 74 107q19 58 19 190v844h183zM652 -110q49 0 83 -34t34 -82t-34 -82t-84 -34q-48 0 -82 34t-34 84q0 45 35 80q34 34 82 34z" />
    <glyph glyph-name="uni1EF1" unicode="&#x1ef1;" horiz-adv-x="1183" 
d="M921 908v-175q79 45 79 122q0 81 -98 161l128 64q126 -92 126 -228q0 -91 -59 -165.5t-166 -118.5q-4 -2 -10 -4v-564h-175v84q-101 -110 -252 -110q-146 0 -250 92q-65 57 -93.5 139t-28.5 213v490h175v-474q0 -140 36 -205q49 -91 179 -91q64 0 118 27.5t79 72.5
q37 65 37 216v454h175zM521 -110q50 0 84 -34t34 -82t-34 -82t-83 -34t-83 34t-34 84q0 47 35 80q34 34 81 34z" />
    <glyph glyph-name="Ygrave" unicode="&#x1ef2;" horiz-adv-x="1060" 
d="M867 1365h200l-445 -797v-568h-183v568l-446 797h202l336 -619zM541 1448l-276 277l169 91l221 -303z" />
    <glyph glyph-name="ygrave" unicode="&#x1ef3;" horiz-adv-x="926" 
d="M321 -478h-182l227 520l-371 866h189l275 -653l284 653h189zM475 1038l-276 277l169 91l221 -303z" />
    <glyph glyph-name="uni1EF4" unicode="&#x1ef4;" horiz-adv-x="1060" 
d="M867 1365h200l-445 -797v-568h-183v568l-446 797h202l336 -619zM529 -110q50 0 84 -34t34 -82t-34.5 -82t-84.5 -34q-48 0 -81.5 34.5t-33.5 83.5q0 47 34 80q34 34 82 34z" />
    <glyph glyph-name="uni1EF5" unicode="&#x1ef5;" horiz-adv-x="926" 
d="M321 -478h-182l227 520l-371 866h189l275 -653l284 653h189zM683 -110q49 0 83 -34t34 -82t-34 -82t-83 -34t-83 34t-34 84q0 47 35 80q34 34 82 34z" />
    <glyph glyph-name="uni1EF6" unicode="&#x1ef6;" horiz-adv-x="1060" 
d="M867 1365h200l-445 -797v-568h-183v568l-446 797h202l336 -619zM406 1663l-50 128q86 33 157 33q102 0 154 -58q37 -40 37 -95q0 -53 -34 -105l-32 -49q-13 -19 -13 -45v-2l1 -7h-158q3 62 31 102l19 28q26 37 26 52q0 37 -48 37q-36 0 -90 -19z" />
    <glyph glyph-name="uni1EF7" unicode="&#x1ef7;" horiz-adv-x="926" 
d="M321 -478h-182l227 520l-371 866h189l275 -653l284 653h189zM340 1241l-51 128q89 33 158 33q85 0 137 -42q53 -44 53 -110q0 -54 -34 -106l-31 -49q-13 -19 -13 -45v-2v-7h-157q1 60 31 102l19 28q25 34 25 52q0 37 -48 37q-35 0 -89 -19z" />
    <glyph glyph-name="uni1EF8" unicode="&#x1ef8;" horiz-adv-x="1060" 
d="M867 1365h200l-445 -797v-568h-183v568l-446 797h202l336 -619zM679 1738l144 -33q-17 -198 -175 -198q-68 0 -145 41q-55 29 -83 29q-30 0 -43 -76l-140 33q7 79 43 130q47 68 133 68q63 0 148 -45q47 -25 80 -25q32 0 38 76z" />
    <glyph glyph-name="uni1EF9" unicode="&#x1ef9;" horiz-adv-x="926" 
d="M321 -478h-182l227 520l-371 866h189l275 -653l284 653h189zM613 1328l143 -33q-15 -198 -174 -198q-68 0 -145 41q-55 29 -83 29q-30 0 -43 -76l-141 33q9 80 44 130q47 68 132 68q62 0 149 -45q47 -25 80 -25q32 0 38 76z" />
    <glyph glyph-name="uni2002" unicode="&#x2002;" horiz-adv-x="1024" 
 />
    <glyph glyph-name="uni2003" unicode="&#x2003;" horiz-adv-x="2048" 
 />
    <glyph glyph-name="uni2004" unicode="&#x2004;" horiz-adv-x="683" 
 />
    <glyph glyph-name="uni2005" unicode="&#x2005;" horiz-adv-x="512" 
 />
    <glyph glyph-name="uni2006" unicode="&#x2006;" horiz-adv-x="137" 
 />
    <glyph glyph-name="uni2007" unicode="&#x2007;" horiz-adv-x="1139" 
 />
    <glyph glyph-name="uni2009" unicode="&#x2009;" horiz-adv-x="256" 
 />
    <glyph glyph-name="uni200A" unicode="&#x200a;" horiz-adv-x="68" 
 />
    <glyph glyph-name="uni2011" unicode="&#x2011;" horiz-adv-x="536" 
d="M68 393v158h399v-158h-399z" />
    <glyph glyph-name="figuredash" unicode="&#x2012;" horiz-adv-x="1173" 
d="M232 393v158h709v-158h-709z" />
    <glyph glyph-name="endash" unicode="&#x2013;" horiz-adv-x="1173" 
d="M232 393v158h709v-158h-709z" />
    <glyph glyph-name="emdash" unicode="&#x2014;" horiz-adv-x="1278" 
d="M68 393v158h1141v-158h-1141z" />
    <glyph glyph-name="afii00208" unicode="&#x2015;" horiz-adv-x="1278" 
d="M68 393v158h1141v-158h-1141z" />
    <glyph glyph-name="underscoredbl" unicode="&#x2017;" horiz-adv-x="1038" 
d="M-7 -258v133h1051v-133h-1051zM-7 -493v133h1051v-133h-1051z" />
    <glyph glyph-name="quoteleft" unicode="&#x2018;" horiz-adv-x="558" 
d="M448 1402l-179 -496l-160 58l217 487z" />
    <glyph glyph-name="quoteright" unicode="&#x2019;" horiz-adv-x="489" 
d="M62 954l179 497l160 -58l-217 -487z" />
    <glyph glyph-name="quotesinglbase" unicode="&#x201a;" horiz-adv-x="489" 
d="M62 -279l179 496l160 -58l-217 -487z" />
    <glyph glyph-name="quotereversed" unicode="&#x201b;" horiz-adv-x="489" 
d="M88 1393l161 58l178 -497l-122 -48z" />
    <glyph glyph-name="quotedblleft" unicode="&#x201c;" horiz-adv-x="858" 
d="M748 1402l-178 -496l-161 58l217 487zM448 1402l-179 -496l-160 58l217 487z" />
    <glyph glyph-name="quotedblright" unicode="&#x201d;" horiz-adv-x="858" 
d="M109 954l179 497l160 -58l-217 -487zM409 954l179 497l160 -58l-217 -487z" />
    <glyph glyph-name="quotedblbase" unicode="&#x201e;" horiz-adv-x="858" 
d="M109 -279l179 496l160 -58l-217 -487zM409 -279l179 496l160 -58l-217 -487z" />
    <glyph glyph-name="dagger" unicode="&#x2020;" horiz-adv-x="1127" 
d="M174 740v168h301v453h176v-453h302v-168h-302v-1117h-176v1117h-301z" />
    <glyph glyph-name="daggerdbl" unicode="&#x2021;" horiz-adv-x="1127" 
d="M953 245v-168h-302v-454h-176v454h-301v168h301v495h-301v168h301v453h176v-453h302v-168h-302v-495h302z" />
    <glyph glyph-name="bullet" unicode="&#x2022;" horiz-adv-x="997" 
d="M503 983q129 0 219 -99q77 -86 77 -201q0 -135 -99 -224q-86 -77 -201 -77q-135 0 -224 99q-77 86 -77 201q0 112 70 194q92 107 235 107z" />
    <glyph glyph-name="ellipsis" unicode="&#x2026;" horiz-adv-x="1544" 
d="M263 207q48 0 82 -33.5t34 -81.5t-34 -81.5t-83 -33.5q-48 0 -81.5 34t-33.5 83q0 45 35 80q34 33 81 33zM1282 207q49 0 82.5 -33.5t33.5 -81.5t-33.5 -81.5t-82.5 -33.5t-82.5 34t-33.5 83q0 45 35 80q35 33 81 33zM772 207q48 0 82 -33.5t34 -81.5t-34 -81.5
t-83 -33.5q-48 0 -81.5 34t-33.5 83q0 45 35 80q35 33 81 33z" />
    <glyph glyph-name="perthousand" unicode="&#x2030;" horiz-adv-x="2591" 
d="M1423 825q324 0 324 -420t-319 -420q-321 0 -321 425q0 178 61 281q78 134 255 134zM1427 703q-76 0 -121 -50q-29 -32 -45 -98q-18 -67 -18 -143q0 -305 183 -305q76 0 123 50q26 29 44 100t18 147q0 299 -184 299zM478 31l787 1360l100 -58l-787 -1360zM412 1380
q324 0 324 -420q0 -419 -319 -419q-321 0 -321 425q0 414 316 414zM416 1258q-184 0 -184 -303q0 -292 184 -292q75 0 122 50q26 29 44 100t18 147q0 298 -184 298zM2172 825q324 0 324 -420t-320 -420t-320 425q0 178 61 281q78 134 255 134zM2176 703q-76 0 -121 -50
q-29 -32 -45 -98q-18 -67 -18 -143q0 -305 183 -305q76 0 123 50q26 29 44 100t18 147q0 299 -184 299z" />
    <glyph glyph-name="minute" unicode="&#x2032;" horiz-adv-x="372" 
d="M-75 955l178 496l160 -59l-217 -486z" />
    <glyph glyph-name="second" unicode="&#x2033;" horiz-adv-x="672" 
d="M-75 955l178 496l160 -59l-217 -486zM225 955l178 496l160 -59l-217 -486z" />
    <glyph glyph-name="guilsinglleft" unicode="&#x2039;" horiz-adv-x="602" 
d="M260 455l245 -303l-116 -92l-321 394l321 403l116 -91z" />
    <glyph glyph-name="guilsinglright" unicode="&#x203a;" horiz-adv-x="602" 
d="M213 60l-116 92l245 303l-245 311l116 91l321 -403z" />
    <glyph glyph-name="uni203E" unicode="&#x203e;" horiz-adv-x="1038" 
d="M-7 1554v161h1051v-161h-1051z" />
    <glyph glyph-name="slash.aalt" unicode="&#x2044;" horiz-adv-x="368" 
d="M-259 31l787 1360l100 -58l-787 -1360z" />
    <glyph glyph-name="zerosuperior" unicode="&#x2070;" 
d="M392 1656q324 0 324 -420t-323 -420q-317 0 -317 426q0 414 316 414zM395 1534q-183 0 -183 -304q0 -143 47 -217.5t137 -74.5q75 0 122 50q26 29 44 100q18 70 18 148q0 298 -185 298z" />
    <glyph glyph-name="foursuperior" unicode="&#x2074;" 
d="M95 1002v115l356 546l109 -66l-309 -475h202v198h133v-198h99v-120h-99v-171h-133v171h-358z" />
    <glyph glyph-name="fivesuperior" unicode="&#x2075;" 
d="M628 1519h-284l-32 -148q40 8 66 8q133 0 220 -95q70 -76 70 -182q0 -126 -95 -210q-85 -76 -206 -76q-165 0 -275 164l108 73q57 -116 166 -116q73 0 120 46q48 46 48 115q0 74 -52 120q-47 42 -113 42t-119 -51l-104 21l87 410h395v-121z" />
    <glyph glyph-name="sixsuperior" unicode="&#x2076;" 
d="M165 1285l280 377l104 -74l-163 -222q26 2 28 2q71 0 142 -41q63 -37 97 -96q35 -59 35 -131q0 -124 -94 -209q-82 -75 -200 -75q-135 0 -223 97q-72 79 -72 186q0 97 66 186zM394 1250q-68 0 -115 -44q-47 -45 -47 -111q0 -68 47 -113t115 -45t115 47q46 46 46 115
q0 65 -46 108t-115 43z" />
    <glyph glyph-name="sevensuperior" unicode="&#x2077;" 
d="M171 868l365 651h-396v121h555v-96l-408 -735z" />
    <glyph glyph-name="eightsuperior" unicode="&#x2078;" 
d="M220 1263q-78 72 -78 163q0 98 75 166q70 64 179 64q125 0 197 -81q58 -64 58 -149q0 -92 -78 -163q104 -83 104 -195q0 -110 -81 -181q-80 -71 -200 -71q-137 0 -218 89q-62 68 -62 163q0 114 104 195zM396 1196q-65 0 -106 -36t-41 -94q0 -57 41.5 -93.5t106.5 -36.5
q64 0 105.5 36.5t41.5 94.5q0 57 -41 93t-107 36zM395 1539q-55 0 -91 -32.5t-36 -82.5q0 -48 36.5 -80t92.5 -32q55 0 91.5 32t36.5 81q0 50 -36.5 82t-93.5 32z" />
    <glyph glyph-name="ninesuperior" unicode="&#x2079;" 
d="M627 1186l-279 -377l-105 74l166 224q-13 -1 -30 -1q-122 0 -208 92q-67 71 -67 174q0 124 94 209q82 75 199 75q136 0 224 -97q72 -79 72 -187q0 -98 -66 -186zM398 1535q-69 0 -115 -46t-46 -115q0 -64 48 -108q46 -41 113 -41q69 0 116 44q46 43 46 109q0 67 -46 112
t-116 45z" />
    <glyph glyph-name="zeroinferior" unicode="&#x2080;" 
d="M392 559q324 0 324 -420t-319 -420q-321 0 -321 425q0 415 316 415zM395 437q-75 0 -120 -50q-28 -31 -45.5 -98t-17.5 -144q0 -304 183 -304q76 0 123 50q26 29 44 100q18 70 18 148q0 298 -185 298z" />
    <glyph glyph-name="oneinferior" unicode="&#x2081;" 
d="M495 543v-808h-134v654l-113 -62l-63 105l200 111h110z" />
    <glyph glyph-name="twoinferior" unicode="&#x2082;" 
d="M669 -265h-537v106l300 322q87 93 87 169q0 48 -34 76.5t-92 28.5q-61 0 -92 -27q-30 -27 -53 -102l-123 33q51 218 270 218q129 0 200 -77q56 -62 56 -154q0 -115 -88 -209l-245 -263h351v-121z" />
    <glyph glyph-name="threeinferior" unicode="&#x2083;" 
d="M379 97h-57v120h57q63 0 98 29t35 81q0 50 -33.5 80t-88.5 30q-45 0 -75.5 -19t-65.5 -69l-112 59q94 151 253 151q126 0 196 -79q57 -65 57 -151q0 -99 -74 -164q93 -72 93 -191q0 -114 -81 -185q-79 -70 -198 -70q-103 0 -172 53t-96 152l-5 20l130 33
q20 -75 51.5 -105t90.5 -30q65 0 105.5 36.5t40.5 95.5q0 123 -149 123z" />
    <glyph glyph-name="fourinferior" unicode="&#x2084;" 
d="M95 -95v115l356 546l109 -66l-309 -475h202v198h133v-198h99v-120h-99v-170h-133v170h-358z" />
    <glyph glyph-name="fiveinferior" unicode="&#x2085;" 
d="M628 423h-284l-32 -148q40 8 66 8q133 0 220 -95q70 -76 70 -182q0 -126 -95 -210q-85 -76 -206 -76q-132 0 -222 96q-26 28 -53 68l108 73q58 -115 166 -115q72 0 120 45q48 47 48 115q0 74 -52 120q-47 42 -113 42t-119 -51l-104 21l87 410h395v-121z" />
    <glyph glyph-name="sixinferior" unicode="&#x2086;" 
d="M165 189l280 377l104 -75l-163 -221q26 2 28 2q68 0 142 -41q61 -34 96.5 -95t35.5 -132q0 -125 -94 -210q-82 -75 -200 -75q-135 0 -223 97q-72 80 -72 186q0 98 66 187zM394 153q-68 0 -115 -44q-47 -45 -47 -111q0 -68 47 -113t115 -45q69 0 115 46t46 116
q0 65 -46 108t-115 43z" />
    <glyph glyph-name="seveninferior" unicode="&#x2087;" 
d="M171 -229l365 651h-396v121h555v-96l-408 -735z" />
    <glyph glyph-name="eightinferior" unicode="&#x2088;" 
d="M220 166q-78 72 -78 162q0 100 75 167q70 64 179 64q125 0 197 -81q58 -64 58 -149q0 -93 -78 -163q104 -83 104 -195q0 -111 -81 -181q-80 -71 -200 -71q-137 0 -218 89q-62 68 -62 163q0 114 104 195zM394 99q-64 0 -104.5 -36.5t-40.5 -93.5t41.5 -93.5t106.5 -36.5
t106 36.5t41 94.5t-41.5 93.5t-108.5 35.5zM395 442q-55 0 -91 -32.5t-36 -82.5q0 -48 36.5 -80t92.5 -32q55 0 91.5 32t36.5 81q0 50 -36.5 82t-93.5 32z" />
    <glyph glyph-name="nineinferior" unicode="&#x2089;" 
d="M627 89l-279 -377l-105 74l166 224q-13 -1 -29 -1q-123 0 -209 92q-67 71 -67 174q0 124 94 209q82 75 199 75q135 0 224 -96q72 -79 72 -188q0 -97 -66 -186zM398 438q-68 0 -114 -46q-47 -47 -47 -115q0 -64 46 -106q46 -43 115 -43t116 44q46 43 46 109q0 67 -46 112
t-116 45z" />
    <glyph glyph-name="franc" unicode="&#x20a3;" horiz-adv-x="1450" 
d="M915 1365v-168h-493v-420h364v-170h-364v-607h-183v1365h676zM855 0v777h175v-88q82 91 220 91q26 0 57 -3v-158q-48 2 -56 2q-136 0 -184 -92q-37 -70 -37 -222v-307h-175z" />
    <glyph glyph-name="lira" unicode="&#x20a4;" horiz-adv-x="1149" 
d="M859 740h-411v-3l24 -111l1 -3h386v-153h-361q4 -37 4 -64q0 -50 -17.5 -104t-45.5 -89q-27 -34 -33 -44h648v-169h-907v163q18 14 26 20q79 61 113 115q32 53 32 119q0 19 -3 53h-168v153h141q-12 54 -15 68q-10 47 -10 49h-116v153h93q-2 38 -2 59q0 225 129 336
q121 103 284 103q239 0 368 -231l-145 -93q-49 82 -102.5 118t-126.5 36q-99 0 -167 -69q-60 -63 -60 -205q0 -29 3 -54h438v-153z" />
    <glyph glyph-name="peseta" unicode="&#x20a7;" horiz-adv-x="1235" 
d="M1160 879h-120q-28 -164 -148 -256q-106 -82 -324 -82h-108v-541h-183v879h-113v150h113v336h291q129 0 210 -24t141 -81q99 -91 121 -231h120v-150zM857 879h-397v-172h126q119 0 183.5 40.5t87.5 131.5zM460 1197v-168h397q-16 55 -45 91q-65 77 -226 77h-126z" />
    <glyph glyph-name="uni20AB" unicode="&#x20ab;" horiz-adv-x="1146" 
d="M580 1211h243v154h175v-154h121v-158h-121v-1053h-175v99q-84 -67 -152 -97q-65 -28 -144 -28q-119 0 -225 61q-111 65 -173 173q-65 113 -65 247q0 219 158 360q133 119 305 119q79 0 144 -28q68 -30 152 -97v244h-243v158zM532 775q-80 0 -149 -42q-142 -85 -142 -278
q0 -161 100 -249q82 -73 194 -73q127 0 209 91q79 85 79 232q0 160 -99 249q-79 70 -192 70zM75 -281v161h1033v-161h-1033z" />
    <glyph glyph-name="Euro" unicode="&#x20ac;" horiz-adv-x="1638" 
d="M340 469h-210l64 157h115q0 3 -0.5 12t-1 26.5t-0.5 34.5q-1 7 2 40h-179l64 157h146q52 154 154 267q99 109 232 167q135 61 288 61q142 0 258.5 -50.5t228.5 -160.5l-67 -165q-82 80 -151 124q-128 80 -281 80q-230 0 -386 -195q-56 -72 -82 -128h852l-65 -157h-826
q-3 -37 -3 -61t3 -52h781l-65 -157h-676q33 -74 100 -151q150 -172 374 -172q123 0 221 50q100 51 214 169v-237q-188 -154 -427 -154q-235 0 -420 135q-183 133 -257 360z" />
    <glyph glyph-name="uni20B4" unicode="&#x20b4;" horiz-adv-x="1257" 
d="M164 623h140q63 66 187 118h-327v150h637q56 54 56 120q0 90 -69 153q-61 57 -157 57q-78 0 -131 -34t-111 -121l-146 94q53 87 108 134q112 97 274 97q123 0 229 -59q86 -49 136 -135q48 -83 48 -180q0 -63 -23 -126h75v-150h-195q-65 -43 -135 -72l-85 -34
q-15 -6 -29 -12h444v-150h-673q-18 -42 -18 -83q0 -107 82 -180q71 -65 174 -65q159 0 228 145q13 28 33 104l177 -48q-32 -137 -97 -217q-125 -155 -338 -155q-205 0 -336 143q-107 119 -107 277q0 42 9 79h-60v150z" />
    <glyph glyph-name="uni2101" unicode="&#x2101;" horiz-adv-x="1934" 
d="M1772 675l-109 -67q-34 53 -65 73.5t-76 20.5q-52 0 -87.5 -31t-35.5 -78q0 -63 103 -100l79 -30q104 -38 153.5 -93t49.5 -132q0 -110 -84 -184q-80 -71 -195 -71q-221 0 -276 236l130 34q18 -67 42 -99q36 -48 106 -48q59 0 100 38t41 94q0 30 -17 52q-25 33 -109 64
l-76 28q-181 67 -181 212q0 100 74 165q75 66 185 66q152 0 241 -138q7 -11 7 -12zM708 768h-347l-83 -212h-141l322 809h152l265 -664l-84 -145zM534 1213l-125 -323h251zM616 31l787 1360l100 -58l-787 -1360z" />
    <glyph glyph-name="afii61248" unicode="&#x2105;" horiz-adv-x="2156" 
d="M899 1237l-94 -89q-58 58 -112 86q-51 24 -118 24q-139 0 -226 -98q-76 -83 -76 -199q0 -132 96 -219q85 -78 206 -78q67 0 116 24q46 21 113 83l5 5l94 -89q-81 -78 -157 -112.5t-169 -34.5q-201 0 -332 143q-108 120 -108 278q0 183 140 309q124 112 299 112
q92 0 167 -33.5t156 -111.5zM1585 825q196 0 326 -144q109 -119 109 -277q0 -183 -141 -309q-125 -112 -292 -112q-166 0 -293 110q-143 126 -143 316q0 175 141 303q125 113 293 113zM1583 701q-131 0 -220 -99q-76 -83 -76 -203q0 -128 97 -213q88 -79 201 -79
q133 0 224 100q75 83 75 196q0 132 -98 221q-85 77 -203 77zM628 31l787 1360l100 -58l-787 -1360z" />
    <glyph glyph-name="uni2117" unicode="&#x2117;" horiz-adv-x="1741" 
d="M875 576h-91v-354h-152v921h243q125 0 194 -39q60 -35 94 -95q40 -68 40 -151q0 -78 -35.5 -143t-96.5 -100q-69 -39 -196 -39zM784 1003v-287h103q166 0 166 144q0 143 -166 143h-103zM883 1457q199 0 375 -104q180 -106 284 -283q104 -179 104 -387q0 -207 -104 -388
q-103 -179 -284 -283t-387 -104t-387 104q-179 102 -284 283q-104 182 -104 394q0 333 257 569q218 199 530 199zM861 1328q-166 0 -313 -87q-150 -87 -236 -236q-87 -149 -87 -322q0 -175 87 -323q86 -150 236 -236q150 -87 323 -87q171 0 323 87q151 87 237 236
q86 151 86 327q0 280 -214 475q-182 166 -442 166z" />
    <glyph glyph-name="trademark" unicode="&#x2122;" horiz-adv-x="1403" 
d="M722 739h-94v639h94l229 -396l229 396h94v-639h-94v467l-190 -329h-78l-190 329v-467zM555 1378v-85h-166v-554h-94v554h-165v85h425z" />
    <glyph glyph-name="Omega" unicode="&#x2126;" horiz-adv-x="1634" 
d="M1484 170v-170h-536v270q139 42 232 125q153 140 153 340q0 210 -161 353q-150 132 -355 132q-145 0 -270 -71q-120 -68 -184 -182q-62 -107 -62 -231q0 -165 104 -290q104 -126 281 -176v-270h-536v170h316v5q-115 61 -200 161q-150 178 -150 399q0 165 84 310
q90 155 252 248q170 98 365 98q196 0 366 -98q161 -93 251 -248q84 -145 84 -310q0 -171 -94 -322q-95 -153 -257 -238v-5h317z" />
    <glyph glyph-name="estimated" unicode="&#x212e;" horiz-adv-x="1516" 
d="M1380 646h-1002v-257q26 -70 50 -112q22 -38 57 -70q98 -89 278 -89q309 0 434 278h148q-49 -160 -139 -254q-162 -168 -436 -168q-344 0 -514 248q-119 176 -119 450q0 307 143 491q177 228 490 228q213 0 370 -112q182 -129 222 -378q15 -101 18 -255zM378 769h781v224
q-39 96 -109 157q-112 97 -278 97q-150 0 -232 -54q-84 -54 -162 -200v-224z" />
    <glyph glyph-name="onethird" unicode="&#x2153;" horiz-adv-x="1707" 
d="M323 31l787 1360l101 -58l-788 -1360zM1266 363h-57v120h57q133 0 133 110q0 50 -33.5 80t-87.5 30q-46 0 -76.5 -19.5t-65.5 -69.5l-112 60q93 151 253 151q126 0 196 -79q57 -64 57 -151q0 -99 -74 -164q93 -73 93 -191q0 -114 -81 -185q-79 -70 -198 -70
q-103 0 -172.5 53t-95.5 152l-6 19l131 34q19 -74 51 -104.5t91 -30.5q65 0 105.5 36.5t40.5 95.5q0 123 -149 123zM425 1365v-808h-134v654l-113 -62l-63 105l200 111h110z" />
    <glyph glyph-name="twothirds" unicode="&#x2154;" horiz-adv-x="1707" 
d="M418 31l787 1360l100 -58l-787 -1360zM646 556h-537v106l300 322q87 93 87 168q0 48 -34 76.5t-92 28.5q-61 0 -92 -27.5t-53 -100.5l-123 33q18 75 56 124q75 93 214 93q129 0 200 -77q56 -62 56 -153q0 -115 -88 -209l-245 -263h351v-121zM1265 363h-57v120h57
q64 0 98.5 28.5t34.5 81.5q0 50 -33.5 80t-88.5 30q-45 0 -75.5 -19.5t-65.5 -69.5l-112 60q93 151 253 151q126 0 196 -79q57 -64 57 -151q0 -99 -74 -164q93 -72 93 -191q0 -114 -81 -185q-79 -70 -198 -70q-103 0 -172 53t-97 152l-5 19l130 34q20 -75 52 -105t91 -30
q65 0 105.5 36.5t40.5 95.5q0 123 -149 123z" />
    <glyph glyph-name="onefifth" unicode="&#x2155;" horiz-adv-x="1707" 
d="M324 31l787 1360l101 -58l-788 -1360zM1490 688h-284l-32 -148q40 8 67 8q132 0 219 -95q70 -76 70 -182q0 -126 -94 -210q-85 -76 -207 -76q-165 0 -275 164l109 72q57 -114 165 -114q73 0 120 46q48 45 48 114q0 74 -52 120q-46 42 -113 42q-71 0 -114 -46q-2 -3 -5 -5
l-103 21l86 410h395v-121zM426 1365v-808h-134v654l-113 -62l-63 105l200 111h110z" />
    <glyph glyph-name="twofifth" unicode="&#x2156;" horiz-adv-x="1707" 
d="M427 31l787 1360l100 -58l-787 -1360zM647 556h-537v106l300 322q87 93 87 168q0 48 -34 76.5t-92 28.5q-61 0 -92 -27.5t-53 -100.5l-123 33q18 75 56 124q75 93 214 93q129 0 200 -77q56 -62 56 -153q0 -115 -88 -209l-245 -263h351v-121zM1489 688h-285l-31 -148
q40 8 66 8q133 0 220 -95q70 -76 70 -182q0 -126 -95 -210q-85 -76 -206 -76q-132 0 -222 96q-26 28 -53 68l108 72q55 -114 166 -114q73 0 120 46q48 45 48 114q0 74 -52 120q-47 42 -113 42q-71 0 -114 -46q-4 -4 -6 -5l-103 21l87 410h395v-121z" />
    <glyph glyph-name="threefifth" unicode="&#x2157;" horiz-adv-x="1707" 
d="M385 31l788 1360l100 -58l-787 -1360zM1489 688h-284l-31 -148q40 8 66 8q132 0 219 -95q70 -76 70 -182q0 -126 -95 -210q-85 -76 -206 -76q-132 0 -222 96q-20 21 -53 68l109 72q56 -114 165 -114q73 0 120 46q48 45 48 114q0 74 -52 120q-47 42 -113 42
q-71 0 -114 -46q-2 -3 -5 -5l-103 21l87 410h394v-121zM368 919h-57v120h57q133 0 133 109q0 50 -33.5 80t-88.5 30q-45 0 -75 -18.5t-66 -69.5l-112 60q94 150 253 150q126 0 196 -79q57 -63 57 -150q0 -99 -74 -164q93 -72 93 -191q0 -114 -81 -185q-79 -70 -198 -70
q-103 0 -172 52.5t-96 152.5l-5 19l130 34q20 -75 51.5 -105t90.5 -30q65 0 105.5 36.5t40.5 95.5q0 123 -149 123z" />
    <glyph glyph-name="fourfifth" unicode="&#x2158;" horiz-adv-x="1707" 
d="M413 31l788 1360l100 -58l-787 -1360zM109 726v115l356 545l109 -65l-309 -475h202v198h133v-198h99v-120h-99v-170h-133v170h-358zM1487 688h-284l-31 -148q40 8 66 8q132 0 219 -95q70 -76 70 -182q0 -126 -94 -210q-85 -76 -207 -76q-132 0 -222 96q-20 21 -53 68
l109 72q57 -114 165 -114q73 0 120 46q48 45 48 114q0 74 -52 120q-47 42 -113 42q-71 0 -114 -46q-2 -3 -5 -5l-103 21l87 410h394v-121z" />
    <glyph glyph-name="onesixth" unicode="&#x2159;" horiz-adv-x="1707" 
d="M352 31l787 1360l100 -58l-787 -1360zM1006 455l280 376l104 -74l-163 -222q26 2 28 2q70 0 143 -41q131 -77 131 -227q0 -124 -94 -209q-83 -75 -199 -75q-136 0 -224 97q-72 80 -72 186q0 97 66 187zM1236 418q-68 0 -115 -44t-47 -111t47 -112q46 -45 115 -45
q68 0 115 47q46 46 46 115q0 66 -49 109q-46 41 -112 41zM426 1365v-808h-134v654l-113 -62l-63 105l200 111h110z" />
    <glyph glyph-name="fivesixth" unicode="&#x215a;" horiz-adv-x="1707" 
d="M432 31l787 1360l100 -58l-787 -1360zM636 1244h-284l-32 -148q40 8 67 8q132 0 219 -95q70 -76 70 -182q0 -126 -95 -210q-85 -76 -206 -76q-132 0 -222 96q-20 21 -53 68l108 73q58 -115 166 -115q73 0 120 46q48 45 48 114q0 74 -52 120q-47 42 -113 42
q-67 0 -119 -52l-104 22l87 410h395v-121zM1005 455l280 376l104 -74l-163 -222q26 2 28 2q72 0 143 -41q63 -37 97 -96q35 -61 35 -131q0 -124 -94 -209q-83 -75 -200 -75q-135 0 -223 96q-72 79 -72 187q0 98 65 187zM1235 418q-69 0 -116 -44q-46 -43 -46 -111
q0 -67 46 -112q47 -45 116 -45q68 0 115 47q46 46 46 115q0 64 -46 107t-115 43z" />
    <glyph glyph-name="oneeighth" unicode="&#x215b;" horiz-adv-x="1707" 
d="M323 31l787 1360l101 -58l-788 -1360zM425 1364v-808h-134v654l-113 -62l-63 105l200 111h110zM1092 431q-78 72 -78 163q0 100 75 167q70 64 179 64q124 0 196 -81q58 -65 58 -150q0 -91 -77 -163q104 -80 104 -195q0 -109 -80 -180q-82 -71 -200 -71q-138 0 -219 89
q-62 68 -62 162q0 115 104 195zM1268 365q-65 0 -106 -36t-41 -94q0 -57 41.5 -93.5t105.5 -36.5q65 0 106.5 36.5t41.5 94.5q0 57 -41 93t-107 36zM1267 708q-56 0 -91.5 -32.5t-35.5 -83.5q0 -48 36.5 -79.5t91.5 -31.5q56 0 92 32t36 81q0 50 -36 82t-93 32z" />
    <glyph glyph-name="threeeighths" unicode="&#x215c;" horiz-adv-x="1707" 
d="M1073 431q-78 72 -78 163q0 100 75 167q70 64 179 64q124 0 196 -81q58 -65 58 -150q0 -89 -77 -163q104 -80 104 -195q0 -109 -80 -180q-82 -71 -200 -71q-138 0 -219 89q-62 68 -62 162q0 115 104 195zM1247 365q-64 0 -104.5 -36.5t-40.5 -92.5q0 -58 41.5 -94.5
t106.5 -36.5t106 36.5t41 94.5t-41.5 93.5t-108.5 35.5zM1248 708q-55 0 -91 -32.5t-36 -82.5q0 -48 36.5 -80t91.5 -32q56 0 92 32t36 81q0 50 -36.5 82t-92.5 32zM368 919h-57v120h57q133 0 133 109q0 50 -33.5 80t-88.5 30q-45 0 -75 -18.5t-66 -69.5l-112 60
q94 150 253 150q126 0 196 -79q57 -63 57 -150q0 -99 -74 -164q93 -72 93 -191q0 -114 -81 -185q-79 -70 -198 -70q-103 0 -172 52.5t-96 152.5l-5 19l130 34q20 -75 51.5 -105t90.5 -30q65 0 105.5 36.5t40.5 95.5q0 123 -149 123zM377 31l787 1360l100 -58l-787 -1360z
" />
    <glyph glyph-name="fiveeighths" unicode="&#x215d;" horiz-adv-x="1707" 
d="M635 1244h-284l-32 -148q40 8 67 8q132 0 219 -95q70 -76 70 -182q0 -126 -95 -210q-85 -76 -206 -76q-132 0 -222 96q-20 21 -53 68l108 73q58 -115 166 -115q73 0 120 46q48 45 48 114q0 74 -52 120q-46 42 -113 42t-119 -52l-104 22l87 410h395v-121zM1072 431
q-78 72 -78 163q0 100 75 167q70 64 179 64q125 0 197 -81q58 -64 58 -150q0 -90 -78 -163q104 -81 104 -195q0 -110 -81 -180q-80 -71 -200 -71q-137 0 -218 89q-62 68 -62 162q0 115 104 195zM1247 708q-55 0 -91 -32.5t-36 -82.5q0 -48 36.5 -80t91.5 -32q56 0 92.5 32
t36.5 81q0 50 -36.5 82t-93.5 32zM1246 365q-64 0 -104.5 -36.5t-40.5 -92.5q0 -58 41 -94.5t106 -36.5t106.5 36.5t41.5 94.5t-41.5 93.5t-108.5 35.5zM381 31l787 1360l100 -58l-787 -1360z" />
    <glyph glyph-name="seveneighths" unicode="&#x215e;" horiz-adv-x="1707" 
d="M308 31l787 1360l100 -58l-787 -1360zM183 593l365 651h-396v121h555v-96l-408 -735zM1072 431q-78 72 -78 163q0 100 75 167q70 64 179 64q124 0 196 -81q58 -64 58 -150q0 -90 -78 -163q104 -80 104 -195q0 -109 -80 -180q-82 -71 -200 -71q-138 0 -219 89
q-62 68 -62 162q0 116 105 195zM1247 708q-55 0 -91 -32.5t-36 -82.5q0 -48 36.5 -80t91.5 -32q56 0 92 32t36 81q0 50 -36.5 82t-92.5 32zM1245 365q-64 0 -104.5 -36.5t-40.5 -92.5q0 -58 41.5 -94.5t106.5 -36.5t106 36.5t41 94.5t-41.5 93.5t-108.5 35.5z" />
    <glyph glyph-name="partialdiff" unicode="&#x2202;" horiz-adv-x="1210" 
d="M804 880l-8 9q-153 266 -534 322l23 154q246 -33 408 -128q159 -95 258 -249q130 -200 130 -471q0 -187 -73 -312q-61 -107 -168 -169q-109 -62 -237 -62q-212 0 -350 153q-123 137 -123 327q0 220 158 361q134 119 299 119q113 0 217 -54zM600 775q-82 0 -152 -42
q-141 -85 -141 -278q0 -161 100 -249q82 -73 196 -73q131 0 216 93q79 86 79 231q0 157 -99 245q-82 73 -199 73z" />
    <glyph glyph-name="emptyset" unicode="&#x2205;" horiz-adv-x="1279" 
d="M473 202l-116 -229l-123 63l115 227q-66 47 -113 107q-106 136 -106 311q0 230 168 380q146 131 341 131q84 0 168 -27l114 225l124 -63l-116 -228q88 -79 132 -137q88 -118 88 -273q0 -231 -168 -384q-145 -132 -354 -132q-87 0 -154 29zM865 973l-327 -644h1
q61 -14 103 -14q162 0 273 122q94 103 94 245q0 87 -39 165.5t-105 125.5zM415 393l326 642q-47 15 -98 15q-167 0 -277 -123q-95 -107 -95 -247q0 -81 33 -147.5t109 -139.5h2z" />
    <glyph glyph-name="increment" unicode="&#x2206;" horiz-adv-x="1376" 
d="M793 1365l529 -1365h-1267l528 1365h210zM686 1160l-376 -991h755z" />
    <glyph glyph-name="product" unicode="&#x220f;" horiz-adv-x="1362" 
d="M949 1196h-537v-1196h-183v1196h-168v169h1239v-169h-168v-1196h-183v1196z" />
    <glyph glyph-name="summation" unicode="&#x2211;" horiz-adv-x="1367" 
d="M605 708l-348 504v153h878v-168h-665l342 -489l-371 -538h735v-170h-959v153z" />
    <glyph glyph-name="minus" unicode="&#x2212;" horiz-adv-x="1139" 
d="M146 717h847v-156h-847v156z" />
    <glyph glyph-name="fraction" unicode="&#x2215;" horiz-adv-x="368" 
d="M-259 31l787 1360l100 -58l-787 -1360z" />
    <glyph glyph-name="uni2218" unicode="&#x2218;" horiz-adv-x="997" 
d="M503 983q129 0 219 -99q77 -86 77 -201q0 -135 -99 -224q-86 -77 -201 -77q-135 0 -224 99q-77 86 -77 201q0 112 70 194q92 107 235 107zM496 871q-81 0 -138 -62q-48 -54 -48 -126q0 -85 62 -141q54 -48 127 -48q84 0 140 62q48 54 48 128q0 82 -62 139q-53 48 -129 48
z" />
    <glyph glyph-name="radical" unicode="&#x221a;" horiz-adv-x="1290" 
d="M61 668v159h294l29 -86l166 -498l487 1453h105h495v-170h-467l-518 -1526h-205l-227 668h-159z" />
    <glyph glyph-name="infinity" unicode="&#x221e;" horiz-adv-x="1441" 
d="M723 566q-61 -80 -118 -125q-101 -78 -221 -78q-150 0 -241 102q-82 89 -82 229q0 153 103 243q95 83 220 83q185 0 333 -202q148 202 340 202q148 0 241 -101q81 -90 81 -230q0 -155 -103 -246q-92 -81 -218 -81q-190 0 -335 204zM813 692q44 -70 84 -107
q67 -64 145 -64q73 0 122 49t49 122q0 78 -54 124q-53 45 -120 45q-61 0 -113.5 -39t-112.5 -130zM627 691q-46 69 -84 107q-67 64 -145 64q-74 0 -122 -49q-49 -49 -49 -122q0 -79 54 -125q53 -45 120 -45q61 0 113.5 39t112.5 131z" />
    <glyph glyph-name="integral" unicode="&#x222b;" horiz-adv-x="618" 
d="M556 1492v-159q-46 12 -74 12q-86 0 -86 -133v-1294q0 -121 -40 -192q-57 -102 -188 -102q-46 0 -107 14v159q47 -12 74 -12q86 0 86 133v1294q0 121 40 192q57 102 188 102q43 0 107 -14z" />
    <glyph glyph-name="similar" unicode="&#x223c;" horiz-adv-x="1160" 
d="M183 480l-113 73q59 128 122 189q70 68 175 68q88 0 236 -71q131 -64 193 -64q55 0 92 30t87 113l115 -67q-56 -114 -116 -172q-32 -32 -89 -56q-55 -23 -100 -23q-53 0 -104 17q-49 16 -197 83q-78 36 -133 36q-84 0 -168 -156z" />
    <glyph glyph-name="uni2243" unicode="&#x2243;" horiz-adv-x="1160" 
d="M183 632l-113 73q60 129 122 188q71 68 176 68q87 0 235 -71q131 -63 192 -63q55 0 93 30q37 28 87 113l115 -67q-56 -115 -117 -173q-35 -34 -88 -56t-99 -22q-54 0 -105 17q-59 20 -197 83q-79 35 -133 35q-85 0 -168 -155zM74 544h1012v-154h-1012v154z" />
    <glyph glyph-name="approxequal" unicode="&#x2248;" horiz-adv-x="1160" 
d="M183 666l-113 74q60 128 122 187q71 68 176 68q87 0 235 -71q131 -63 192 -63q55 0 93 30t87 114l115 -68q-56 -115 -117 -173q-35 -34 -88 -56t-99 -22q-54 0 -105 17q-59 20 -197 83q-79 35 -133 35q-85 0 -168 -155zM183 310l-113 73q58 127 122 189q70 68 176 68
q87 0 235 -71q129 -64 194 -64q54 0 91 31q37 30 87 113l115 -68q-55 -114 -117 -173q-32 -32 -88 -56q-53 -22 -100 -22q-53 0 -104 17q-49 16 -197 83q-78 36 -133 36q-85 0 -168 -156z" />
    <glyph glyph-name="notequal" unicode="&#x2260;" horiz-adv-x="1152" 
d="M872 1077l-107 -215h317v-156h-394l-66 -132h460v-156h-538l-133 -269l-131 54l107 215h-317v156h394l66 132h-460v156h538l133 269z" />
    <glyph glyph-name="lessequal" unicode="&#x2264;" horiz-adv-x="1152" 
d="M1034 440v-177l-915 410v151l915 416v-177l-703 -311zM1034 155v-155h-915v155h915z" />
    <glyph glyph-name="greaterequal" unicode="&#x2265;" horiz-adv-x="1152" 
d="M1034 673l-915 -410v177l703 312l-703 311v177l915 -416v-151zM1034 0h-915v155h915v-155z" />
    <glyph glyph-name="dotmath" unicode="&#x22c5;" horiz-adv-x="480" 
d="M240 798q48 0 82 -33.5t34 -82.5q0 -48 -34 -81.5t-83 -33.5q-48 0 -81 35q-34 34 -34 82q0 46 35 81q35 33 81 33z" />
    <glyph glyph-name="lozenge" unicode="&#x25ca;" horiz-adv-x="1358" 
d="M1225 683l-547 -764l-546 764l546 764zM678 210l335 473l-335 472l-333 -472z" />
    <glyph glyph-name="openbullet" unicode="&#x25e6;" horiz-adv-x="997" 
d="M503 983q129 0 219 -99q77 -86 77 -201q0 -135 -99 -224q-86 -77 -201 -77q-135 0 -224 99q-77 86 -77 201q0 112 70 194q92 107 235 107zM496 871q-81 0 -138 -62q-48 -54 -48 -126q0 -85 62 -141q54 -48 127 -48q84 0 140 62q48 54 48 128q0 82 -62 139q-53 48 -129 48
z" />
    <glyph glyph-name="glyph155" horiz-adv-x="498" 
 />
    <glyph glyph-name="glyph172" horiz-adv-x="1176" 
 />
    <glyph glyph-name="glyph210" horiz-adv-x="498" 
 />
    <glyph glyph-name="seven.denominator" 
d="M171 36l365 652h-396v121h555v-96l-408 -736z" />
    <glyph glyph-name="eight.denominator" 
d="M220 431q-78 73 -78 163q0 98 75 167q70 64 179 64q125 0 197 -81q58 -65 58 -149q0 -92 -78 -164q104 -81 104 -195q0 -110 -81 -180q-80 -71 -200 -71q-135 0 -218 89q-62 68 -62 162q0 115 104 195zM396 365q-65 0 -106 -36t-41 -94q0 -57 41.5 -93.5t106.5 -36.5
q64 0 105.5 36.5t41.5 94.5t-41 93.5t-107 35.5zM395 708q-55 0 -91 -32.5t-36 -83.5q0 -48 36.5 -79.5t92.5 -31.5t92 32t36 81q0 50 -36.5 82t-93.5 32z" />
    <glyph glyph-name="nine.denominator" 
d="M627 354l-279 -377l-105 75l166 224q-28 -2 -29 -2q-124 0 -209 93q-67 70 -67 174q0 124 94 209q82 75 199 75q136 0 224 -97q72 -80 72 -187q0 -99 -66 -187zM398 704q-69 0 -115 -46t-46 -116q0 -64 48 -108q46 -41 113 -41q69 0 116 44q46 43 46 109q0 68 -46 113
t-116 45z" />
    <glyph glyph-name="four.fitted" horiz-adv-x="1139" 
d="M671 1395l147 -92l-525 -840h395v343h181v-343h164v-166h-164v-297h-181v297h-597v172z" />
    <glyph glyph-name="three.fitted" horiz-adv-x="1139" 
d="M118 308l-5 19l177 48q26 -101 71 -155q61 -75 183 -75q127 0 200 82q62 70 62 169q0 108 -71 176q-62 59 -198 59h-74v167h74q134 0 191 68q51 62 51 143q0 97 -67 157q-62 56 -163 56q-76 0 -129 -32q-52 -33 -106 -115l-151 84q49 84 105 132q113 100 281 100
q94 0 177 -33.5t137 -94.5q94 -103 94 -250q0 -173 -136 -285q167 -126 167 -331q0 -194 -133 -311q-127 -112 -312 -112q-197 0 -321 132q-71 76 -104 202z" />
    <glyph glyph-name="zero.denominator" 
d="M392 825q324 0 324 -420t-322 -420q-318 0 -318 426q0 414 316 414zM395 703q-75 0 -120 -50q-29 -32 -45 -98q-18 -67 -18 -144q0 -304 183 -304q76 0 123 50q26 29 44 101q18 70 18 147q0 298 -185 298z" />
    <glyph glyph-name="two.fitted" horiz-adv-x="1139" 
d="M1018 0h-854v154l495 555q150 168 150 307q0 94 -64 152q-59 53 -166 53q-104 0 -162 -49t-93 -169l-167 46q28 119 94 199q120 143 334 143q95 0 177 -32.5t134 -90.5q92 -104 92 -257q0 -191 -141 -349l-440 -494h611v-168z" />
    <glyph glyph-name="one.fitted" horiz-adv-x="1139" 
d="M267 0v166h259v989l-201 -116l-85 147l311 179h157v-1199h234v-166h-675z" />
    <glyph glyph-name="Dieresis" horiz-adv-x="975" 
d="M676 1735q49 0 83 -34t34 -82t-34 -82t-83 -34t-83 34.5t-34 83.5q0 45 35 80q34 34 82 34zM299 1735q50 0 84 -34t34 -82t-34 -82t-84 -34q-49 0 -82.5 34.5t-33.5 83.5q0 45 35 80q34 34 81 34z" />
    <glyph glyph-name="Dotaccent" horiz-adv-x="975" 
d="M487 1735q50 0 84 -34t34 -82t-34 -82t-84 -34q-49 0 -82.5 34.5t-33.5 83.5q0 45 35 80q34 34 81 34z" />
    <glyph glyph-name="Ring" horiz-adv-x="975" 
d="M487 1812q89 0 149 -65q49 -52 49 -127q0 -86 -64 -143q-56 -50 -133 -50q-81 0 -139 56q-58 57 -58 140q0 80 65 139q55 50 131 50zM487 1725q-44 0 -74.5 -31t-30.5 -76q0 -41 32 -73q31 -31 74 -31q44 0 75 31t31 75t-31 74.5t-76 30.5z" />
    <glyph glyph-name="Acute" horiz-adv-x="975" 
d="M598 1816l169 -91l-276 -277l-113 65z" />
    <glyph glyph-name="Grave" horiz-adv-x="975" 
d="M483 1448l-276 277l169 91l220 -303z" />
    <glyph glyph-name="five.fitted" horiz-adv-x="1139" 
d="M934 1365v-168h-470l-62 -308l18 6q45 16 113 16q213 0 351 -153q117 -128 117 -308q0 -213 -156 -354q-134 -122 -324 -122q-138 0 -242 62.5t-189 195.5l145 101q40 -75 82 -114q83 -77 202 -77q138 0 225 98q75 84 75 203q0 140 -98 229q-82 75 -197 75
q-127 0 -206 -88l-141 30l137 676h620z" />
    <glyph glyph-name="Caron" horiz-adv-x="975" 
d="M301 1803l186 -179l186 179l129 -65l-251 -275h-128l-251 275z" />
    <glyph glyph-name="Breve" horiz-adv-x="975" 
d="M204 1746l151 12q0 -11 1 -14q3 -53 19 -81q38 -62 109 -62q83 0 119 79q9 20 18 78l150 -12q-10 -105 -56 -173q-80 -122 -230 -122q-125 0 -202 81q-78 81 -79 214z" />
    <glyph glyph-name="Tilde" horiz-adv-x="975" 
d="M637 1738l143 -33q-16 -198 -174 -198q-68 0 -145 41q-55 29 -83 29q-31 0 -43 -76l-141 33q9 82 43 130q48 68 133 68q62 0 149 -45q47 -25 80 -25q31 0 38 76z" />
    <glyph glyph-name="Hungarumlaut" horiz-adv-x="975" 
d="M458 1816l158 -89l-278 -279l-100 65zM750 1816l157 -91l-276 -277l-102 63z" />
    <glyph glyph-name="Cedilla" horiz-adv-x="975" 
d="M328 -371l186 292l161 -69l-224 -285z" />
    <glyph glyph-name="Ogonek" horiz-adv-x="975" 
d="M711 0h175q-74 -89 -74 -136q0 -41 49 -41q37 0 88 19l51 -128q-87 -33 -153 -33q-96 0 -152 62q-43 47 -43 111q0 69 59 146z" />
    <glyph glyph-name="Macron" horiz-adv-x="975" 
d="M194 1541v157h586v-157h-586z" />
    <glyph glyph-name="Commaaccent" horiz-adv-x="975" 
d="M443 -466l-126 39l103 348l168 -51z" />
    <glyph glyph-name="Comma.high" horiz-adv-x="975" 
d="M690 1428l-126 39l103 348l168 -51z" />
    <glyph glyph-name="Dieresis.alt" horiz-adv-x="975" 
d="M623 1735q49 0 83 -33.5t34 -82.5q0 -48 -34 -82t-83 -34t-83 34t-34 84q0 45 35 80q34 34 82 34zM337 1735q50 0 84 -34t34 -82t-34 -82t-84 -34q-49 0 -82.5 34.5t-33.5 83.5q0 45 35 80q34 34 81 34z" />
    <glyph glyph-name="commaaccent" horiz-adv-x="975" 
d="M443 -466l-126 39l103 348l168 -51z" />
    <glyph glyph-name="comma.high" horiz-adv-x="975" 
d="M690 1018l-126 39l103 348l168 -51z" />
    <glyph glyph-name="dieresis.alt" horiz-adv-x="975" 
d="M623 1327q49 0 83 -33.5t34 -82.5t-34 -82.5t-84 -33.5q-47 0 -82 35q-34 34 -34 83q0 45 35 80q34 34 82 34zM337 1327q50 0 84 -34t34 -82t-34 -82t-84 -34q-49 0 -82.5 34.5t-33.5 83.5q0 45 35 80q34 34 81 34z" />
    <glyph glyph-name="commareversed" horiz-adv-x="975" 
d="M709 1405l126 -39l-103 -349l-168 52z" />
    <glyph glyph-name="G.salt" horiz-adv-x="1492" 
d="M824 550v170h532v-456l-10 -13q-43 -53 -68 -77q-76 -76 -185 -129q-153 -71 -311 -71q-186 0 -349 93q-165 95 -259 261q-95 166 -95 354q0 190 94 354q96 167 259 261t357 94q216 0 389 -127q51 -36 118 -102l-127 -124q-67 70 -128 110q-113 71 -254 71
q-234 0 -386 -170q-137 -155 -137 -367q0 -246 175 -403q148 -133 345 -133q228 0 391 180v24v200h-351z" />
    <glyph glyph-name="M.salt" horiz-adv-x="1716" 
d="M315 0h-185l137 1365h176l416 -858l415 858h175l138 -1365h-185l-103 1050l-363 -750h-155l-363 748z" />
    <glyph glyph-name="y.salt" horiz-adv-x="926" 
d="M184 908l276 -657l283 657h189l-528 -1211q-43 -100 -90 -145q-59 -56 -132 -56q-45 0 -102 18l27 163q36 -17 54 -17q45 0 90 106l117 271l-373 871h189z" />
    <glyph glyph-name="parenleft.salt" horiz-adv-x="619" 
d="M340 1627l156 -73q-155 -402 -155 -872q0 -471 155 -871l-156 -73q-33 70 -46 106q-45 122 -75 280q-55 290 -55 562q0 263 47 516q46 249 129 425z" />
    <glyph glyph-name="parenright.salt" horiz-adv-x="619" 
d="M279 -262l-156 73q155 399 155 873q0 473 -155 870l156 73q54 -116 89 -247q87 -328 87 -693q0 -345 -80 -677q-33 -138 -96 -272z" />
    <glyph glyph-name="bracketleft.salt" horiz-adv-x="607" 
d="M525 1447h-189v-1529h189v-165h-368v1859h368v-165z" />
    <glyph glyph-name="bracketright.salt" horiz-adv-x="607" 
d="M82 -82h189v1529h-189v165h368v-1859h-368v165z" />
    <glyph glyph-name="afii61248.salt" horiz-adv-x="1550" 
d="M1122 549q131 0 218 -96q74 -80 74 -191q0 -128 -95 -214q-84 -75 -201 -75q-134 0 -223 96q-73 80 -73 192q0 110 69 188q88 100 231 100zM1115 433q-71 0 -116 -48q-46 -47 -46 -124q0 -84 53 -131q47 -41 112 -41q73 0 119 48.5t46 125.5q0 82 -53 129q-47 41 -115 41
zM667 1213l-88 -84q-41 43 -71 60q-30 15 -73 15q-79 0 -125 -52q-42 -46 -42 -120q0 -84 53 -131q47 -41 114 -41q45 0 76 17t71 62l89 -83q-106 -112 -236 -112q-138 0 -225 96q-73 80 -73 192q0 129 94 213q84 75 204 75q67 0 120.5 -24.5t111.5 -82.5zM321 31l787 1360
l100 -58l-787 -1360z" />
    <glyph glyph-name="braceleft.salt" horiz-adv-x="607" 
d="M551 1611v-157l-30 1q-82 0 -106 -27t-24 -122v-392q0 -92 -23 -143q-24 -49 -86 -90q61 -39 85 -91t24 -146v-382q0 -61 5.5 -86.5t22.5 -42.5q25 -24 101 -24h15l16 1v-156q-18 0 -34 -0.5t-24 -1t-9 -0.5q-157 0 -221 88q-50 71 -50 220v381q0 85 -24 121
q-24 37 -91 53v143q67 19 91 54q24 34 24 111v396q0 161 71 230q64 63 198 63q35 0 69 -1z" />
    <glyph glyph-name="braceright.salt" horiz-adv-x="607" 
d="M87 1456l-30 -1v156q62 2 69 2q134 0 198 -63q71 -69 71 -231v-396q0 -75 24 -110t91 -54v-143q-67 -16 -91 -53t-24 -121v-382q0 -156 -57 -227q-65 -80 -214 -80q-30 0 -67 1v157l16 -1h15q82 0 106 28q23 29 23 125v382q0 93 24 146q24 52 85 91q-46 30 -64 54
q-45 56 -45 179v392q0 82 -16 110q-23 39 -114 39z" />
    <glyph glyph-name="copyright.salt" horiz-adv-x="954" 
d="M709 1296l-64 -62q-36 38 -63 52.5t-64 14.5q-70 0 -113 -51q-41 -47 -41 -111q0 -75 52 -121q43 -40 103 -40q63 0 129 68l63 -62q-90 -93 -192 -93q-112 0 -185 82q-63 71 -63 166q0 110 82 185q68 64 167 64q53 0 95.5 -20.5t93.5 -71.5zM505 1559q188 0 314 -139
q108 -120 108 -282q0 -187 -139 -313q-120 -108 -282 -108q-175 0 -298 123q-123 124 -123 304q0 178 141 308q116 107 279 107zM503 1477q-147 0 -248 -111q-88 -98 -88 -232q0 -136 99 -236q98 -99 239 -99q153 0 253 112q87 97 87 227q0 149 -112 252q-95 87 -230 87z
" />
    <glyph glyph-name="registered.salt" horiz-adv-x="954" 
d="M591 1099l115 -197h-103l-101 177h-20h-10h-21v-177h-91v476h131q95 0 137 -48q38 -44 38 -102q0 -86 -75 -129zM497 1294h-46v-132h46q80 0 80 66t-80 66zM505 1559q188 0 314 -139q108 -120 108 -282q0 -187 -139 -313q-120 -108 -282 -108q-175 0 -298 123
q-123 124 -123 304q0 178 141 308q116 107 279 107zM503 1477q-147 0 -248 -111q-88 -98 -88 -232q0 -136 99 -236q98 -99 239 -99q153 0 253 112q87 97 87 227q0 149 -112 252q-95 87 -230 87z" />
    <glyph glyph-name="Circumflex" horiz-adv-x="975" 
d="M673 1448l-186 179l-186 -179l-129 65l251 275h128l251 -275z" />
    <glyph glyph-name="six.fitted" horiz-adv-x="1139" 
d="M656 1395l141 -105l-290 -410q36 12 78 12q125 0 235 -65q103 -59 158 -156q59 -101 59 -225q0 -212 -157 -353q-131 -119 -311 -119q-212 0 -353 155q-120 133 -120 316q0 164 106 312zM567 728q-132 0 -218 -95q-73 -80 -73 -196q0 -135 96 -222q79 -73 195 -73
q129 0 215 96q75 86 75 206q0 118 -77 197q-86 87 -213 87z" />
    <glyph glyph-name="seven.fitted" horiz-adv-x="1139" 
d="M379 -30l-158 83l615 1144h-674v168h884v-140z" />
    <glyph glyph-name="eight.fitted" horiz-adv-x="1139" 
d="M308 727q-142 124 -142 285q0 166 125 279q110 100 278 100q190 0 306 -128q97 -107 97 -251q0 -162 -142 -285q186 -135 186 -338q0 -185 -133 -302q-128 -113 -314 -113q-134 0 -246 64q-93 53 -148 146q-53 92 -53 206q0 162 115 276q32 32 71 61zM564 635
q-126 0 -200 -81q-62 -70 -62 -166q0 -111 80 -183q73 -65 187 -65q131 0 204 82q63 70 63 168q0 110 -78 180q-71 65 -194 65zM569 1230q-113 0 -181 -75q-54 -60 -54 -144q0 -97 69 -159q67 -59 168 -59q113 0 179 74q54 60 54 147q0 93 -70 157q-65 59 -165 59z" />
    <glyph glyph-name="nine.fitted" horiz-adv-x="1139" 
d="M483 -30l-140 104l292 411q-40 -8 -75 -8q-211 0 -347 148q-111 121 -111 294q0 127 64 239q66 111 172 172t233 61q211 0 351 -155q121 -133 121 -316q0 -164 -106 -312zM571 1223q-127 0 -213 -96q-76 -85 -76 -207q0 -124 91 -206q82 -73 199 -73q134 0 219 94
q72 79 72 194q0 134 -96 221q-79 73 -196 73z" />
    <glyph glyph-name="zero.fitted" horiz-adv-x="1139" 
d="M564 1391q293 0 415 -215q103 -179 103 -494q0 -708 -511 -708q-289 0 -411 215q-103 181 -103 503q0 308 103 484q57 100 148 151q112 64 256 64zM569 1222q-131 0 -213 -90q-57 -63 -87 -198q-26 -118 -26 -239q0 -552 327 -552q326 0 326 548q0 236 -80 393
q-33 64 -101 102q-65 36 -146 36z" />
    <glyph glyph-name="sterling.fitted" horiz-adv-x="1139" 
d="M437 766h417v-164h-382q25 -112 25 -210q0 -64 -21 -113q-20 -48 -75 -110h648v-169h-907v163q37 29 76 64q95 86 95 187q0 73 -26 188h-145v164h110q-19 104 -19 194q0 217 130 328q119 103 284 103q237 0 367 -231l-145 -93q-49 82 -102.5 118t-126.5 36
q-100 0 -166 -69q-61 -64 -61 -188q0 -78 24 -198z" />
    <glyph glyph-name="dollar.fitted" horiz-adv-x="1139" 
d="M491 -212v189q-147 20 -247 115q-93 89 -131 254l177 48q22 -87 43 -124q74 -125 219 -125q118 0 192 83q64 70 64 165q0 62 -33 106q-46 59 -192 116l-126 49q-289 112 -289 349q0 139 87 240q87 99 236 129v188h180v-188q184 -36 293 -222l-147 -94q-47 70 -84 101
q-66 54 -158 54q-109 0 -173 -73q-53 -61 -53 -136q0 -125 186 -197l132 -50q205 -79 276 -192q49 -77 49 -179q0 -143 -90 -257q-91 -115 -231 -148v-201h-180z" />
    <glyph glyph-name="cent.fitted" horiz-adv-x="1139" 
d="M507 0v214q-109 24 -192 90t-129 163q-48 101 -48 216q0 172 102 301q100 128 267 166v215h180v-209q161 -28 285 -159l-117 -116q-63 69 -115 95q-54 27 -126 27q-136 0 -221 -93q-78 -86 -78 -227q0 -160 98 -249q82 -73 202 -73q75 0 131 29q53 27 115 100l117 -116
q-113 -130 -291 -166v-208h-180z" />
    <glyph glyph-name="florin.fitted" horiz-adv-x="1139" 
d="M103 -386l33 162q56 -15 78 -15q81 0 109 136l174 853h-91l33 158h91l9 46l27 132q36 174 130 243q70 52 158 52q42 0 110 -18l-34 -163q-52 15 -75 15q-83 0 -111 -136l-35 -171h165l-32 -158h-166l-176 -859q-34 -175 -129 -244q-70 -52 -159 -52q-46 0 -109 19z" />
    <glyph glyph-name="Euro.fitted" horiz-adv-x="1139" 
d="M111 469h-210l64 157h115q0 3 -0.5 12t-1 26.5t-0.5 34.5q-1 7 2 40h-179l64 157h146q52 154 154 267q99 109 232 167q135 61 288 61q142 0 258.5 -50.5t228.5 -160.5l-67 -165q-82 80 -151 124q-128 80 -281 80q-230 0 -386 -195q-56 -72 -82 -128h852l-65 -157h-826
q-3 -37 -3 -61t3 -52h781l-65 -157h-676q33 -74 100 -151q150 -172 374 -172q123 0 221 50q100 51 214 169v-237q-188 -154 -427 -154q-236 0 -420 135q-183 133 -257 360z" />
    <glyph glyph-name="yen.fitted" horiz-adv-x="1139" 
d="M478 469h-327v157h294l-63 113h-231v157h144l-263 469h202l336 -618l335 618h200l-262 -469h144v-157h-232l-63 -113h295v-157h-327v-469h-182v469z" />
    <glyph glyph-name="one.numerator" 
d="M495 1365v-809h-134v655l-113 -62l-63 105l200 111h110z" />
    </font>
</defs>
</svg>
