<?xml version="1.0" standalone="no"?>
<!DOCTYPE svg PUBLIC "-//W3C//DTD SVG 1.1//EN" "http://www.w3.org/Graphics/SVG/1.1/DTD/svg11.dtd" >
<svg xmlns="http://www.w3.org/2000/svg" xmlns:xlink="http://www.w3.org/1999/xlink" version="1.1">
<metadata>
Created by FontForge 20170731 at Thu Jan 14 12:16:37 2016
 By Aleksey,,,
(URW)++,Copyright 2015 by (URW)++ Design &#38; Development
</metadata>
<defs>
<font id="URWGeometric-Regular" horiz-adv-x="1124" >
  <font-face 
    font-family="URW Geometric"
    font-weight="400"
    font-stretch="normal"
    units-per-em="2048"
    panose-1="0 0 0 0 0 0 0 0 0 0"
    ascent="1501"
    descent="-547"
    x-height="908"
    cap-height="1365"
    bbox="-253 -502 2487 2171"
    underline-thickness="135"
    underline-position="-403"
    unicode-range="U+0020-FB04"
  />
<missing-glyph horiz-adv-x="512" 
d="M461 0h-410v1365h410v-1365zM102 51h308v1263h-308v-1263z" />
    <glyph glyph-name="afii61352" unicode="Nr&#x2e;" horiz-adv-x="2170" 
d="M2010 580h-515v109h515v-109zM317 0h-153v1365h143l830 -1116v1116h153v-1365h-143l-830 1116v-1116zM1757 1389q126 0 213 -93q74 -80 74 -192q0 -130 -96 -215q-83 -71 -195 -71q-133 0 -218 93q-74 82 -74 195q0 127 97 212q82 71 199 71zM1749 1285q-75 0 -123 -51
q-49 -50 -49 -130q0 -85 52 -134q50 -48 124 -48q78 0 126.5 51t48.5 133t-52 131q-50 48 -127 48z" />
    <glyph glyph-name="ff" unicode="ff" horiz-adv-x="985" 
d="M471 776h-168v-776h-146v776h-92v132h92v164q0 286 220 286q39 0 90 -13v-133q-39 10 -62 10q-53 0 -77.5 -36t-24.5 -114v-164h168v-132zM944 776h-167v-776h-146v776h-92v132h92v184q0 287 220 287q34 0 90 -14v-132q-39 10 -62 10q-102 0 -102 -151v-184h167v-132z
" />
    <glyph glyph-name="fi" unicode="fi" horiz-adv-x="889" 
d="M471 776h-168v-776h-146v776h-92v132h92v184q0 287 220 287q34 0 90 -14v-132q-39 10 -62 10q-102 0 -102 -151v-184h168v-132zM612 908h146v-908h-146v908zM685 1314q43 0 73.5 -30.5t30.5 -73.5q0 -44 -30.5 -74.5t-74.5 -30.5q-43 0 -73.5 31t-30.5 75q0 42 31 72.5
t74 30.5z" />
    <glyph glyph-name="fl" unicode="fl" horiz-adv-x="889" 
d="M471 776h-168v-776h-146v776h-92v132h92v184q0 287 220 287q34 0 90 -14v-132q-39 10 -62 10q-102 0 -102 -151v-184h168v-132zM758 1365v-1365h-146v1365h146z" />
    <glyph glyph-name="ffi" unicode="ffi" horiz-adv-x="1363" 
d="M944 776h-167v-776h-146v776h-92v132h92v184q0 287 220 287q34 0 90 -14v-132q-39 10 -62 10q-102 0 -102 -151v-184h167v-132zM1086 908h146v-908h-146v908zM1159 1314q43 0 73.5 -30.5t30.5 -73.5q0 -44 -30.5 -74.5t-74.5 -30.5q-43 0 -73.5 31t-30.5 75q0 42 31 72.5
t74 30.5zM471 776h-168v-776h-146v776h-92v132h92v164q0 286 220 286q39 0 90 -13v-133q-39 10 -62 10q-53 0 -77.5 -36t-24.5 -114v-164h168v-132z" />
    <glyph glyph-name="ffl" unicode="ffl" horiz-adv-x="1363" 
d="M944 776h-167v-776h-146v776h-92v132h92v184q0 287 220 287q34 0 90 -14v-132q-39 10 -62 10q-102 0 -102 -151v-184h167v-132zM1086 1365h146v-1365h-146v1365zM471 776h-168v-776h-146v776h-92v132h92v164q0 286 220 286q39 0 90 -13v-133q-39 10 -62 10
q-53 0 -77.5 -36t-24.5 -114v-164h168v-132z" />
    <glyph glyph-name=".notdef" horiz-adv-x="512" 
d="M461 0h-410v1365h410v-1365zM102 51h308v1263h-308v-1263z" />
    <glyph glyph-name="glyph1" horiz-adv-x="0" 
 />
    <glyph glyph-name="glyph2" horiz-adv-x="512" 
 />
    <glyph glyph-name="space" unicode=" " horiz-adv-x="512" 
 />
    <glyph glyph-name="exclam" unicode="!" horiz-adv-x="571" 
d="M285 182q42 0 71.5 -29t29.5 -71q0 -43 -29.5 -72.5t-71.5 -29.5t-71.5 29.5t-29.5 72.5q0 41 30 70.5t71 29.5zM353 307h-136l-17 1058h170z" />
    <glyph glyph-name="quotedbl" unicode="&#x22;" horiz-adv-x="629" 
d="M243 1365l-24 -526h-106l-24 526h154zM541 1365l-24 -526h-106l-24 526h154z" />
    <glyph glyph-name="numbersign" unicode="#" horiz-adv-x="1199" 
d="M175 2l80 397h-153l23 116h154l67 336h-153l23 116h154l85 425l122 -29l-80 -396h318l86 425l122 -26l-80 -399h153l-23 -116h-154l-67 -336h154l-24 -116h-154l-85 -426l-122 29l80 397h-318l-86 -426zM406 515h318l68 336h-318z" />
    <glyph glyph-name="dollar" unicode="$" horiz-adv-x="1162" 
d="M518 -212v189q-144 13 -243 102q-100 90 -138 248l148 41q61 -249 278 -249q120 0 199 82q76 79 76 185q0 82 -54 137t-184 106l-128 50q-282 109 -282 341q0 154 107 258q84 79 221 105v187h150v-187q181 -31 289 -209l-121 -79q-99 152 -247 152q-70 0 -125 -28
t-89 -83.5t-34 -117.5q0 -138 198 -215l134 -52q164 -63 240 -148q79 -86 79 -216q0 -160 -111 -277q-87 -93 -213 -122v-200h-150z" />
    <glyph glyph-name="percent" unicode="%" horiz-adv-x="1845" 
d="M1424 823q318 0 318 -419q0 -418 -314 -418q-315 0 -315 424q0 413 311 413zM1428 718q-197 0 -197 -317q0 -310 196 -310q197 0 197 314q0 313 -196 313zM485 23l790 1366l84 -49l-790 -1365zM413 1379q318 0 318 -419q0 -418 -314 -418q-315 0 -315 424q0 413 311 413z
M417 1274q-197 0 -197 -317q0 -310 196 -310q197 0 197 314q0 313 -196 313z" />
    <glyph glyph-name="ampersand" unicode="&#x26;" horiz-adv-x="1309" 
d="M628 760l340 -406q45 80 96 225l137 -38q-63 -195 -134 -306l197 -235h-178l-106 128q-161 -152 -390 -152q-214 0 -341 129q-106 106 -106 253q0 116 70 213q69 97 230 210l-7 9q-150 182 -150 310q0 125 89 211q81 78 209 78q133 0 215 -88q75 -79 75 -189
q0 -95 -52 -168q-51 -73 -194 -184zM546 858q114 88 157 144q41 55 41 116q0 65 -46 108q-46 42 -115 42q-83 0 -129 -57q-37 -44 -37 -105q0 -90 129 -248zM886 242l-361 440q-66 -49 -106 -83q-130 -117 -130 -234q0 -120 107 -197q77 -56 192 -56q178 0 298 130z" />
    <glyph glyph-name="quotesingle" unicode="'" horiz-adv-x="332" 
d="M243 1365l-24 -526h-106l-24 526h154z" />
    <glyph glyph-name="parenleft" unicode="(" horiz-adv-x="601" 
d="M342 1502l130 -60q-154 -393 -154 -877t154 -876l-130 -60q-70 149 -111 351q-60 298 -60 585q0 268 46 517q47 254 125 420z" />
    <glyph glyph-name="parenright" unicode=")" horiz-adv-x="601" 
d="M260 -371l-130 60q154 393 154 876q0 484 -154 877l130 60q71 -150 111 -352q60 -298 60 -585q0 -267 -46 -516q-47 -255 -125 -420z" />
    <glyph glyph-name="asterisk" unicode="*" horiz-adv-x="951" 
d="M179 1329l239 -88l-11 254h137l-11 -254l239 88l43 -129l-246 -69l158 -200l-110 -80l-141 212l-141 -212l-111 80l158 200l-245 69z" />
    <glyph glyph-name="plus" unicode="+" horiz-adv-x="1139" 
d="M96 703h407v410h133v-410h407v-63v-64h-407v-409h-133v409h-407v64v63z" />
    <glyph glyph-name="comma" unicode="," horiz-adv-x="464" 
d="M48 -272l170 472l133 -49l-205 -462z" />
    <glyph glyph-name="hyphen" unicode="-" horiz-adv-x="522" 
d="M75 406v131h372v-131h-372z" />
    <glyph glyph-name="period" unicode="." horiz-adv-x="464" 
d="M232 182q42 0 71.5 -29.5t29.5 -71.5t-29.5 -71.5t-71.5 -29.5t-71.5 30t-29.5 72q0 41 30 70.5t71 29.5z" />
    <glyph glyph-name="slash" unicode="/" horiz-adv-x="1122" 
d="M113 41l783 1351l114 -68l-783 -1351z" />
    <glyph glyph-name="zero" unicode="0" horiz-adv-x="1171" 
d="M586 1389q504 0 504 -707q0 -706 -503 -706q-289 0 -407 219q-98 179 -98 497q0 697 504 697zM587 1249q-350 0 -350 -574q0 -242 74 -393q82 -166 275 -166q349 0 349 567q0 566 -348 566z" />
    <glyph glyph-name="one" unicode="1" horiz-adv-x="614" 
d="M452 1365v-1365h-152v1194l-215 -124l-70 122l299 173h138z" />
    <glyph glyph-name="two" unicode="2" horiz-adv-x="984" 
d="M930 0h-836v135l500 563q156 176 156 325q0 101 -68 163q-70 62 -179 62q-111 0 -175.5 -52t-98.5 -167l-138 38q19 89 69 156q120 166 348 166q179 0 286 -106q105 -102 105 -264q0 -192 -138 -348l-473 -531h642v-140z" />
    <glyph glyph-name="three" unicode="3" horiz-adv-x="966" 
d="M385 645v140h58q95 0 157 33q48 27 77 80.5t29 116.5q0 105 -66 169q-65 64 -174 64q-82 0 -140 -33t-114 -112l-125 71q134 215 379 215q160 0 264 -91q123 -106 123 -279q0 -178 -143 -291q175 -123 175 -335q0 -204 -146 -320q-122 -97 -288 -97q-221 0 -345 166
q-41 56 -66 137l-7 29l148 41q19 -72 50 -120q71 -110 222 -110q122 0 202 77q79 76 79 194q0 122 -76 188.5t-215 66.5h-58z" />
    <glyph glyph-name="four" unicode="4" horiz-adv-x="1060" 
d="M639 1389l122 -77l-541 -870h448v361h152v-361h168v-139h-168v-303h-152v303h-607v156z" />
    <glyph glyph-name="five" unicode="5" horiz-adv-x="1065" 
d="M426 1224l-71 -353q1 0 4.5 1.5t9.5 4t13 4.5q58 20 130 20q100 0 194 -42q94 -43 156 -117q107 -125 107 -297q0 -210 -154 -349q-131 -120 -314 -120q-181 0 -317 116q-46 40 -102 126l120 86q27 -57 64 -94q95 -95 231 -95q135 0 228 95q92 94 92 227q0 141 -88 233
q-92 96 -229 96q-61 0 -120.5 -24.5t-94.5 -64.5l-118 26l134 662h600v-141h-475z" />
    <glyph glyph-name="six" unicode="6" horiz-adv-x="1111" 
d="M195 751l452 638l116 -87l-305 -435q56 18 105 18q100 0 192 -40.5t154 -112.5q105 -120 105 -288q0 -209 -151 -348q-129 -120 -309 -120q-204 0 -340 147q-124 133 -124 318q0 161 105 310zM551 750q-131 0 -221 -91t-90 -225q0 -132 87 -224q90 -95 224 -95
q131 0 223 95q90 94 90 230q0 133 -86 219q-91 91 -227 91z" />
    <glyph glyph-name="seven" unicode="7" horiz-adv-x="922" 
d="M100 44l631 1180h-697v141h867v-123l-670 -1267z" />
    <glyph glyph-name="eight" unicode="8" horiz-adv-x="1038" 
d="M275 727q-149 123 -149 290q0 177 137 287q103 85 255 85q175 0 286 -111q107 -109 107 -261q0 -169 -148 -290q193 -133 193 -341q0 -197 -146 -313q-121 -97 -291 -97q-198 0 -326 128q-111 111 -111 282q0 208 193 341zM516 648q-131 0 -210 -79q-74 -76 -74 -188
q0 -116 81 -191t206 -75q134 0 213 82q74 76 74 183q0 113 -74 189q-79 79 -216 79zM516 1254q-110 0 -184 -72q-67 -67 -67 -168q0 -111 88 -178q67 -54 165 -54q115 0 187 72q67 66 67 164q0 113 -88 182q-68 54 -168 54z" />
    <glyph glyph-name="nine" unicode="9" horiz-adv-x="1116" 
d="M917 614l-453 -639l-116 87l309 437q-57 -12 -104 -12q-217 0 -351 150q-105 119 -105 285q0 208 151 347q129 120 309 120q203 0 340 -147q124 -133 124 -318q0 -162 -104 -310zM561 1250q-132 0 -224 -95q-90 -93 -90 -229q0 -127 86 -215q91 -89 227 -89q130 0 221 89
q90 90 90 221q0 134 -87 223q-92 95 -223 95z" />
    <glyph glyph-name="colon" unicode=":" horiz-adv-x="464" 
d="M232 182q42 0 71.5 -29.5t29.5 -71.5t-29.5 -71.5t-71.5 -29.5t-71.5 30t-29.5 72q0 41 30 70.5t71 29.5zM232 875q42 0 71.5 -29t29.5 -71t-29.5 -71.5t-71.5 -29.5t-71.5 29.5t-29.5 72.5q0 40 30 69.5t71 29.5z" />
    <glyph glyph-name="semicolon" unicode=";" horiz-adv-x="465" 
d="M48 -272l170 472l134 -49l-206 -462zM265 875q42 0 71.5 -29t29.5 -71t-29.5 -71.5t-71.5 -29.5t-71.5 29.5t-29.5 72.5q0 40 30 69.5t71 29.5z" />
    <glyph glyph-name="less" unicode="&#x3c;" horiz-adv-x="1139" 
d="M126 757l887 416v-153l-723 -330l723 -331v-153l-887 418v133z" />
    <glyph glyph-name="equal" unicode="=" horiz-adv-x="1139" 
d="M155 838h828v-128h-828v128zM155 569h828v-128h-828v128z" />
    <glyph glyph-name="greater" unicode="&#x3e;" horiz-adv-x="1139" 
d="M1013 623l-887 -417v153l722 331l-722 330v153l887 -417v-133z" />
    <glyph glyph-name="question" unicode="?" horiz-adv-x="863" 
d="M488 307h-149v154q0 97 22 142q23 47 96 111l89 76q133 114 133 240q0 98 -66 159q-64 58 -170 58q-91 0 -147 -34q-55 -33 -118 -127l-110 92q123 211 367 211q174 0 277 -88q117 -101 117 -275q0 -89 -38 -162q-37 -73 -131 -162l-100 -94q-51 -48 -62 -72
q-10 -21 -10 -93v-136zM414 182q42 0 71.5 -29t29.5 -71q0 -43 -29.5 -72.5t-71.5 -29.5t-71.5 30t-29.5 72q0 41 30 70.5t71 29.5z" />
    <glyph glyph-name="at" unicode="@" horiz-adv-x="1840" 
d="M1037 1068h241l-89 -699h47q157 0 242 103q88 103 88 300q0 217 -112 368q-151 205 -464 205q-204 0 -370 -81q-168 -83 -260 -250q-86 -158 -86 -351q0 -314 214 -492q178 -150 496 -150q214 0 451 74l40 -109q-222 -78 -499 -78q-420 0 -635 237q-184 205 -184 514
q0 227 101 412q107 195 304 293q188 94 421 94q381 0 572 -261q128 -176 128 -419q0 -258 -144 -401q-65 -65 -148.5 -93t-209.5 -28h-278q-107 0 -196 51q-160 93 -160 308q0 196 120 322q126 131 370 131zM920 369h148l75 586h-125q-110 0 -186 -38q-79 -41 -119 -118
q-43 -82 -43 -178q0 -117 67 -184.5t183 -67.5z" />
    <glyph glyph-name="A" unicode="A" horiz-adv-x="1270" 
d="M950 386h-632l-146 -386h-158l526 1365h191l525 -1365h-159zM632 1217l-260 -689h523z" />
    <glyph glyph-name="B" unicode="B" horiz-adv-x="1070" 
d="M516 0h-352v1365h284q222 0 330 -81q63 -47 100 -123t37 -158q0 -165 -157 -282q71 -28 111 -65q115 -108 115 -277q0 -175 -140 -286q-64 -51 -138 -72t-190 -21zM316 1225v-460h156q86 0 133 12q44 10 85 43q82 66 82 177q0 119 -83 179q-67 49 -217 49h-156zM316 634
v-493h188q93 0 144 13q54 14 97 47q89 69 89 186q0 64 -31 119.5t-83 84.5q-76 43 -235 43h-169z" />
    <glyph glyph-name="C" unicode="C" horiz-adv-x="1356" 
d="M1281 1171l-105 -105q-70 74 -127 108q-117 72 -260 72q-266 0 -425 -201q-124 -157 -124 -363q0 -248 171 -411q158 -152 377 -152q115 0 205 43q91 42 190 141l104 -105q-87 -87 -163 -132q-152 -90 -333 -90q-200 0 -366 100q-153 92 -245 252q-94 166 -94 354
q0 189 94 353q95 168 256 260q161 94 354 94q144 0 258 -51t233 -167z" />
    <glyph glyph-name="D" unicode="D" horiz-adv-x="1267" 
d="M164 0v1365h280q306 0 502 -153q235 -184 235 -528q0 -347 -235 -531q-195 -153 -502 -153h-280zM451 1223h-134v-1081h134q240 0 391 121q185 149 185 421q0 271 -185 418q-152 121 -391 121z" />
    <glyph glyph-name="E" unicode="E" horiz-adv-x="973" 
d="M867 1365v-141h-550v-461h489v-142h-489v-479h571v-142h-724v1365h703z" />
    <glyph glyph-name="F" unicode="F" horiz-adv-x="894" 
d="M819 1365v-141h-502v-461h458v-142h-458v-621h-153v1365h655z" />
    <glyph glyph-name="G" unicode="G" horiz-adv-x="1490" 
d="M840 563v142h560v-75q0 -185 -68 -330q-64 -135 -186 -221q-148 -103 -352 -103q-282 0 -482 186q-108 101 -167 236t-59 281q0 190 94 356q95 168 256 260q160 94 354 94q144 0 258 -51t233 -167l-105 -105q-71 74 -127 108q-117 72 -260 72q-163 0 -294 -83
q-126 -80 -194 -218q-61 -123 -61 -265q0 -146 66 -271q70 -132 196 -209q130 -81 289 -81q185 0 308 111q138 124 144 333h-403z" />
    <glyph glyph-name="H" unicode="H" horiz-adv-x="1331" 
d="M317 1365v-602h698v602h153v-1365h-153v621h-698v-621h-153v1365h153z" />
    <glyph glyph-name="I" unicode="I" horiz-adv-x="481" 
d="M164 1365h153v-1365h-153v1365z" />
    <glyph glyph-name="J" unicode="J" horiz-adv-x="823" 
d="M506 1365h153v-956q0 -129 -23 -207q-22 -76 -78 -132q-94 -94 -238 -94q-84 0 -154 33q-71 32 -159 113l93 110q116 -113 217 -113q97 0 143 70.5t46 219.5v956z" />
    <glyph glyph-name="K" unicode="K" horiz-adv-x="1162" 
d="M1135 1365l-515 -565l529 -800h-179l-452 688l-201 -221v-467h-153v1365h153v-698l635 698h183z" />
    <glyph glyph-name="L" unicode="L" horiz-adv-x="872" 
d="M164 1365h153v-1223h530v-142h-683v1365z" />
    <glyph glyph-name="M" unicode="M" horiz-adv-x="1659" 
d="M317 0h-153v1365h164l502 -894l501 894h164v-1365h-153v1102l-444 -795h-137l-444 795v-1102z" />
    <glyph glyph-name="N" unicode="N" horiz-adv-x="1454" 
d="M317 0h-153v1365h143l830 -1116v1116h153v-1365h-143l-830 1116v-1116z" />
    <glyph glyph-name="O" unicode="O" horiz-adv-x="1565" 
d="M782 1389q187 0 344 -94q164 -98 258 -260q95 -164 95 -353q0 -188 -95 -354q-92 -158 -248 -252q-166 -100 -359 -100q-182 0 -348 100q-156 94 -248 252q-95 167 -95 365q0 184 95 342q100 168 258 260q160 94 343 94zM778 1246q-151 0 -279 -83q-129 -83 -197 -218
q-62 -122 -62 -272q0 -140 67 -264q70 -130 199 -210q131 -80 276 -80q146 0 277 80q128 79 199 210q67 125 67 273q0 240 -166 407q-156 157 -381 157z" />
    <glyph glyph-name="P" unicode="P" horiz-adv-x="956" 
d="M444 553h-127v-553h-153v1365h280q126 0 206 -23.5t139 -77.5q126 -115 126 -304q0 -190 -126 -305q-73 -67 -166 -86q-79 -16 -179 -16zM317 1224v-532h145q156 0 228 69q75 72 75 199q0 126 -75 196q-73 68 -228 68h-145z" />
    <glyph glyph-name="Q" unicode="Q" horiz-adv-x="1560" 
d="M1246 158l130 -131l-102 -102l-146 146q-164 -95 -346 -95q-189 0 -353 100q-156 94 -248 252q-95 166 -95 354q0 187 95 353t258 260q161 94 343 94q184 0 344 -94q163 -94 258 -260t95 -352q0 -150 -60.5 -286t-172.5 -239zM1021 178l-110 110l102 102l129 -128
q44 39 77 86q106 146 106 335q0 240 -166 406q-157 157 -377 157q-152 0 -283 -83q-126 -78 -197 -218q-62 -124 -62 -263q0 -247 173 -411q161 -152 371 -152q124 0 237 59z" />
    <glyph glyph-name="R" unicode="R" horiz-adv-x="1092" 
d="M714 592l327 -592h-170l-307 559q-76 -6 -120 -6h-127v-553h-153v1365h280q134 0 220 -24q85 -24 150 -80q63 -54 99 -136t36 -173q0 -188 -135 -300q-43 -35 -100 -60zM317 1224v-532h145q172 0 253 66q84 69 84 194q0 128 -84 202q-79 70 -253 70h-145z" />
    <glyph glyph-name="S" unicode="S" horiz-adv-x="1035" 
d="M903 1174l-122 -79q-98 152 -247 152q-70 0 -125 -28t-89 -83.5t-34 -117.5q0 -138 198 -215l134 -52q164 -63 240 -148q79 -88 79 -215q0 -186 -143 -309q-121 -103 -291 -103q-162 0 -272 92t-149 259l148 42q61 -250 278 -250q120 0 199 82q76 79 76 185q0 82 -54 137
t-184 106l-128 50q-282 111 -282 341q0 178 140 285q111 84 264 84q232 0 364 -215z" />
    <glyph glyph-name="T" unicode="T" horiz-adv-x="887" 
d="M874 1224h-353v-1224h-153v1224h-354v141h860v-141z" />
    <glyph glyph-name="U" unicode="U" horiz-adv-x="1301" 
d="M164 1365h153v-846q0 -108 10 -159q10 -55 36 -97q38 -62 115 -102q80 -43 172 -43q127 0 225 76q65 50 87 117q22 65 22 208v846h153v-887q0 -109 -20.5 -182.5t-68.5 -134.5q-71 -91 -181 -140q-102 -46 -216 -46q-166 0 -297 91q-103 71 -146 166q-44 97 -44 246v887z
" />
    <glyph glyph-name="V" unicode="V" horiz-adv-x="1133" 
d="M14 1365h159l394 -1186l395 1186h158l-461 -1365h-184z" />
    <glyph glyph-name="W" unicode="W" horiz-adv-x="1802" 
d="M14 1365h159l338 -1143l322 1143h137l322 -1143l339 1143h158l-416 -1365h-81h-77l-314 1106l-314 -1106h-76h-81z" />
    <glyph glyph-name="X" unicode="X" horiz-adv-x="1085" 
d="M1031 1365l-404 -650l445 -715h-171l-359 584l-361 -584h-167l446 713l-405 652h167l322 -521l323 521h164z" />
    <glyph glyph-name="Y" unicode="Y" horiz-adv-x="1038" 
d="M442 0v570l-442 795h167l352 -652l352 652h166l-442 -795v-570h-153z" />
    <glyph glyph-name="Z" unicode="Z" horiz-adv-x="1042" 
d="M976 1229l-748 -1087h763v-142h-943v135l758 1089h-697v141h867v-136z" />
    <glyph glyph-name="bracketleft" unicode="[" horiz-adv-x="600" 
d="M508 1356h-190v-1581h190v-135h-337v1851h337v-135z" />
    <glyph glyph-name="backslash" unicode="\" horiz-adv-x="1122" 
d="M113 1324l114 68l783 -1351l-114 -68z" />
    <glyph glyph-name="bracketright" unicode="]" horiz-adv-x="600" 
d="M282 -225v1581h-190v135h337v-1851h-337v135h190z" />
    <glyph glyph-name="asciicircum" unicode="^" horiz-adv-x="1024" 
d="M511 1247l-295 -502h-166l361 625h202l361 -625h-167z" />
    <glyph glyph-name="underscore" unicode="_" horiz-adv-x="1024" 
d="M0 -268v135h1024v-135h-1024z" />
    <glyph glyph-name="grave" unicode="`" horiz-adv-x="975" 
d="M484 1054l-256 258l143 77l205 -282z" />
    <glyph glyph-name="a" unicode="a" 
d="M995 908v-908h-146v119q-128 -143 -319 -143q-119 0 -223 61q-112 64 -175 178q-61 109 -61 239q0 217 154 358q132 120 305 120q187 0 319 -144v120h146zM531 800q-149 0 -243 -120q-70 -88 -70 -225q0 -160 95 -255q92 -92 224 -92q156 0 247 121q68 91 68 227
q0 155 -92 252q-89 92 -229 92z" />
    <glyph glyph-name="b" unicode="b" 
d="M275 0h-146v1365h146v-577q132 144 319 144q119 0 223 -61q112 -64 175 -178q61 -109 61 -239q0 -216 -154 -358q-132 -120 -305 -120q-191 0 -319 143v-119zM582 800q-149 0 -239 -121q-68 -91 -68 -224q0 -159 91 -254q89 -93 221 -93q156 0 250 121q69 89 69 229
q0 156 -94 250q-92 92 -230 92z" />
    <glyph glyph-name="c" unicode="c" horiz-adv-x="936" 
d="M885 778l-98 -98q-103 120 -247 120q-160 0 -253 -120q-69 -90 -69 -225q0 -161 94 -255q92 -92 231 -92q81 0 136 28t115 99l98 -98q-82 -86 -162 -124q-80 -37 -187 -37q-217 0 -353 156q-119 137 -119 323q0 218 154 357q131 120 318 120q191 0 342 -154z" />
    <glyph glyph-name="d" unicode="d" 
d="M995 1365v-1365h-146v119q-128 -143 -319 -143q-119 0 -223 61q-112 64 -175 178q-61 109 -61 239q0 217 154 358q132 120 305 120q187 0 319 -144v577h146zM531 800q-149 0 -243 -120q-70 -88 -70 -225q0 -160 95 -255q92 -92 224 -92q155 0 245 121q67 89 67 227
q0 157 -91 252q-87 92 -227 92z" />
    <glyph glyph-name="e" unicode="e" horiz-adv-x="1017" 
d="M945 392h-724q8 -57 26 -98q37 -89 115 -140q70 -46 160 -46q184 0 276 161l130 -55q-66 -116 -170.5 -177t-234.5 -61q-209 0 -339 157q-113 136 -113 324q0 127 57 237q62 114 167 178q101 60 217 60q191 0 312 -139q122 -140 122 -356q0 -24 -1 -45zM221 517h579
q-7 54 -25 98q-37 90 -110 140q-68 45 -152 45q-114 0 -194 -77q-78 -75 -98 -206z" />
    <glyph glyph-name="f" unicode="f" horiz-adv-x="511" 
d="M471 776h-168v-776h-146v776h-92v132h92v184q0 287 220 287q34 0 90 -14v-132q-39 10 -62 10q-102 0 -102 -151v-184h168v-132z" />
    <glyph glyph-name="g" unicode="g" 
d="M849 908h146v-925q0 -198 -107 -326q-64 -76 -160 -117.5t-208 -41.5q-127 0 -224 47q-94 46 -189 154l96 96q65 -79 118 -112q85 -53 198 -53q154 0 242 94t88 259v136q-128 -143 -319 -143q-119 0 -223 61q-112 64 -175 178q-61 109 -61 239q0 217 154 358
q132 120 305 120q187 0 319 -144v120zM531 800q-149 0 -243 -120q-70 -88 -70 -225q0 -160 95 -255q92 -92 224 -92q155 0 246 121q67 89 67 227q0 155 -92 252q-87 92 -227 92z" />
    <glyph glyph-name="h" unicode="h" horiz-adv-x="1043" 
d="M275 1365v-560q100 127 273 127q167 0 272 -115q50 -54 72 -130t22 -196v-491h-146v474q0 99 -14 155.5t-48 93.5q-63 69 -171 69q-132 0 -203 -86q-57 -69 -57 -252v-454h-146v1365h146z" />
    <glyph glyph-name="i" unicode="i" horiz-adv-x="408" 
d="M131 908h146v-908h-146v908zM205 1314q43 0 73.5 -30.5t30.5 -73.5q0 -44 -30.5 -74.5t-74.5 -30.5q-43 0 -73.5 31t-30.5 75q0 42 31 72.5t74 30.5z" />
    <glyph glyph-name="j" unicode="j" horiz-adv-x="427" 
d="M223 1314q43 0 73.5 -30.5t30.5 -73.5q0 -44 -30.5 -74.5t-74.5 -30.5q-43 0 -73.5 31t-30.5 75q0 42 31 72.5t74 30.5zM150 -205v1113h146v-1113q0 -286 -220 -286q-41 0 -90 13v133q39 -10 62 -10q102 0 102 150z" />
    <glyph glyph-name="k" unicode="k" horiz-adv-x="952" 
d="M900 908l-371 -369l419 -539h-181l-336 441l-156 -154v-287h-146v1365h146v-896l438 439h187z" />
    <glyph glyph-name="l" unicode="l" horiz-adv-x="408" 
d="M277 1365v-1365h-146v1365h146z" />
    <glyph glyph-name="m" unicode="m" horiz-adv-x="1610" 
d="M809 782q111 151 297 151q185 0 290 -129q57 -70 72 -154q13 -66 13 -158v-492h-146v474q0 180 -57 248q-58 70 -158 70q-123 0 -188 -86q-52 -68 -52 -252v-454h-146v474q0 180 -57 248q-58 70 -160 70q-124 0 -189 -86q-53 -70 -53 -252v-454h-146v908h146v-102
q95 126 256 126q176 0 278 -150z" />
    <glyph glyph-name="n" unicode="n" horiz-adv-x="1043" 
d="M275 908v-102q101 126 273 126q167 0 272 -115q50 -54 72 -130.5t22 -194.5v-492h-146v474q0 99 -14 155.5t-48 93.5q-64 69 -171 69q-132 0 -203 -86q-57 -69 -57 -252v-454h-146v908h146z" />
    <glyph glyph-name="o" unicode="o" horiz-adv-x="1077" 
d="M546 932q203 0 341 -156q119 -136 119 -321q0 -218 -154 -359q-130 -120 -314 -120q-212 0 -348 156q-119 136 -119 326q0 213 154 354q131 120 321 120zM533 799q-151 0 -245 -120q-70 -88 -70 -225q0 -159 95 -254q92 -92 225 -92q159 0 252 120q69 92 69 229
q0 156 -94 250q-92 92 -232 92z" />
    <glyph glyph-name="p" unicode="p" 
d="M129 -478v1386h146v-120q127 144 319 144q119 0 223 -61q112 -64 175 -178q61 -109 61 -239q0 -217 -154 -358q-132 -120 -305 -120q-187 0 -319 143v-597h-146zM587 800q-154 0 -245 -121q-67 -91 -67 -227q0 -158 91 -252q89 -92 227 -92q70 0 135 32t109 88
q69 88 69 225q0 160 -94 255q-92 92 -225 92z" />
    <glyph glyph-name="q" unicode="q" 
d="M849 908h146v-1386h-146v597q-132 -143 -319 -143q-118 0 -223 60q-113 65 -176 179q-60 109 -60 239q0 217 154 358q132 120 305 120q192 0 319 -144v120zM537 800q-155 0 -249 -121q-70 -89 -70 -229q0 -156 94 -250q92 -92 230 -92q150 0 240 120q67 89 67 225
q0 158 -91 255q-87 92 -221 92z" />
    <glyph glyph-name="r" unicode="r" horiz-adv-x="600" 
d="M275 908v-102q84 103 236 103q18 0 48 -2v-131q-16 1 -40 1q-93 0 -153 -45q-52 -40 -71 -103q-20 -66 -20 -191v-438h-146v908h146z" />
    <glyph glyph-name="s" unicode="s" horiz-adv-x="760" 
d="M662 768l-117 -62q-30 46 -57 66q-44 32 -101 32q-65 0 -107.5 -36t-42.5 -92q0 -53 40 -87q19 -16 118 -55l89 -35q109 -42 157.5 -97.5t48.5 -137.5q0 -127 -97 -212q-88 -76 -217 -76q-225 0 -315 232l126 53q41 -85 84 -120q43 -34 111 -34q82 0 127 53q36 43 36 97
q0 51 -30 79q-32 29 -130 66l-98 39q-186 72 -186 229q0 118 90 192q85 70 200 70q179 0 271 -164z" />
    <glyph glyph-name="t" unicode="t" horiz-adv-x="504" 
d="M443 776h-151v-503q0 -151 102 -151q25 0 62 10v-132q-51 -14 -90 -14q-220 0 -220 287v503h-102v132h102v215l146 58v-273h151v-132z" />
    <glyph glyph-name="u" unicode="u" horiz-adv-x="1043" 
d="M768 0v102q-100 -126 -273 -126q-167 0 -272 115q-50 54 -72 130.5t-22 194.5v492h146v-475q0 -98 14 -154.5t48 -93.5q63 -69 171 -69q132 0 203 86q57 69 57 252v454h146v-908h-146z" />
    <glyph glyph-name="v" unicode="v" horiz-adv-x="924" 
d="M1 908h157l304 -731l304 731h157l-386 -908h-150z" />
    <glyph glyph-name="w" unicode="w" horiz-adv-x="1368" 
d="M1 908h156l249 -690l216 690h123l217 -690l249 690h155l-341 -908h-123l-218 683l-219 -683h-123z" />
    <glyph glyph-name="x" unicode="x" horiz-adv-x="905" 
d="M867 908l-330 -436l357 -472h-171l-271 361l-271 -361h-171l358 471l-331 437h171l245 -327l246 327h168z" />
    <glyph glyph-name="y" unicode="y" horiz-adv-x="904" 
d="M145 -478l225 519l-369 867h157l289 -690l299 690h156l-607 -1386h-150z" />
    <glyph glyph-name="z" unicode="z" horiz-adv-x="857" 
d="M803 787l-562 -655h583v-132h-765v120l563 657h-532v131h713v-121z" />
    <glyph glyph-name="braceleft" unicode="{" horiz-adv-x="613" 
d="M234 565q76 -43 101 -106q21 -54 21 -141v-402q0 -63 10 -89.5t39 -42.5q31 -16 100 -16q7 0 16 1v-129q-24 -1 -54 -1q-140 0 -198 67q-60 68 -60 224v388q0 89 -26 131.5t-91 60.5v121q63 16 90 58t27 123v388q0 104 22 162t73 91q61 38 164 38q29 0 53 -1v-129
q-11 1 -20 1q-87 0 -116 -29t-29 -119v-411q0 -97 -27 -149q-27 -53 -95 -89z" />
    <glyph glyph-name="bar" unicode="|" horiz-adv-x="1024" 
d="M439 -360v1851h147v-1851h-147z" />
    <glyph glyph-name="braceright" unicode="}" horiz-adv-x="613" 
d="M379 565q-68 36 -95 89t-27 149v411q0 63 -10 89.5t-39 42.5q-31 16 -100 16q-7 0 -16 -1v129q24 1 54 1q139 0 199 -67q59 -68 59 -224v-388q0 -81 27 -123t90 -58v-121q-65 -18 -91 -60.5t-26 -131.5v-388q0 -104 -22 -162t-73 -91q-61 -38 -164 -38q-29 0 -53 1v129
q11 -1 20 -1q88 0 117 29q28 28 28 119v402q0 100 27 155q27 54 95 92z" />
    <glyph glyph-name="asciitilde" unicode="~" horiz-adv-x="1365" 
d="M279 1192l-89 57q42 85 75 129q81 107 206 107q77 0 229 -70q99 -44 126 -52q34 -12 72 -12q58 0 99 30t87 108l91 -53q-54 -110 -113 -161q-80 -70 -183 -70q-43 0 -95 18q-50 17 -191 80q-81 36 -133 36q-54 0 -96 -34t-85 -113z" />
    <glyph glyph-name="nbspace" unicode="&#xa0;" horiz-adv-x="512" 
 />
    <glyph glyph-name="exclamdown" unicode="&#xa1;" horiz-adv-x="571" 
d="M285 1009q42 0 71.5 -29.5t29.5 -72.5q0 -41 -29.5 -70.5t-71.5 -29.5t-71.5 29.5t-29.5 72.5q0 41 30 70.5t71 29.5zM200 -377l17 1059h136l17 -1059h-170z" />
    <glyph glyph-name="cent" unicode="&#xa2;" 
d="M513 0v214q-76 15 -137 51q-112 63 -175 178q-61 109 -61 240q0 173 104 304q103 129 269 163v215h150v-208q163 -20 291 -151l-98 -98q-104 119 -247 119q-160 0 -253 -120q-69 -89 -69 -224q0 -160 94 -254q92 -92 231 -92q80 0 135 28t116 98l98 -98
q-125 -139 -298 -158v-207h-150z" />
    <glyph glyph-name="sterling" unicode="&#xa3;" horiz-adv-x="1145" 
d="M845 614h-392q29 -121 29 -232q0 -71 -23 -120q-23 -48 -93 -120h677v-142h-889v142q55 44 91 79q83 80 83 190q0 70 -29 203h-145v137h115q-23 120 -23 203q0 157 61 257q53 87 159 137q90 41 188 41q223 0 348 -215l-121 -78q-91 151 -233 151q-71 0 -129.5 -32.5
t-87.5 -86.5q-35 -70 -35 -176q0 -67 28 -201h421v-137z" />
    <glyph glyph-name="currency" unicode="&#xa4;" horiz-adv-x="1488" 
d="M272 1246l182 -185q124 100 290 100t291 -100l182 185l84 -81l-185 -188q96 -127 96 -294t-96 -294l185 -187l-82 -83l-183 187q-127 -101 -292 -101q-164 0 -291 101l-184 -187l-81 83l184 187q-95 128 -95 294q0 167 96 294l-185 188zM739 1029q-151 0 -245 -120
q-70 -89 -70 -225q0 -158 95 -255q92 -92 226 -92q158 0 251 121q69 90 69 229q0 155 -94 250q-92 92 -232 92z" />
    <glyph glyph-name="yen" unicode="&#xa5;" horiz-adv-x="1242" 
d="M1030 477h-333v-477h-153v477h-333v137h308l-76 136h-232v137h157l-266 478h167l352 -652l352 652h166l-266 -478h157v-137h-232l-76 -136h308v-137z" />
    <glyph glyph-name="brokenbar" unicode="&#xa6;" horiz-adv-x="1024" 
d="M439 795v696h147v-696h-147zM439 -360v696h147v-696h-147z" />
    <glyph glyph-name="section" unicode="&#xa7;" horiz-adv-x="1113" 
d="M850 100q95 -89 95 -231q0 -170 -112 -270q-113 -101 -298 -101q-275 0 -426 276l121 79q47 -84 93 -127q92 -86 218 -86q69 0 122 24q60 27 95 82.5t35 123.5q0 78 -56 134.5t-183 105.5l-128 51q-283 109 -283 340q0 86 30 149q29 63 101 131q-107 95 -107 240
q0 177 140 284q113 84 263 84q227 0 358 -215l-121 -79q-98 152 -241 152q-117 0 -185 -74q-62 -68 -62 -155q0 -138 198 -215l134 -52q163 -64 239 -148q79 -88 79 -214q0 -155 -100 -267q-5 -6 -11.5 -13.5t-7.5 -8.5zM406 698q-111 -80 -111 -196q0 -142 198 -218
l134 -52q49 -20 99 -45q89 95 89 199q0 82 -54 138t-183 105l-128 50q-14 5 -44 19z" />
    <glyph glyph-name="dieresis" unicode="&#xa8;" horiz-adv-x="975" 
d="M675 1312q42 0 72 -30t30 -72q0 -43 -30 -73t-72 -30q-43 0 -73 30.5t-30 73.5q0 41 30.5 71t72.5 30zM299 1312q43 0 73 -30t30 -72q0 -43 -30 -73t-73 -30t-72.5 30t-29.5 74q0 41 30 71t72 30z" />
    <glyph glyph-name="copyright" unicode="&#xa9;" horiz-adv-x="1754" 
d="M1250 1000l-90 -90q-64 68 -120 96t-133 28q-165 0 -263 -126q-77 -98 -77 -226q0 -154 106 -257q97 -94 232 -94q77 0 132 27t128 100l90 -91q-61 -59 -92 -81q-115 -80 -255 -80q-217 0 -356 160q-119 137 -119 316q0 127 63 238q65 114 173 176q110 63 239 63
q99 0 177 -35q73 -34 165 -124zM889 1457q199 0 375 -104q180 -106 284 -283q104 -179 104 -387q0 -207 -104 -388q-103 -179 -284 -283t-387 -104t-387 104q-179 102 -284 283q-104 182 -104 394q0 333 257 569q218 199 530 199zM866 1344q-168 0 -320 -89
q-154 -91 -242 -242q-89 -152 -89 -330q0 -177 89 -331q88 -154 242 -242q155 -89 331 -89t331 89t242 242q89 155 89 336q0 286 -219 486q-188 170 -454 170z" />
    <glyph glyph-name="ordfeminine" unicode="&#xaa;" horiz-adv-x="733" 
d="M644 1376v-545h-111v62q-82 -76 -180 -76q-123 0 -210 94q-75 81 -75 193q0 129 97 214q83 72 188 72q100 0 180 -76v62h111zM356 1290q-78 0 -127 -52q-50 -53 -50 -134q0 -86 54 -138q50 -49 126 -49q80 0 130 53q49 52 49 136q0 82 -53 135q-49 49 -129 49z" />
    <glyph glyph-name="guillemotleft" unicode="&#xab;" horiz-adv-x="883" 
d="M779 763l-243 -308l243 -301l-95 -75l-305 375l305 384zM475 763l-243 -308l243 -301l-95 -75l-305 375l305 384z" />
    <glyph glyph-name="logicalnot" unicode="&#xac;" horiz-adv-x="1365" 
d="M1229 703v-537h-145v406h-947v131h1092z" />
    <glyph glyph-name="uni00AD" unicode="&#xad;" horiz-adv-x="522" 
d="M75 406v131h372v-131h-372z" />
    <glyph glyph-name="registered" unicode="&#xae;" horiz-adv-x="1754" 
d="M1013 605l229 -383h-150l-214 364h-133v-364h-132v921h248q160 0 236 -70q88 -79 88 -209q0 -187 -172 -259zM873 1021h-128v-314h128q181 0 181 157t-181 157zM889 1457q199 0 375 -104q180 -106 284 -283q104 -179 104 -387q0 -207 -104 -388q-103 -179 -284 -283
t-387 -104t-387 104q-179 102 -284 283q-104 182 -104 394q0 333 257 569q218 199 530 199zM866 1344q-168 0 -320 -89q-154 -91 -242 -242q-89 -152 -89 -330q0 -177 89 -331q88 -154 242 -242q155 -89 331 -89t331 89t242 242q89 155 89 336q0 286 -219 486
q-188 170 -454 170z" />
    <glyph glyph-name="overscore" unicode="&#xaf;" horiz-adv-x="975" 
d="M208 1145v130h560v-130h-560z" />
    <glyph glyph-name="degree" unicode="&#xb0;" horiz-adv-x="708" 
d="M426 1515q114 0 199 -84q83 -83 83 -201q0 -120 -83 -203q-84 -84 -202 -84q-119 0 -202 84q-84 83 -84 201q0 124 84 203q86 84 205 84zM421 1403q-70 0 -121 -51q-51 -52 -51 -122q0 -73 51 -124t123 -51q71 0 122 52q51 51 51 122q0 73 -51 124q-52 50 -124 50z" />
    <glyph glyph-name="plusminus" unicode="&#xb1;" horiz-adv-x="1139" 
d="M96 801h407v410h133v-410h407v-127h-407v-409h-133v409h-407v127zM96 128h947v-128h-947v128z" />
    <glyph glyph-name="twosuperior" unicode="&#xb2;" horiz-adv-x="792" 
d="M663 831h-526v95l303 327q91 97 91 181q0 51 -38 83t-99 32q-65 0 -100 -28.5t-56 -100.5l-106 28q50 206 266 206q109 0 179 -62q68 -63 68 -163q0 -113 -87 -208l-264 -285h369v-105z" />
    <glyph glyph-name="threesuperior" unicode="&#xb3;" horiz-adv-x="792" 
d="M331 1203v104h47q54 0 89 18q57 30 57 103q0 55 -36 88t-97 33q-47 0 -79 -18t-69 -69l-96 53q89 140 245 140q100 0 167 -55q78 -64 78 -170t-78 -167q96 -72 96 -193q0 -124 -93 -194q-76 -58 -179 -58q-95 0 -163 48t-95 135l-8 29l113 30q11 -43 20 -58
q39 -77 133 -77q69 0 113 40t44 103q0 65 -42 100t-120 35h-47z" />
    <glyph glyph-name="acute" unicode="&#xb4;" horiz-adv-x="975" 
d="M604 1389l143 -77l-256 -258l-92 53z" />
    <glyph glyph-name="mu" unicode="&#xb5;" horiz-adv-x="1043" 
d="M275 89v-567h-146v1386h146v-475q0 -98 14 -154.5t48 -93.5q63 -69 171 -69q132 0 203 86q57 69 57 252v454h146v-908h-146v89q-104 -113 -265 -113q-132 0 -228 113z" />
    <glyph glyph-name="paragraph" unicode="&#xb6;" horiz-adv-x="1311" 
d="M605 -478v928h-23q-203 0 -332 150q-113 131 -113 308q0 207 146 342q124 115 299 115h627v-127h-133v-1716h-133v1716h-202h-3v-1716h-133z" />
    <glyph glyph-name="middot" unicode="&#xb7;" horiz-adv-x="464" 
d="M232 784q42 0 71.5 -29.5t29.5 -71.5t-29.5 -71.5t-71.5 -29.5t-71.5 30t-29.5 72q0 41 30 70.5t71 29.5z" />
    <glyph glyph-name="cedilla" unicode="&#xb8;" horiz-adv-x="975" 
d="M519 -96l135 -58l-207 -262l-100 50z" />
    <glyph glyph-name="onesuperior" unicode="&#xb9;" horiz-adv-x="792" 
d="M486 1640v-809h-116v678l-121 -67l-55 91l193 107h99z" />
    <glyph glyph-name="ordmasculine" unicode="&#xba;" horiz-adv-x="720" 
d="M364 1389q126 0 213 -93q74 -80 74 -192q0 -130 -96 -215q-83 -71 -196 -71q-131 0 -217 93q-74 82 -74 195q0 127 97 212q80 71 199 71zM356 1290q-78 0 -127 -52q-50 -53 -50 -134q0 -86 54 -138q50 -49 126 -49q81 0 131 53t50 136q0 84 -53 135q-50 49 -131 49z" />
    <glyph glyph-name="guillemotright" unicode="&#xbb;" horiz-adv-x="883" 
d="M408 154l243 301l-243 308l95 75l305 -384l-305 -375zM104 154l243 301l-243 308l95 75l305 -384l-305 -375z" />
    <glyph glyph-name="onequarter" unicode="&#xbc;" horiz-adv-x="1707" 
d="M329 23l790 1366l84 -49l-790 -1365zM1264 828l95 -57l-320 -493h234v209h116v-209h101v-104h-101v-174h-116v174h-364v105zM415 1365v-808h-116v677l-121 -67l-55 91l193 107h99z" />
    <glyph glyph-name="onehalf" unicode="&#xbd;" horiz-adv-x="1707" 
d="M329 23l790 1366l84 -49l-790 -1365zM415 1365v-808h-116v677l-121 -67l-55 91l193 107h99zM1543 0h-526v95l303 327q91 97 91 181q0 51 -38 83t-99 32q-65 0 -99.5 -28.5t-56.5 -100.5l-106 29q51 205 267 205q110 0 178 -62q68 -63 68 -163q0 -114 -87 -208l-264 -285
h369v-105z" />
    <glyph glyph-name="threequarters" unicode="&#xbe;" horiz-adv-x="1707" 
d="M454 23l790 1366l85 -49l-790 -1365zM320 927v105h47q55 0 89 18q57 28 57 102q0 55 -36 88t-97 33q-48 0 -79 -17q-30 -18 -69 -69l-96 52q89 140 245 140q100 0 167 -55q78 -65 78 -170q0 -106 -78 -167q96 -71 96 -193q0 -124 -93 -194q-76 -58 -179 -58
q-96 0 -163.5 48t-94.5 135l-8 29l113 30q11 -43 20 -58q39 -77 133 -77q69 0 113 40t44 103q0 65 -42 100t-120 35h-47zM1345 828l95 -57l-320 -493h234v209h116v-209h100v-104h-100v-174h-116v174h-364v105z" />
    <glyph glyph-name="questiondown" unicode="&#xbf;" horiz-adv-x="863" 
d="M409 682h149v-154q0 -97 -22 -142q-22 -46 -96 -111l-89 -76q-133 -114 -133 -240q0 -97 66 -159q64 -58 169 -58q92 0 148 34q55 33 118 127l110 -92q-123 -211 -367 -211q-174 0 -277 88q-117 100 -117 275q0 90 38 163q38 72 131 161l101 94q50 49 61 72q10 21 10 92
v137zM483 1009q42 0 71.5 -30t29.5 -73q0 -40 -30 -69.5t-71 -29.5q-42 0 -71.5 29t-29.5 71t29.5 72t71.5 30z" />
    <glyph glyph-name="Agrave" unicode="&#xc0;" horiz-adv-x="1270" 
d="M950 386h-632l-146 -386h-158l526 1365h191l525 -1365h-159zM632 1217l-260 -689h523zM632 1464l-256 258l144 77l204 -282z" />
    <glyph glyph-name="Aacute" unicode="&#xc1;" horiz-adv-x="1270" 
d="M950 386h-632l-146 -386h-158l526 1365h191l525 -1365h-159zM632 1217l-260 -689h523zM745 1799l144 -77l-257 -258l-91 53z" />
    <glyph glyph-name="Acircumflex" unicode="&#xc2;" horiz-adv-x="1270" 
d="M950 386h-632l-146 -386h-158l526 1365h191l525 -1365h-159zM632 1217l-260 -689h523zM824 1464l-189 178l-188 -178l-105 53l235 258h116l236 -258z" />
    <glyph glyph-name="Atilde" unicode="&#xc3;" horiz-adv-x="1270" 
d="M950 386h-632l-146 -386h-158l526 1365h191l525 -1365h-159zM632 1217l-260 -689h523zM797 1722l117 -28q-7 -84 -48.5 -129t-112.5 -45q-53 0 -139 39q-66 31 -88 31q-24 0 -35.5 -15.5t-18.5 -57.5l-116 27q9 82 52.5 128t110.5 46q45 0 142 -44q60 -26 87 -26
q25 0 35 15t14 59z" />
    <glyph glyph-name="Adieresis" unicode="&#xc4;" horiz-adv-x="1270" 
d="M950 386h-632l-146 -386h-158l526 1365h191l525 -1365h-159zM632 1217l-260 -689h523zM824 1722q42 0 72 -30t30 -72q0 -43 -30 -73t-72 -30q-43 0 -73 30.5t-30 73.5q0 41 30.5 71t72.5 30zM447 1722q43 0 73 -30t30 -72q0 -43 -30 -73t-73 -30t-72.5 30.5t-29.5 73.5
q0 41 30 71t72 30z" />
    <glyph glyph-name="Aring" unicode="&#xc5;" horiz-adv-x="1270" 
d="M950 386h-632l-146 -386h-158l526 1365h191l525 -1365h-159zM632 1217l-260 -689h523zM635 1799q78 0 131 -52q53 -53 53 -127t-53 -127q-55 -53 -130 -53q-77 0 -130 53q-54 53 -54 129q0 72 54 125q53 52 129 52zM636 1725q-44 0 -75 -31t-31 -76q0 -42 31 -73t75 -31
q43 0 74 31t31 74q0 44 -30.5 75t-74.5 31z" />
    <glyph glyph-name="AE" unicode="&#xc6;" horiz-adv-x="1720" 
d="M911 0v386h-531l-195 -386h-171l703 1365h897v-141h-550v-461h489v-142h-489v-479h571v-142h-724zM452 528h459v696h-106z" />
    <glyph glyph-name="Ccedilla" unicode="&#xc7;" horiz-adv-x="1356" 
d="M1281 1171l-105 -105q-70 74 -127 108q-117 72 -260 72q-266 0 -425 -201q-124 -157 -124 -363q0 -248 171 -411q158 -152 377 -152q115 0 205 43q91 42 190 141l104 -105q-87 -87 -163 -132q-152 -90 -333 -90q-200 0 -366 100q-153 92 -245 252q-94 166 -94 354
q0 189 94 353q95 168 256 260q161 94 354 94q144 0 258 -51t233 -167zM710 -96l135 -58l-207 -262l-100 50z" />
    <glyph glyph-name="Egrave" unicode="&#xc8;" horiz-adv-x="973" 
d="M867 1365v-141h-550v-461h489v-142h-489v-479h571v-142h-724v1365h703zM540 1464l-257 258l144 77l205 -282z" />
    <glyph glyph-name="Eacute" unicode="&#xc9;" horiz-adv-x="973" 
d="M867 1365v-141h-550v-461h489v-142h-489v-479h571v-142h-724v1365h703zM625 1799l143 -77l-256 -258l-92 53z" />
    <glyph glyph-name="Ecircumflex" unicode="&#xca;" horiz-adv-x="973" 
d="M867 1365v-141h-550v-461h489v-142h-489v-479h571v-142h-724v1365h703zM714 1464l-188 178l-189 -178l-105 53l236 258h116l235 -258z" />
    <glyph glyph-name="Edieresis" unicode="&#xcb;" horiz-adv-x="973" 
d="M867 1365v-141h-550v-461h489v-142h-489v-479h571v-142h-724v1365h703zM711 1722q42 0 72 -30t30 -72q0 -43 -30 -73t-72 -30q-43 0 -73 30.5t-30 73.5q0 41 30.5 71t72.5 30zM334 1722q43 0 73 -30t30 -72q0 -43 -30 -73t-73 -30t-72.5 30t-29.5 74q0 41 30 71t72 30z
" />
    <glyph glyph-name="Igrave" unicode="&#xcc;" horiz-adv-x="481" 
d="M164 1365h153v-1365h-153v1365zM235 1464l-256 258l143 77l205 -282z" />
    <glyph glyph-name="Iacute" unicode="&#xcd;" horiz-adv-x="481" 
d="M164 1365h153v-1365h-153v1365zM359 1799l143 -77l-256 -258l-92 53z" />
    <glyph glyph-name="Icircumflex" unicode="&#xce;" horiz-adv-x="481" 
d="M164 1365h153v-1365h-153v1365zM429 1464l-188 178l-189 -178l-105 53l236 258h116l235 -258z" />
    <glyph glyph-name="Idieresis" unicode="&#xcf;" horiz-adv-x="481" 
d="M163 1365h153v-1365h-153v1365zM377 1722q42 0 72 -30t30 -72q0 -43 -30 -73t-72 -30q-43 0 -73 30.5t-30 73.5q0 41 30.5 71t72.5 30zM103 1722q43 0 73 -30t30 -72q0 -43 -30 -73t-73 -30t-72.5 30t-29.5 74q0 41 30 71t72 30z" />
    <glyph glyph-name="Eth" unicode="&#xd0;" horiz-adv-x="1298" 
d="M58 804h137v561h280q305 0 502 -153q235 -183 235 -528q0 -347 -235 -531q-195 -153 -502 -153h-280v667h-137v137zM348 1223v-419h327v-137h-327v-525h134q240 0 391 121q185 147 185 421q0 271 -185 418q-152 121 -391 121h-134z" />
    <glyph glyph-name="Ntilde" unicode="&#xd1;" horiz-adv-x="1454" 
d="M317 0h-153v1365h143l830 -1116v1116h153v-1365h-143l-830 1116v-1116zM906 1722l117 -28q-7 -84 -48.5 -129t-112.5 -45q-52 0 -138 39q-66 31 -89 31q-24 0 -35.5 -15.5t-18.5 -57.5l-116 27q9 82 52.5 128t110.5 46q46 0 142 -44q60 -26 87 -26q25 0 35 15t14 59z" />
    <glyph glyph-name="Ograve" unicode="&#xd2;" horiz-adv-x="1565" 
d="M782 1389q187 0 344 -94q164 -98 258 -260q95 -164 95 -353q0 -188 -95 -354q-92 -158 -248 -252q-166 -100 -359 -100q-182 0 -348 100q-156 94 -248 252q-95 167 -95 365q0 184 95 342q100 168 258 260q160 94 343 94zM778 1246q-151 0 -279 -83q-129 -83 -197 -218
q-62 -122 -62 -272q0 -140 67 -264q70 -130 199 -210q131 -80 276 -80q146 0 277 80q128 79 199 210q67 125 67 273q0 240 -166 407q-156 157 -381 157zM782 1464l-256 258l143 77l205 -282z" />
    <glyph glyph-name="Oacute" unicode="&#xd3;" horiz-adv-x="1565" 
d="M782 1389q187 0 344 -94q164 -98 258 -260q95 -164 95 -353q0 -188 -95 -354q-92 -158 -248 -252q-166 -100 -359 -100q-182 0 -348 100q-156 94 -248 252q-95 167 -95 365q0 184 95 342q100 168 258 260q160 94 343 94zM778 1246q-151 0 -279 -83q-129 -83 -197 -218
q-62 -122 -62 -272q0 -140 67 -264q70 -130 199 -210q131 -80 276 -80q146 0 277 80q128 79 199 210q67 125 67 273q0 240 -166 407q-156 157 -381 157zM895 1799l144 -77l-257 -258l-92 53z" />
    <glyph glyph-name="Ocircumflex" unicode="&#xd4;" horiz-adv-x="1565" 
d="M782 1389q187 0 344 -94q164 -98 258 -260q95 -164 95 -353q0 -188 -95 -354q-92 -158 -248 -252q-166 -100 -359 -100q-182 0 -348 100q-156 94 -248 252q-95 167 -95 365q0 184 95 342q100 168 258 260q160 94 343 94zM778 1246q-151 0 -279 -83q-129 -83 -197 -218
q-62 -122 -62 -272q0 -140 67 -264q70 -130 199 -210q131 -80 276 -80q146 0 277 80q128 79 199 210q67 125 67 273q0 240 -166 407q-156 157 -381 157zM971 1464l-189 178l-188 -178l-105 53l235 258h116l236 -258z" />
    <glyph glyph-name="Otilde" unicode="&#xd5;" horiz-adv-x="1565" 
d="M782 1389q187 0 344 -94q164 -98 258 -260q95 -164 95 -353q0 -188 -95 -354q-92 -158 -248 -252q-166 -100 -359 -100q-182 0 -348 100q-156 94 -248 252q-95 167 -95 365q0 184 95 342q100 168 258 260q160 94 343 94zM778 1246q-151 0 -279 -83q-129 -83 -197 -218
q-62 -122 -62 -272q0 -140 67 -264q70 -130 199 -210q131 -80 276 -80q146 0 277 80q128 79 199 210q67 125 67 273q0 240 -166 407q-156 157 -381 157zM944 1722l117 -28q-7 -84 -48.5 -129t-112.5 -45q-52 0 -138 39q-66 31 -89 31q-24 0 -35.5 -15.5t-18.5 -57.5l-115 27
q8 81 51.5 127.5t110.5 46.5q46 0 143 -44q58 -26 87 -26q24 0 34 15t14 59z" />
    <glyph glyph-name="Odieresis" unicode="&#xd6;" horiz-adv-x="1565" 
d="M782 1389q187 0 344 -94q164 -98 258 -260q95 -164 95 -353q0 -188 -95 -354q-92 -158 -248 -252q-166 -100 -359 -100q-182 0 -348 100q-156 94 -248 252q-95 167 -95 365q0 184 95 342q100 168 258 260q160 94 343 94zM778 1246q-151 0 -279 -83q-129 -83 -197 -218
q-62 -122 -62 -272q0 -140 67 -264q70 -130 199 -210q131 -80 276 -80q146 0 277 80q128 79 199 210q67 125 67 273q0 240 -166 407q-156 157 -381 157zM971 1722q42 0 72 -30t30 -72q0 -43 -30 -73t-72 -30q-43 0 -73 30.5t-30 73.5q0 41 30.5 71t72.5 30zM594 1722
q43 0 73 -30t30 -72q0 -43 -30 -73t-73 -30t-72.5 30t-29.5 74q0 41 30 71t72 30z" />
    <glyph glyph-name="multiply" unicode="&#xd7;" horiz-adv-x="1139" 
d="M189 350l289 289l-289 289l92 91l288 -288l289 288l92 -91l-289 -289l289 -289l-92 -91l-289 288l-288 -288z" />
    <glyph glyph-name="Oslash" unicode="&#xd8;" horiz-adv-x="1580" 
d="M111 77l149 151q-166 196 -166 455q0 186 95 352t258 260q160 94 343 94q250 0 449 -169l147 148l84 -80l-149 -151q166 -196 166 -457q0 -186 -95 -352q-91 -157 -248 -252q-164 -100 -353 -100q-250 0 -450 169l-146 -148zM364 334l773 782q-157 130 -347 130
q-152 0 -283 -83q-126 -78 -197 -218q-62 -124 -62 -263q0 -193 116 -348zM1216 1031l-771 -781q69 -62 161 -96.5t186 -34.5q144 0 275 80q129 80 199 210q67 124 67 272q0 195 -117 350z" />
    <glyph glyph-name="Ugrave" unicode="&#xd9;" horiz-adv-x="1301" 
d="M164 1365h153v-846q0 -108 10 -159q10 -55 36 -97q38 -62 115 -102q80 -43 172 -43q127 0 225 76q65 50 87 117q22 65 22 208v846h153v-887q0 -109 -20.5 -182.5t-68.5 -134.5q-71 -91 -181 -140q-102 -46 -216 -46q-166 0 -297 91q-103 71 -146 166q-44 97 -44 246v887z
M665 1464l-257 258l144 77l205 -282z" />
    <glyph glyph-name="Uacute" unicode="&#xda;" horiz-adv-x="1301" 
d="M164 1365h153v-846q0 -108 10 -159q10 -55 36 -97q38 -62 115 -102q80 -43 172 -43q127 0 225 76q65 50 87 117q22 65 22 208v846h153v-887q0 -109 -20.5 -182.5t-68.5 -134.5q-71 -91 -181 -140q-102 -46 -216 -46q-166 0 -297 91q-103 71 -146 166q-44 97 -44 246v887z
M750 1799l143 -77l-256 -258l-92 53z" />
    <glyph glyph-name="Ucircumflex" unicode="&#xdb;" horiz-adv-x="1301" 
d="M164 1365h153v-846q0 -108 10 -159q10 -55 36 -97q38 -62 115 -102q80 -43 172 -43q127 0 225 76q65 50 87 117q22 65 22 208v846h153v-887q0 -109 -20.5 -182.5t-68.5 -134.5q-71 -91 -181 -140q-102 -46 -216 -46q-166 0 -297 91q-103 71 -146 166q-44 97 -44 246v887z
M839 1464l-188 178l-189 -178l-105 53l236 258h116l235 -258z" />
    <glyph glyph-name="Udieresis" unicode="&#xdc;" horiz-adv-x="1301" 
d="M164 1365h153v-846q0 -108 10 -159q10 -55 36 -97q38 -62 115 -102q80 -43 172 -43q127 0 225 76q65 50 87 117q22 65 22 208v846h153v-887q0 -109 -20.5 -182.5t-68.5 -134.5q-71 -91 -181 -140q-102 -46 -216 -46q-166 0 -297 91q-103 71 -146 166q-44 97 -44 246v887z
M839 1722q42 0 72 -30t30 -72q0 -43 -30 -73t-72 -30q-43 0 -73 30.5t-30 73.5q0 41 30.5 71t72.5 30zM463 1722q43 0 73 -30t30 -72q0 -43 -30 -73t-73 -30t-72.5 30t-29.5 74q0 41 30 71t72 30z" />
    <glyph glyph-name="Yacute" unicode="&#xdd;" horiz-adv-x="1038" 
d="M442 0v570l-442 795h167l352 -652l352 652h166l-442 -795v-570h-153zM618 1799l143 -77l-256 -258l-92 53z" />
    <glyph glyph-name="Thorn" unicode="&#xde;" horiz-adv-x="956" 
d="M317 1365v-204h127q126 0 206 -23.5t139 -77.5q126 -116 126 -304q0 -190 -126 -306q-73 -67 -166 -86q-79 -16 -179 -16h-127v-348h-153v1365h153zM317 1020v-533h145q156 0 228 69q75 72 75 200q0 126 -75 196q-73 68 -228 68h-145z" />
    <glyph glyph-name="germandbls" unicode="&#xdf;" horiz-adv-x="1061" 
d="M275 0h-146v1021q0 151 89 251q106 117 271 117q170 0 273 -106q100 -101 100 -261q0 -85 -30.5 -159t-82.5 -114q76 -32 123 -85q96 -107 96 -268q0 -195 -145 -307q-113 -89 -297 -89h-115v140h121q137 0 215 80q74 76 74 183q0 100 -65 174q-74 83 -229 83h-10v132h10
q99 0 148 67q44 62 44 157q0 110 -60 176t-161 66q-99 0 -161 -65q-62 -67 -62 -172v-1021z" />
    <glyph glyph-name="agrave" unicode="&#xe0;" 
d="M995 908v-908h-146v119q-128 -143 -319 -143q-119 0 -223 61q-112 64 -175 178q-61 109 -61 239q0 217 154 358q132 120 305 120q187 0 319 -144v120h146zM531 800q-149 0 -243 -120q-70 -88 -70 -225q0 -160 95 -255q92 -92 224 -92q156 0 247 121q68 91 68 227
q0 155 -92 252q-89 92 -229 92zM533 1054l-256 258l143 77l205 -282z" />
    <glyph glyph-name="aacute" unicode="&#xe1;" 
d="M995 908v-908h-146v119q-128 -143 -319 -143q-119 0 -223 61q-112 64 -175 178q-61 109 -61 239q0 217 154 358q132 120 305 120q187 0 319 -144v120h146zM531 800q-149 0 -243 -120q-70 -88 -70 -225q0 -160 95 -255q92 -92 224 -92q156 0 247 121q68 91 68 227
q0 155 -92 252q-89 92 -229 92zM659 1389l144 -77l-257 -258l-92 53z" />
    <glyph glyph-name="acircumflex" unicode="&#xe2;" 
d="M995 908v-908h-146v119q-128 -143 -319 -143q-119 0 -223 61q-112 64 -175 178q-61 109 -61 239q0 217 154 358q132 120 305 120q187 0 319 -144v120h146zM531 800q-149 0 -243 -120q-70 -88 -70 -225q0 -160 95 -255q92 -92 224 -92q156 0 247 121q68 91 68 227
q0 155 -92 252q-89 92 -229 92zM722 1054l-189 178l-188 -178l-105 53l235 258h116l236 -258z" />
    <glyph glyph-name="atilde" unicode="&#xe3;" 
d="M995 908v-908h-146v119q-128 -143 -319 -143q-119 0 -223 61q-112 64 -175 178q-61 109 -61 239q0 217 154 358q132 120 305 120q187 0 319 -144v120h146zM531 800q-149 0 -243 -120q-70 -88 -70 -225q0 -160 95 -255q92 -92 224 -92q156 0 247 121q68 91 68 227
q0 155 -92 252q-89 92 -229 92zM695 1312l117 -27q-7 -84 -48.5 -129t-112.5 -45q-53 0 -138 39q-66 31 -89 31q-24 0 -35.5 -15.5t-18.5 -58.5l-115 28q8 81 51.5 127.5t110.5 46.5q47 0 143 -44q58 -26 86 -26q26 0 35.5 15t13.5 58z" />
    <glyph glyph-name="adieresis" unicode="&#xe4;" 
d="M995 908v-908h-146v119q-128 -143 -319 -143q-119 0 -223 61q-112 64 -175 178q-61 109 -61 239q0 217 154 358q132 120 305 120q187 0 319 -144v120h146zM531 800q-149 0 -243 -120q-70 -88 -70 -225q0 -160 95 -255q92 -92 224 -92q156 0 247 121q68 91 68 227
q0 155 -92 252q-89 92 -229 92zM739 1312q42 0 72 -30t30 -72q0 -43 -30 -73t-72 -30q-43 0 -73 30.5t-30 73.5q0 41 30.5 71t72.5 30zM362 1312q43 0 73 -30t30 -72q0 -43 -30 -73t-73 -30t-72.5 30t-29.5 74q0 41 30 71t72 30z" />
    <glyph glyph-name="aring" unicode="&#xe5;" 
d="M995 908v-908h-146v119q-128 -143 -319 -143q-119 0 -223 61q-112 64 -175 178q-61 109 -61 239q0 217 154 358q132 120 305 120q187 0 319 -144v120h146zM531 800q-149 0 -243 -120q-70 -88 -70 -225q0 -160 95 -255q92 -92 224 -92q156 0 247 121q68 91 68 227
q0 155 -92 252q-89 92 -229 92zM557 1389q77 0 130 -52q54 -53 54 -127t-53 -127q-55 -53 -130 -53q-78 0 -131 53q-54 53 -54 129q0 73 55 125q53 52 129 52zM557 1315q-44 0 -75 -31t-31 -76q0 -41 32 -73q31 -31 74 -31q44 0 75 31t31 74q0 44 -31 75t-75 31z" />
    <glyph glyph-name="ae" unicode="&#xe6;" horiz-adv-x="1683" 
d="M837 150q-84 -174 -361 -174q-185 0 -299 84q-106 79 -106 225q0 142 100 222t279 80h287q-11 97 -63 147q-70 65 -204 65q-162 0 -293 -102l-68 98q167 136 378 136q249 0 344 -180q133 180 348 180q190 0 311 -139q122 -140 122 -356v-44h-724q8 -57 26 -98
q37 -90 114 -140q70 -46 160 -46q184 0 277 161l130 -55q-68 -116 -172 -177t-233 -61q-216 0 -353 174zM742 293v169h-264q-263 0 -263 -176q0 -97 87 -142q68 -36 175 -36q265 0 265 185zM888 517h579q-10 59 -25 97q-37 90 -110 140q-68 45 -152 45q-115 0 -194 -76
q-78 -75 -98 -206z" />
    <glyph glyph-name="ccedilla" unicode="&#xe7;" horiz-adv-x="936" 
d="M885 778l-98 -98q-103 120 -247 120q-160 0 -253 -120q-69 -90 -69 -225q0 -161 94 -255q92 -92 231 -92q81 0 136 28t115 99l98 -98q-82 -86 -162 -124q-80 -37 -187 -37q-217 0 -353 156q-119 137 -119 323q0 218 154 357q131 120 318 120q191 0 342 -154zM466 -96
l135 -58l-207 -262l-100 50z" />
    <glyph glyph-name="egrave" unicode="&#xe8;" horiz-adv-x="1017" 
d="M945 392h-724q8 -57 26 -98q37 -89 115 -140q70 -46 160 -46q184 0 276 161l130 -55q-66 -116 -170.5 -177t-234.5 -61q-209 0 -339 157q-113 136 -113 324q0 127 57 237q62 114 167 178q101 60 217 60q191 0 312 -139q122 -140 122 -356q0 -24 -1 -45zM221 517h579
q-7 54 -25 98q-37 90 -110 140q-68 45 -152 45q-114 0 -194 -77q-78 -75 -98 -206zM519 1054l-256 258l143 77l205 -282z" />
    <glyph glyph-name="eacute" unicode="&#xe9;" horiz-adv-x="1017" 
d="M945 392h-724q8 -57 26 -98q37 -89 115 -140q70 -46 160 -46q184 0 276 161l130 -55q-66 -116 -170.5 -177t-234.5 -61q-209 0 -339 157q-113 136 -113 324q0 127 57 237q62 114 167 178q101 60 217 60q191 0 312 -139q122 -140 122 -356q0 -24 -1 -45zM221 517h579
q-7 54 -25 98q-37 90 -110 140q-68 45 -152 45q-114 0 -194 -77q-78 -75 -98 -206zM612 1389l143 -77l-256 -258l-92 53z" />
    <glyph glyph-name="ecircumflex" unicode="&#xea;" horiz-adv-x="1017" 
d="M945 392h-724q8 -57 26 -98q37 -89 115 -140q70 -46 160 -46q184 0 276 161l130 -55q-66 -116 -170.5 -177t-234.5 -61q-209 0 -339 157q-113 136 -113 324q0 127 57 237q62 114 167 178q101 60 217 60q191 0 312 -139q122 -140 122 -356q0 -24 -1 -45zM221 517h579
q-7 54 -25 98q-37 90 -110 140q-68 45 -152 45q-114 0 -194 -77q-78 -75 -98 -206zM697 1054l-189 178l-188 -178l-105 53l235 258h116l236 -258z" />
    <glyph glyph-name="edieresis" unicode="&#xeb;" horiz-adv-x="1017" 
d="M945 392h-724q8 -57 26 -98q37 -89 115 -140q70 -46 160 -46q184 0 276 161l130 -55q-66 -116 -170.5 -177t-234.5 -61q-209 0 -339 157q-113 136 -113 324q0 127 57 237q62 114 167 178q101 60 217 60q191 0 312 -139q122 -140 122 -356q0 -24 -1 -45zM221 517h579
q-7 54 -25 98q-37 90 -110 140q-68 45 -152 45q-114 0 -194 -77q-78 -75 -98 -206zM697 1312q42 0 72 -30t30 -72q0 -43 -30 -73t-72 -30q-43 0 -73 30.5t-30 73.5q0 41 30.5 71t72.5 30zM320 1312q43 0 73 -30t30 -72q0 -43 -30 -73t-73 -30t-72.5 30t-29.5 74q0 41 30 71
t72 30z" />
    <glyph glyph-name="igrave" unicode="&#xec;" horiz-adv-x="408" 
d="M131 908h146v-908h-146v908zM192 1054l-256 258l143 77l205 -282z" />
    <glyph glyph-name="iacute" unicode="&#xed;" horiz-adv-x="408" 
d="M131 908h146v-908h-146v908zM329 1389l143 -77l-256 -258l-92 53z" />
    <glyph glyph-name="icircumflex" unicode="&#xee;" horiz-adv-x="408" 
d="M132 908h146v-908h-146v908zM393 1054l-188 178l-189 -178l-105 53l236 258h116l235 -258z" />
    <glyph glyph-name="idieresis" unicode="&#xef;" horiz-adv-x="408" 
d="M131 908h146v-908h-146v908zM339 1312q42 0 72 -30t30 -72q0 -43 -30 -73t-72 -30q-43 0 -73 30.5t-30 73.5q0 41 30.5 71t72.5 30zM65 1312q43 0 73 -30t30 -72q0 -43 -30 -73t-73 -30t-72.5 30t-29.5 74q0 41 30 71t72 30z" />
    <glyph glyph-name="eth" unicode="&#xf0;" horiz-adv-x="1078" 
d="M813 844q-33 106 -111 224t-159 186l-221 -115l-91 84l202 105q-97 63 -255 113l59 88q173 -47 322 -136l226 114l84 -82l-210 -110q136 -124 230 -310q55 -109 87 -249q31 -137 31 -275q0 -154 -61 -266q-61 -114 -175 -179q-107 -60 -233 -60q-212 0 -348 156
q-119 137 -119 322q0 217 154 358q131 120 312 120q157 0 276 -88zM533 800q-152 0 -245 -120q-70 -89 -70 -225q0 -158 95 -255q92 -92 225 -92q159 0 252 121q69 90 69 229q0 155 -94 250q-92 92 -232 92z" />
    <glyph glyph-name="ntilde" unicode="&#xf1;" horiz-adv-x="1043" 
d="M275 908v-102q101 126 273 126q167 0 272 -115q50 -54 72 -130.5t22 -194.5v-492h-146v474q0 99 -14 155.5t-48 93.5q-64 69 -171 69q-132 0 -203 -86q-57 -69 -57 -252v-454h-146v908h146zM693 1312l117 -27q-7 -84 -48 -129t-112 -45q-54 0 -139 39q-66 31 -89 31
q-24 0 -35.5 -15.5t-18.5 -58.5l-115 28q9 81 52 127.5t110 46.5q47 0 143 -44q58 -26 87 -26q25 0 35 15t13 58z" />
    <glyph glyph-name="ograve" unicode="&#xf2;" horiz-adv-x="1077" 
d="M546 932q203 0 341 -156q119 -136 119 -321q0 -218 -154 -359q-130 -120 -314 -120q-212 0 -348 156q-119 136 -119 326q0 213 154 354q131 120 321 120zM533 799q-151 0 -245 -120q-70 -88 -70 -225q0 -159 95 -254q92 -92 225 -92q159 0 252 120q69 92 69 229
q0 156 -94 250q-92 92 -232 92zM539 1054l-257 258l144 77l205 -282z" />
    <glyph glyph-name="oacute" unicode="&#xf3;" horiz-adv-x="1077" 
d="M546 932q203 0 341 -156q119 -136 119 -321q0 -218 -154 -359q-130 -120 -314 -120q-212 0 -348 156q-119 136 -119 326q0 213 154 354q131 120 321 120zM533 799q-151 0 -245 -120q-70 -88 -70 -225q0 -159 95 -254q92 -92 225 -92q159 0 252 120q69 92 69 229
q0 156 -94 250q-92 92 -232 92zM652 1389l143 -77l-256 -258l-92 53z" />
    <glyph glyph-name="ocircumflex" unicode="&#xf4;" horiz-adv-x="1077" 
d="M546 932q203 0 341 -156q119 -136 119 -321q0 -218 -154 -359q-130 -120 -314 -120q-212 0 -348 156q-119 136 -119 326q0 213 154 354q131 120 321 120zM532 799q-150 0 -244 -120q-70 -88 -70 -225q0 -160 94 -254q92 -92 226 -92q160 0 251 120q70 91 70 229
q0 155 -95 250q-90 92 -232 92zM727 1054l-188 178l-189 -178l-105 53l236 258h116l235 -258z" />
    <glyph glyph-name="otilde" unicode="&#xf5;" horiz-adv-x="1077" 
d="M546 932q203 0 341 -156q119 -136 119 -321q0 -218 -154 -359q-130 -120 -314 -120q-212 0 -348 156q-119 136 -119 326q0 213 154 354q131 120 321 120zM533 799q-151 0 -245 -120q-70 -88 -70 -225q0 -159 95 -254q92 -92 225 -92q159 0 252 120q69 92 69 229
q0 156 -94 250q-92 92 -232 92zM700 1312l117 -27q-7 -84 -48 -129t-112 -45q-53 0 -139 39q-66 31 -89 31q-24 0 -35.5 -15.5t-18.5 -58.5l-115 28q9 81 52 127.5t110 46.5q47 0 143 -44q58 -26 87 -26q25 0 35 15t13 58z" />
    <glyph glyph-name="odieresis" unicode="&#xf6;" horiz-adv-x="1077" 
d="M546 932q203 0 341 -156q119 -136 119 -321q0 -218 -154 -359q-130 -120 -314 -120q-212 0 -348 156q-119 136 -119 326q0 213 154 354q131 120 321 120zM533 799q-151 0 -245 -120q-70 -88 -70 -225q0 -159 95 -254q92 -92 225 -92q159 0 252 120q69 92 69 229
q0 156 -94 250q-92 92 -232 92zM727 1312q42 0 72 -30t30 -72q0 -43 -30 -73t-72 -30q-43 0 -73 30.5t-30 73.5q0 41 30.5 71t72.5 30zM350 1312q43 0 73 -30t30 -72q0 -43 -30 -73t-73 -30t-72.5 30.5t-29.5 73.5q0 41 30 71t72 30z" />
    <glyph glyph-name="divide" unicode="&#xf7;" horiz-adv-x="1139" 
d="M130 703h878v-128h-878v128zM571 1106q44 0 76 -32q32 -34 32 -77q0 -45 -32 -77t-78 -32q-45 0 -77 32t-32 78q0 44 32.5 76t78.5 32zM571 390q44 0 76 -32q32 -34 32 -77q0 -45 -32 -77t-78 -32q-45 0 -77 32t-32 78q0 45 32.5 76.5t78.5 31.5z" />
    <glyph glyph-name="oslash" unicode="&#xf8;" horiz-adv-x="1105" 
d="M85 71l94 92q-94 128 -94 292q0 216 154 357q131 120 313 120q170 0 301 -108l90 87l77 -74l-93 -92q93 -131 93 -291q0 -217 -154 -358q-130 -120 -313 -120q-170 0 -301 109l-90 -88zM829 650l-483 -473q88 -69 205 -69q159 0 252 121q70 89 70 224q0 117 -44 197z
M277 258l482 474q-89 68 -205 68q-160 0 -253 -120q-69 -90 -69 -226q0 -104 45 -196z" />
    <glyph glyph-name="ugrave" unicode="&#xf9;" horiz-adv-x="1043" 
d="M768 0v102q-100 -126 -273 -126q-167 0 -272 115q-50 54 -72 130.5t-22 194.5v492h146v-475q0 -98 14 -154.5t48 -93.5q63 -69 171 -69q132 0 203 86q57 69 57 252v454h146v-908h-146zM525 1054l-256 258l143 77l205 -282z" />
    <glyph glyph-name="uacute" unicode="&#xfa;" horiz-adv-x="1043" 
d="M768 0v102q-100 -126 -273 -126q-167 0 -272 115q-50 54 -72 130.5t-22 194.5v492h146v-475q0 -98 14 -154.5t48 -93.5q63 -69 171 -69q132 0 203 86q57 69 57 252v454h146v-908h-146zM624 1389l144 -77l-257 -258l-91 53z" />
    <glyph glyph-name="ucircumflex" unicode="&#xfb;" horiz-adv-x="1043" 
d="M768 0v102q-100 -126 -273 -126q-167 0 -272 115q-50 54 -72 130.5t-22 194.5v492h146v-475q0 -98 14 -154.5t48 -93.5q63 -69 171 -69q132 0 203 86q57 69 57 252v454h146v-908h-146zM710 1054l-188 178l-189 -178l-105 53l236 258h116l235 -258z" />
    <glyph glyph-name="udieresis" unicode="&#xfc;" horiz-adv-x="1043" 
d="M768 0v102q-100 -126 -273 -126q-167 0 -272 115q-50 54 -72 130.5t-22 194.5v492h146v-475q0 -98 14 -154.5t48 -93.5q63 -69 171 -69q132 0 203 86q57 69 57 252v454h146v-908h-146zM710 1312q42 0 72 -30t30 -72q0 -43 -30 -73t-72 -30q-43 0 -73 30.5t-30 73.5
q0 41 30.5 71t72.5 30zM333 1312q43 0 73 -30t30 -72q0 -43 -30 -73t-73 -30t-72.5 30t-29.5 74q0 41 30 71t72 30z" />
    <glyph glyph-name="yacute" unicode="&#xfd;" horiz-adv-x="904" 
d="M560 1389l143 -77l-256 -258l-92 53zM145 -478l225 519l-369 867h157l289 -690l299 690h156l-607 -1386h-150z" />
    <glyph glyph-name="thorn" unicode="&#xfe;" horiz-adv-x="1126" 
d="M131 -478v1843h146v-577q129 144 319 144q119 0 223 -61q112 -64 175 -178q61 -109 61 -239q0 -217 -154 -358q-132 -120 -305 -120q-187 0 -319 143v-597h-146zM589 800q-154 0 -245 -121q-67 -91 -67 -227q0 -158 91 -252q89 -92 227 -92q70 0 135 32t109 88
q69 88 69 225q0 160 -94 255q-92 92 -225 92z" />
    <glyph glyph-name="ydieresis" unicode="&#xff;" horiz-adv-x="904" 
d="M640 1312q42 0 72 -30t30 -72q0 -43 -30 -73t-72 -30q-43 0 -73 30.5t-30 73.5q0 41 30.5 71t72.5 30zM263 1312q43 0 73 -30t30 -72q0 -43 -30 -73t-73 -30t-72.5 30t-29.5 74q0 41 30 71t72 30zM145 -478l225 519l-369 867h157l289 -690l299 690h156l-607 -1386h-150z
" />
    <glyph glyph-name="Amacron" unicode="&#x100;" horiz-adv-x="1270" 
d="M950 386h-632l-146 -386h-158l526 1365h191l525 -1365h-159zM632 1217l-260 -689h523zM355 1554v130h560v-130h-560z" />
    <glyph glyph-name="amacron" unicode="&#x101;" 
d="M995 908v-908h-146v119q-128 -143 -319 -143q-119 0 -223 61q-112 64 -175 178q-61 109 -61 239q0 217 154 358q132 120 305 120q187 0 319 -144v120h146zM531 800q-149 0 -243 -120q-70 -88 -70 -225q0 -160 95 -255q92 -92 224 -92q156 0 247 121q68 91 68 227
q0 155 -92 252q-89 92 -229 92zM278 1145v130h560v-130h-560z" />
    <glyph glyph-name="Abreve" unicode="&#x102;" horiz-adv-x="1270" 
d="M950 386h-632l-146 -386h-158l526 1365h191l525 -1365h-159zM632 1217l-260 -689h523zM366 1734l125 10q3 -69 38 -109q41 -45 103 -45q126 0 148 154l125 -10q-12 -104 -64 -169q-80 -101 -208 -101q-132 0 -212 101q-54 69 -55 169z" />
    <glyph glyph-name="abreve" unicode="&#x103;" 
d="M995 908v-908h-146v119q-128 -143 -319 -143q-119 0 -223 61q-112 64 -175 178q-61 109 -61 239q0 217 154 358q132 120 305 120q187 0 319 -144v120h146zM531 800q-149 0 -243 -120q-70 -88 -70 -225q0 -160 95 -255q92 -92 224 -92q156 0 247 121q68 91 68 227
q0 155 -92 252q-89 92 -229 92zM267 1324l124 10q5 -69 39 -108q40 -45 103 -45q125 0 148 153l125 -10q-12 -104 -64 -168q-80 -101 -208 -101q-132 0 -212 101q-54 67 -55 168z" />
    <glyph glyph-name="Aogonek" unicode="&#x104;" horiz-adv-x="1270" 
d="M1110 0h-13l-147 386h-632l-146 -386h-158l526 1365h191l525 -1365q-74 -86 -74 -137q0 -53 67 -53q31 0 76 15l41 -104q-74 -27 -130 -27q-82 0 -135 44q-53 45 -53 113q0 72 62 149zM632 1217l-260 -689h523z" />
    <glyph glyph-name="aogonek" unicode="&#x105;" 
d="M849 0v119q-128 -143 -319 -143q-119 0 -223 61q-112 64 -175 178q-61 109 -61 239q0 217 154 358q132 120 305 120q187 0 319 -144v120h146v-908q-74 -86 -74 -137q0 -53 66 -53q31 0 76 15l41 -104q-74 -27 -129 -27q-82 0 -135 44q-53 45 -53 113q0 73 62 149z
M531 800q-149 0 -243 -120q-70 -88 -70 -225q0 -160 95 -255q92 -92 224 -92q156 0 247 121q68 91 68 227q0 155 -92 252q-89 92 -229 92z" />
    <glyph glyph-name="Cacute" unicode="&#x106;" horiz-adv-x="1356" 
d="M1281 1171l-105 -105q-70 74 -127 108q-117 72 -260 72q-266 0 -425 -201q-124 -157 -124 -363q0 -248 171 -411q158 -152 377 -152q115 0 205 43q91 42 190 141l104 -105q-87 -87 -163 -132q-152 -90 -333 -90q-200 0 -366 100q-153 92 -245 252q-94 166 -94 354
q0 189 94 353q95 168 256 260q161 94 354 94q144 0 258 -51t233 -167zM903 1799l143 -77l-256 -258l-92 53z" />
    <glyph glyph-name="cacute" unicode="&#x107;" horiz-adv-x="936" 
d="M885 778l-98 -98q-103 120 -247 120q-160 0 -253 -120q-69 -90 -69 -225q0 -161 94 -255q92 -92 231 -92q81 0 136 28t115 99l98 -98q-82 -86 -162 -124q-80 -37 -187 -37q-217 0 -353 156q-119 137 -119 323q0 218 154 357q131 120 318 120q191 0 342 -154zM618 1389
l143 -77l-256 -258l-92 53z" />
    <glyph glyph-name="Ccircumflex" unicode="&#x108;" horiz-adv-x="1356" 
d="M1281 1171l-105 -105q-70 74 -127 108q-117 72 -260 72q-266 0 -425 -201q-124 -157 -124 -363q0 -248 171 -411q158 -152 377 -152q115 0 205 43q91 42 190 141l104 -105q-87 -87 -163 -132q-152 -90 -333 -90q-200 0 -366 100q-153 92 -245 252q-94 166 -94 354
q0 189 94 353q95 168 256 260q161 94 354 94q144 0 258 -51t233 -167zM944 1464l-188 178l-188 -178l-106 53l236 258h116l236 -258z" />
    <glyph glyph-name="ccircumflex" unicode="&#x109;" horiz-adv-x="936" 
d="M885 778l-98 -98q-103 120 -247 120q-160 0 -253 -120q-69 -90 -69 -225q0 -161 94 -255q92 -92 231 -92q81 0 136 28t115 99l98 -98q-82 -86 -162 -124q-80 -37 -187 -37q-217 0 -353 156q-119 137 -119 323q0 218 154 357q131 120 318 120q191 0 342 -154zM697 1054
l-188 178l-188 -178l-106 53l236 258h116l236 -258z" />
    <glyph glyph-name="Cdotaccent" unicode="&#x10a;" horiz-adv-x="1356" 
d="M1281 1171l-105 -105q-70 74 -127 108q-117 72 -260 72q-266 0 -425 -201q-124 -157 -124 -363q0 -248 171 -411q158 -152 377 -152q115 0 205 43q91 42 190 141l104 -105q-87 -87 -163 -132q-152 -90 -333 -90q-200 0 -366 100q-153 92 -245 252q-94 166 -94 354
q0 189 94 353q95 168 256 260q161 94 354 94q144 0 258 -51t233 -167zM773 1722q43 0 73 -30t30 -72q0 -43 -30 -73t-73 -30t-72.5 30t-29.5 74q0 41 30 71t72 30z" />
    <glyph glyph-name="cdotaccent" unicode="&#x10b;" horiz-adv-x="936" 
d="M885 778l-98 -98q-103 120 -247 120q-160 0 -253 -120q-69 -90 -69 -225q0 -161 94 -255q92 -92 231 -92q81 0 136 28t115 99l98 -98q-82 -86 -162 -124q-80 -37 -187 -37q-217 0 -353 156q-119 137 -119 323q0 218 154 357q131 120 318 120q191 0 342 -154zM516 1312
q43 0 73 -30t30 -72q0 -43 -30 -73t-73 -30t-72.5 30t-29.5 74q0 41 30 71t72 30z" />
    <glyph glyph-name="Ccaron" unicode="&#x10c;" horiz-adv-x="1356" 
d="M1281 1171l-105 -105q-70 74 -127 108q-117 72 -260 72q-266 0 -425 -201q-124 -157 -124 -363q0 -248 171 -411q158 -152 377 -152q115 0 205 43q91 42 190 141l104 -105q-87 -87 -163 -132q-152 -90 -333 -90q-200 0 -366 100q-153 92 -245 252q-94 166 -94 354
q0 189 94 353q95 168 256 260q161 94 354 94q144 0 258 -51t233 -167zM568 1787l188 -178l188 178l106 -53l-236 -258h-116l-236 258z" />
    <glyph glyph-name="ccaron" unicode="&#x10d;" horiz-adv-x="936" 
d="M885 778l-98 -98q-103 120 -247 120q-160 0 -253 -120q-69 -90 -69 -225q0 -161 94 -255q92 -92 231 -92q81 0 136 28t115 99l98 -98q-82 -86 -162 -124q-80 -37 -187 -37q-217 0 -353 156q-119 137 -119 323q0 218 154 357q131 120 318 120q191 0 342 -154zM321 1377
l188 -178l188 178l106 -53l-236 -258h-116l-236 258z" />
    <glyph glyph-name="Dcaron" unicode="&#x10e;" horiz-adv-x="1267" 
d="M164 0v1365h280q306 0 502 -153q235 -184 235 -528q0 -347 -235 -531q-195 -153 -502 -153h-280zM451 1223h-134v-1081h134q240 0 391 121q185 149 185 421q0 271 -185 418q-152 121 -391 121zM406 1787l188 -178l188 178l106 -53l-236 -258h-116l-235 258z" />
    <glyph glyph-name="dcaron" unicode="&#x10f;" horiz-adv-x="1316" 
d="M995 1365v-1365h-146v119q-128 -143 -319 -143q-119 0 -223 61q-112 64 -175 178q-61 109 -61 239q0 217 154 358q132 120 305 120q187 0 319 -144v577h146zM531 800q-149 0 -243 -120q-70 -88 -70 -225q0 -160 95 -255q92 -92 224 -92q155 0 245 121q67 89 67 227
q0 157 -91 252q-87 92 -227 92zM1090 1066l96 323l141 -43l-134 -312z" />
    <glyph glyph-name="Dcroat" unicode="&#x110;" horiz-adv-x="1298" 
d="M58 804h137v561h280q305 0 502 -153q235 -183 235 -528q0 -347 -235 -531q-195 -153 -502 -153h-280v667h-137v137zM348 1223v-419h327v-137h-327v-525h134q240 0 391 121q185 147 185 421q0 271 -185 418q-152 121 -391 121h-134z" />
    <glyph glyph-name="dslash" unicode="&#x111;" 
d="M603 1198h246v167h146v-167h123v-132h-123v-1066h-146v119q-128 -143 -319 -143q-120 0 -223 61q-112 64 -175 178q-61 109 -61 239q0 217 154 358q132 120 305 120q187 0 319 -144v278h-246v132zM531 800q-149 0 -243 -120q-70 -88 -70 -225q0 -160 95 -255
q92 -92 224 -92q155 0 245 121q67 89 67 227q0 157 -91 252q-87 92 -227 92z" />
    <glyph glyph-name="Emacron" unicode="&#x112;" horiz-adv-x="973" 
d="M867 1365v-141h-550v-461h489v-142h-489v-479h571v-142h-724v1365h703zM246 1554v130h560v-130h-560z" />
    <glyph glyph-name="emacron" unicode="&#x113;" horiz-adv-x="1017" 
d="M945 392h-724q8 -57 26 -98q37 -89 115 -140q70 -46 160 -46q184 0 276 161l130 -55q-66 -116 -170.5 -177t-234.5 -61q-209 0 -339 157q-113 136 -113 324q0 127 57 237q62 114 167 178q101 60 217 60q191 0 312 -139q122 -140 122 -356q0 -24 -1 -45zM221 517h579
q-7 54 -25 98q-37 90 -110 140q-68 45 -152 45q-114 0 -194 -77q-78 -75 -98 -206zM228 1145v130h560v-130h-560z" />
    <glyph glyph-name="Ebreve" unicode="&#x114;" horiz-adv-x="973" 
d="M867 1365v-141h-550v-461h489v-142h-489v-479h571v-142h-724v1365h703zM256 1734l125 10q4 -70 39 -109q40 -45 102 -45q127 0 149 154l124 -10q-10 -103 -63 -169q-80 -101 -208 -101q-133 0 -213 101q-52 67 -55 169z" />
    <glyph glyph-name="ebreve" unicode="&#x115;" horiz-adv-x="1017" 
d="M945 392h-724q8 -57 26 -98q37 -89 115 -140q70 -46 160 -46q184 0 276 161l130 -55q-66 -116 -170.5 -177t-234.5 -61q-209 0 -339 157q-113 136 -113 324q0 127 57 237q62 114 167 178q101 60 217 60q191 0 312 -139q122 -140 122 -356q0 -24 -1 -45zM221 517h579
q-7 54 -25 98q-37 90 -110 140q-68 45 -152 45q-114 0 -194 -77q-78 -75 -98 -206zM246 1324l125 10q3 -69 38 -109q40 -45 103 -45q126 0 148 154l125 -10q-12 -104 -64 -169q-80 -101 -208 -101q-132 0 -212 101q-54 69 -55 169z" />
    <glyph glyph-name="Edotaccent" unicode="&#x116;" horiz-adv-x="973" 
d="M867 1365v-141h-550v-461h489v-142h-489v-479h571v-142h-724v1365h703zM525 1722q43 0 73 -30t30 -72q0 -43 -30 -73t-73 -30t-72.5 30t-29.5 74q0 41 30 71t72 30z" />
    <glyph glyph-name="edotaccent" unicode="&#x117;" horiz-adv-x="1017" 
d="M945 392h-724q8 -57 26 -98q37 -89 115 -140q70 -46 160 -46q184 0 276 161l130 -55q-66 -116 -170.5 -177t-234.5 -61q-209 0 -339 157q-113 136 -113 324q0 127 57 237q62 114 167 178q101 60 217 60q191 0 312 -139q122 -140 122 -356q0 -24 -1 -45zM221 517h579
q-7 54 -25 98q-37 90 -110 140q-68 45 -152 45q-114 0 -194 -77q-78 -75 -98 -206zM508 1312q43 0 73 -30t30 -72q0 -43 -30 -73t-73 -30t-72.5 30t-29.5 74q0 41 30 71t72 30z" />
    <glyph glyph-name="Eogonek" unicode="&#x118;" horiz-adv-x="973" 
d="M888 142v-142q-74 -83 -74 -137q0 -53 66 -53q31 0 76 15l41 -104q-73 -27 -129 -27q-82 0 -135 44q-53 45 -53 113q0 73 62 149h-578v1365h703v-141h-550v-461h489v-142h-489v-479h571z" />
    <glyph glyph-name="eogonek" unicode="&#x119;" horiz-adv-x="1017" 
d="M582 -20q-57 -69 -57 -117q0 -53 67 -53q30 0 76 15l40 -104q-72 -27 -129 -27q-81 0 -134 44q-54 45 -54 113t49 132q-78 15 -144 53q-106 64 -167 179q-58 109 -58 242q0 127 57 237q62 114 167 178q101 60 217 60q191 0 312 -139q122 -140 122 -356q0 -24 -1 -45h-724
q8 -57 26 -98q37 -89 115 -140q70 -46 160 -46q184 0 276 161l130 -55q-118 -202 -346 -234zM221 517h579q-7 54 -25 98q-37 90 -110 140q-68 45 -152 45q-114 0 -194 -77q-78 -75 -98 -206z" />
    <glyph glyph-name="Ecaron" unicode="&#x11a;" horiz-adv-x="973" 
d="M867 1365v-141h-550v-461h489v-142h-489v-479h571v-142h-724v1365h703zM337 1787l189 -178l188 178l105 -53l-235 -258h-116l-236 258z" />
    <glyph glyph-name="ecaron" unicode="&#x11b;" horiz-adv-x="1017" 
d="M945 392h-724q8 -57 26 -98q37 -89 115 -140q70 -46 160 -46q184 0 276 161l130 -55q-66 -116 -170.5 -177t-234.5 -61q-209 0 -339 157q-113 136 -113 324q0 127 57 237q62 114 167 178q101 60 217 60q191 0 312 -139q122 -140 122 -356q0 -24 -1 -45zM221 517h579
q-7 54 -25 98q-37 90 -110 140q-68 45 -152 45q-114 0 -194 -77q-78 -75 -98 -206zM320 1377l188 -178l189 178l105 -53l-236 -258h-116l-235 258z" />
    <glyph glyph-name="Gcircumflex" unicode="&#x11c;" horiz-adv-x="1490" 
d="M840 563v142h560v-75q0 -185 -68 -330q-64 -135 -186 -221q-148 -103 -352 -103q-282 0 -482 186q-108 101 -167 236t-59 281q0 190 94 356q95 168 256 260q160 94 354 94q144 0 258 -51t233 -167l-105 -105q-71 74 -127 108q-117 72 -260 72q-163 0 -294 -83
q-126 -80 -194 -218q-61 -123 -61 -265q0 -146 66 -271q70 -132 196 -209q130 -81 289 -81q185 0 308 111q138 124 144 333h-403zM945 1464l-189 178l-188 -178l-105 53l235 258h116l236 -258z" />
    <glyph glyph-name="gcircumflex" unicode="&#x11d;" 
d="M849 908h146v-925q0 -198 -107 -326q-64 -76 -160 -117.5t-208 -41.5q-127 0 -224 47q-94 46 -189 154l96 96q65 -79 118 -112q85 -53 198 -53q154 0 242 94t88 259v136q-128 -143 -319 -143q-119 0 -223 61q-112 64 -175 178q-61 109 -61 239q0 217 154 358
q132 120 305 120q187 0 319 -144v120zM531 800q-149 0 -243 -120q-70 -88 -70 -225q0 -160 95 -255q92 -92 224 -92q155 0 246 121q67 89 67 227q0 155 -92 252q-87 92 -227 92zM721 1054l-188 178l-189 -178l-105 53l236 258h116l235 -258z" />
    <glyph glyph-name="Gbreve" unicode="&#x11e;" horiz-adv-x="1490" 
d="M840 563v142h560v-75q0 -185 -68 -330q-64 -135 -186 -221q-148 -103 -352 -103q-282 0 -482 186q-108 101 -167 236t-59 281q0 190 94 356q95 168 256 260q160 94 354 94q144 0 258 -51t233 -167l-105 -105q-71 74 -127 108q-117 72 -260 72q-163 0 -294 -83
q-126 -80 -194 -218q-61 -123 -61 -265q0 -146 66 -271q70 -132 196 -209q130 -81 289 -81q185 0 308 111q138 124 144 333h-403zM524 1734l125 10q3 -69 38 -109q41 -45 103 -45q126 0 148 154l125 -10q-12 -104 -64 -169q-80 -101 -208 -101q-132 0 -212 101
q-54 69 -55 169z" />
    <glyph glyph-name="gbreve" unicode="&#x11f;" 
d="M849 908h146v-925q0 -198 -107 -326q-64 -76 -160 -117.5t-208 -41.5q-127 0 -224 47q-94 46 -189 154l96 96q65 -79 118 -112q85 -53 198 -53q154 0 242 94t88 259v136q-128 -143 -319 -143q-119 0 -223 61q-112 64 -175 178q-61 109 -61 239q0 217 154 358
q132 120 305 120q187 0 319 -144v120zM531 800q-149 0 -243 -120q-70 -88 -70 -225q0 -160 95 -255q92 -92 224 -92q155 0 246 121q67 89 67 227q0 155 -92 252q-87 92 -227 92zM267 1324l124 10q4 -70 39 -109q40 -45 103 -45q126 0 148 154l125 -10q-12 -104 -64 -169
q-80 -101 -208 -101q-132 0 -212 101q-54 69 -55 169z" />
    <glyph glyph-name="Gdotaccent" unicode="&#x120;" horiz-adv-x="1490" 
d="M840 563v142h560v-75q0 -185 -68 -330q-64 -135 -186 -221q-148 -103 -352 -103q-282 0 -482 186q-108 101 -167 236t-59 281q0 190 94 356q95 168 256 260q160 94 354 94q144 0 258 -51t233 -167l-105 -105q-71 74 -127 108q-117 72 -260 72q-163 0 -294 -83
q-126 -80 -194 -218q-61 -123 -61 -265q0 -146 66 -271q70 -132 196 -209q130 -81 289 -81q185 0 308 111q138 124 144 333h-403zM791 1722q43 0 73 -30t30 -72q0 -43 -30 -73t-73 -30t-72.5 30t-29.5 74q0 41 30 71t72 30z" />
    <glyph glyph-name="gdotaccent" unicode="&#x121;" 
d="M849 908h146v-925q0 -198 -107 -326q-64 -76 -160 -117.5t-208 -41.5q-127 0 -224 47q-94 46 -189 154l96 96q65 -79 118 -112q85 -53 198 -53q154 0 242 94t88 259v136q-128 -143 -319 -143q-119 0 -223 61q-112 64 -175 178q-61 109 -61 239q0 217 154 358
q132 120 305 120q187 0 319 -144v120zM531 800q-149 0 -243 -120q-70 -88 -70 -225q0 -160 95 -255q92 -92 224 -92q155 0 246 121q67 89 67 227q0 155 -92 252q-87 92 -227 92zM534 1312q43 0 73 -30t30 -72q0 -43 -30 -73t-73 -30t-72.5 30t-29.5 74q0 41 30 71t72 30z
" />
    <glyph glyph-name="Gcommaaccent" unicode="&#x122;" horiz-adv-x="1490" 
d="M840 563v142h560v-75q0 -185 -68 -330q-64 -135 -186 -221q-148 -103 -352 -103q-282 0 -482 186q-108 101 -167 236t-59 281q0 190 94 356q95 168 256 260q160 94 354 94q144 0 258 -51t233 -167l-105 -105q-71 74 -127 108q-117 72 -260 72q-163 0 -294 -83
q-126 -80 -194 -218q-61 -123 -61 -265q0 -146 66 -271q70 -132 196 -209q130 -81 289 -81q185 0 308 111q138 124 144 333h-403zM625 -418l95 323l142 -43l-135 -312z" />
    <glyph glyph-name="gcommaaccent" unicode="&#x123;" 
d="M849 908h146v-925q0 -198 -107 -326q-64 -76 -160 -117.5t-208 -41.5q-127 0 -224 47q-94 46 -189 154l96 96q65 -79 118 -112q85 -53 198 -53q154 0 242 94t88 259v136q-128 -143 -319 -143q-119 0 -223 61q-112 64 -175 178q-61 109 -61 239q0 217 154 358
q132 120 305 120q187 0 319 -144v120zM531 800q-149 0 -243 -120q-70 -88 -70 -225q0 -160 95 -255q92 -92 224 -92q155 0 246 121q67 89 67 227q0 155 -92 252q-87 92 -227 92zM705 1357l-95 -323l-142 43l135 312z" />
    <glyph glyph-name="Hcircumflex" unicode="&#x124;" horiz-adv-x="1331" 
d="M317 1365v-602h698v602h153v-1365h-153v621h-698v-621h-153v1365h153zM854 1464l-188 178l-189 -178l-105 53l236 258h116l235 -258z" />
    <glyph glyph-name="hcircumflex" unicode="&#x125;" horiz-adv-x="1043" 
d="M275 1365v-560q100 127 273 127q167 0 272 -115q50 -54 72 -130t22 -196v-491h-146v474q0 99 -14 155.5t-48 93.5q-63 69 -171 69q-132 0 -203 -86q-57 -69 -57 -252v-454h-146v1365h146zM717 1464l-189 178l-188 -178l-105 53l235 258h116l236 -258z" />
    <glyph glyph-name="Hbar" unicode="&#x126;" horiz-adv-x="1338" 
d="M1293 1066h-123v-1066h-153v621h-697v-621h-153v1066h-123v132h123v167h153v-167h697v167h153v-167h123v-132zM1017 763v303h-697v-303h697z" />
    <glyph glyph-name="hbar" unicode="&#x127;" horiz-adv-x="1044" 
d="M522 1066h-246v-261q100 127 273 127q167 0 272 -115q50 -54 72 -130t22 -196v-491h-146v474q0 99 -14 155.5t-48 93.5q-63 69 -171 69q-132 0 -203 -86q-57 -69 -57 -252v-454h-146v1066h-123v132h123v167h146v-167h246v-132z" />
    <glyph glyph-name="Itilde" unicode="&#x128;" horiz-adv-x="481" 
d="M163 1365h153v-1365h-153v1365zM401 1722l118 -28q-8 -85 -49 -129.5t-112 -44.5q-54 0 -139 39q-66 31 -89 31q-24 0 -35.5 -15.5t-17.5 -57.5l-116 27q9 82 52 128t111 46q45 0 142 -44q60 -26 87 -26q25 0 35 15t13 59z" />
    <glyph glyph-name="itilde" unicode="&#x129;" horiz-adv-x="408" 
d="M131 908h146v-908h-146v908zM365 1312l118 -27q-7 -84 -48.5 -129t-112.5 -45q-54 0 -139 39q-66 31 -89 31q-24 0 -35.5 -16t-17.5 -58l-116 28q9 81 52 127.5t111 46.5q46 0 142 -44q58 -26 87 -26q25 0 35 15t13 58z" />
    <glyph glyph-name="Imacron" unicode="&#x12a;" horiz-adv-x="481" 
d="M163 1365h153v-1365h-153v1365zM-40 1554v130h560v-130h-560z" />
    <glyph glyph-name="imacron" unicode="&#x12b;" horiz-adv-x="408" 
d="M131 908h146v-908h-146v908zM-76 1145v130h560v-130h-560z" />
    <glyph glyph-name="Ibreve" unicode="&#x12c;" horiz-adv-x="481" 
d="M164 1365h153v-1365h-153v1365zM-29 1734l125 10q4 -70 39 -109q41 -45 102 -45q127 0 148 154l125 -10q-10 -103 -63 -169q-80 -101 -209 -101q-132 0 -212 101q-54 69 -55 169z" />
    <glyph glyph-name="ibreve" unicode="&#x12d;" horiz-adv-x="408" 
d="M131 908h146v-908h-146v908zM-66 1324l125 10q4 -70 39 -109q40 -45 102 -45q127 0 148 154l125 -10q-10 -103 -63 -169q-80 -101 -209 -101q-132 0 -212 101q-54 69 -55 169z" />
    <glyph glyph-name="Iogonek" unicode="&#x12e;" horiz-adv-x="481" 
d="M171 0h-7v1365h153v-1365q-74 -89 -74 -137q0 -53 67 -53q32 0 75 15l41 -104q-72 -27 -129 -27q-82 0 -135 44q-53 45 -53 113q0 72 62 149z" />
    <glyph glyph-name="iogonek" unicode="&#x12f;" horiz-adv-x="408" 
d="M277 908v-908q-74 -89 -74 -137q0 -53 67 -53q30 0 75 15l41 -104q-74 -27 -129 -27q-82 0 -135 44q-53 45 -53 113q0 73 62 149v908h146zM205 1314q43 0 73.5 -30.5t30.5 -73.5q0 -44 -30.5 -74.5t-74.5 -30.5q-43 0 -73.5 31t-30.5 75q0 42 31 72.5t74 30.5z" />
    <glyph glyph-name="Idot" unicode="&#x130;" horiz-adv-x="481" 
d="M164 1365h153v-1365h-153v1365zM240 1722q43 0 73 -30t30 -72q0 -43 -30 -73t-73 -30t-72.5 30t-29.5 74q0 41 30 71t72 30z" />
    <glyph glyph-name="dotlessi" unicode="&#x131;" horiz-adv-x="408" 
d="M131 908h146v-908h-146v908z" />
    <glyph glyph-name="IJ" unicode="&#x132;" horiz-adv-x="1279" 
d="M164 1365h153v-1365h-153v1365zM963 1365h153v-956q0 -129 -23 -207q-23 -76 -78 -132q-94 -94 -238 -94q-85 0 -155 33t-158 113l93 110q116 -113 217 -113q97 0 143 70.5t46 219.5v956z" />
    <glyph glyph-name="ij" unicode="&#x133;" horiz-adv-x="807" 
d="M131 908h146v-908h-146v908zM205 1314q43 0 73.5 -30.5t30.5 -73.5q0 -44 -30.5 -74.5t-74.5 -30.5q-43 0 -73.5 31t-30.5 75q0 42 31 72.5t74 30.5zM604 1314q43 0 73.5 -30.5t30.5 -73.5q0 -44 -30.5 -74.5t-73.5 -30.5q-44 0 -74.5 31t-30.5 75q0 42 31 72.5t74 30.5z
M530 -205v1113h146v-1113q0 -286 -220 -286q-41 0 -90 13v133q39 -10 62 -10q102 0 102 150z" />
    <glyph glyph-name="Jcircumflex" unicode="&#x134;" horiz-adv-x="823" 
d="M506 1365h153v-956q0 -129 -23 -207q-22 -76 -78 -132q-94 -94 -238 -94q-84 0 -154 33q-71 32 -159 113l93 110q116 -113 217 -113q97 0 143 70.5t46 219.5v956zM694 1464l-188 178l-188 -178l-106 53l236 258h116l236 -258z" />
    <glyph glyph-name="jcircumflex" unicode="&#x135;" horiz-adv-x="427" 
d="M150 -205v1113h146v-1113q0 -286 -220 -286q-41 0 -90 13v133q39 -10 62 -10q102 0 102 150zM382 1054l-188 178l-189 -178l-105 53l236 258h116l235 -258z" />
    <glyph glyph-name="Kcommaaccent" unicode="&#x136;" horiz-adv-x="1162" 
d="M493 -418l95 323l142 -43l-135 -312zM1135 1365l-515 -565l529 -800h-179l-452 688l-201 -221v-467h-153v1365h153v-698l635 698h183z" />
    <glyph glyph-name="kcommaaccent" unicode="&#x137;" horiz-adv-x="952" 
d="M900 907l-371 -368l419 -539h-181l-336 441l-156 -154v-287h-146v1365h146v-896l438 439zM352 -418l96 323l141 -43l-135 -312z" />
    <glyph glyph-name="kgreenlandic" unicode="&#x138;" horiz-adv-x="952" 
d="M900 908l-371 -369l419 -539h-181l-336 441l-156 -154v-287h-146v908h146v-439l438 439h187z" />
    <glyph glyph-name="Lacute" unicode="&#x139;" horiz-adv-x="860" 
d="M164 1365h153v-1223h530v-142h-683v1365zM359 1799l143 -77l-256 -258l-92 53z" />
    <glyph glyph-name="lacute" unicode="&#x13a;" horiz-adv-x="408" 
d="M277 1365v-1365h-146v1365h146zM329 1823l143 -77l-256 -258l-92 53z" />
    <glyph glyph-name="Lcommaaccent" unicode="&#x13b;" horiz-adv-x="872" 
d="M164 1365h153v-1223h530v-142h-683v1365zM387 -418l96 323l141 -43l-135 -312z" />
    <glyph glyph-name="lcommaaccent" unicode="&#x13c;" horiz-adv-x="408" 
d="M278 1365v-1365h-146v1365h146zM51 -418l96 323l141 -43l-135 -312z" />
    <glyph glyph-name="Lcaron" unicode="&#x13d;" horiz-adv-x="872" 
d="M164 1365h153v-1223h530v-142h-683v1365zM522 1066l95 323l142 -43l-135 -312z" />
    <glyph glyph-name="lcaron" unicode="&#x13e;" horiz-adv-x="599" 
d="M277 1365v-1365h-146v1365h146zM373 1066l95 323l142 -43l-135 -312z" />
    <glyph glyph-name="Ldot" unicode="&#x13f;" horiz-adv-x="872" 
d="M653 784q42 0 71.5 -29.5t29.5 -71.5t-29.5 -71.5t-71.5 -29.5t-71.5 30t-29.5 72q0 41 30 70.5t71 29.5zM164 1365h153v-1223h530v-142h-683v1365z" />
    <glyph glyph-name="ldot" unicode="&#x140;" horiz-adv-x="692" 
d="M277 1365v-1365h-146v1365h146zM550 784q42 0 71.5 -29.5t29.5 -71.5t-29.5 -71.5t-71.5 -29.5t-71.5 30t-29.5 72q0 41 30 70.5t71 29.5z" />
    <glyph glyph-name="Lslash" unicode="&#x141;" horiz-adv-x="902" 
d="M58 644l137 95v626h153v-559l233 164v-155l-233 -164v-509h529v-142h-682v584l-137 -95v155z" />
    <glyph glyph-name="lslash" unicode="&#x142;" horiz-adv-x="512" 
d="M183 0v586l-132 -88v160l132 88v619h146v-521l132 88v-160l-132 -88v-684h-146z" />
    <glyph glyph-name="Nacute" unicode="&#x143;" horiz-adv-x="1454" 
d="M317 0h-153v1365h143l830 -1116v1116h153v-1365h-143l-830 1116v-1116zM860 1799l144 -77l-257 -258l-91 53z" />
    <glyph glyph-name="nacute" unicode="&#x144;" horiz-adv-x="1043" 
d="M275 908v-102q101 126 273 126q167 0 272 -115q50 -54 72 -130.5t22 -194.5v-492h-146v474q0 99 -14 155.5t-48 93.5q-64 69 -171 69q-132 0 -203 -86q-57 -69 -57 -252v-454h-146v908h146zM658 1389l144 -77l-257 -258l-92 53z" />
    <glyph glyph-name="Ncommaaccent" unicode="&#x145;" horiz-adv-x="1454" 
d="M317 0h-153v1365h143l830 -1116v1116h153v-1365h-143l-830 1116v-1116zM609 -418l95 323l142 -43l-135 -312z" />
    <glyph glyph-name="ncommaaccent" unicode="&#x146;" horiz-adv-x="1043" 
d="M275 908v-102q101 126 273 126q167 0 272 -115q50 -54 72 -130.5t22 -194.5v-492h-146v474q0 99 -14 155.5t-48 93.5q-64 69 -171 69q-132 0 -203 -86q-57 -69 -57 -252v-454h-146v908h146zM403 -418l96 323l141 -43l-134 -312z" />
    <glyph glyph-name="Ncaron" unicode="&#x147;" horiz-adv-x="1454" 
d="M317 0h-153v1365h143l830 -1116v1116h153v-1365h-143l-830 1116v-1116zM573 1787l188 -178l189 178l105 -53l-236 -258h-116l-235 258z" />
    <glyph glyph-name="ncaron" unicode="&#x148;" horiz-adv-x="1043" 
d="M275 908v-102q101 126 273 126q167 0 272 -115q50 -54 72 -130.5t22 -194.5v-492h-146v474q0 99 -14 155.5t-48 93.5q-64 69 -171 69q-132 0 -203 -86q-57 -69 -57 -252v-454h-146v908h146zM343 1377l189 -178l188 178l105 -53l-235 -258h-116l-236 258z" />
    <glyph glyph-name="napostrophe" unicode="&#x149;" horiz-adv-x="1208" 
d="M440 908v-102q100 126 273 126q167 0 272 -115q50 -54 72 -130.5t22 -194.5v-492h-146v474q0 99 -14 155.5t-48 93.5q-65 69 -171 69q-132 0 -203 -86q-57 -69 -57 -252v-454h-146v908h146zM0 872l170 471l134 -49l-206 -461z" />
    <glyph glyph-name="Eng" unicode="&#x14a;" horiz-adv-x="1454" 
d="M1137 1365h153v-1384q0 -287 -220 -287q-36 0 -90 14v132q39 -10 62 -10q102 0 102 151v23l-827 1112v-1116h-153v1365h143l830 -1116v1116z" />
    <glyph glyph-name="eng" unicode="&#x14b;" horiz-adv-x="1043" 
d="M604 -292v132q39 -10 62 -10q102 0 102 151v493q0 99 -14 155.5t-48 93.5q-63 69 -171 69q-132 0 -203 -86q-57 -69 -57 -252v-454h-146v908h146v-102q101 126 273 126q167 0 272 -115q50 -54 72 -130.5t22 -194.5v-511q0 -287 -220 -287q-36 0 -90 14z" />
    <glyph glyph-name="Omacron" unicode="&#x14c;" horiz-adv-x="1565" 
d="M782 1389q187 0 344 -94q164 -98 258 -260q95 -164 95 -353q0 -188 -95 -354q-92 -158 -248 -252q-166 -100 -359 -100q-182 0 -348 100q-156 94 -248 252q-95 167 -95 365q0 184 95 342q100 168 258 260q160 94 343 94zM778 1246q-151 0 -279 -83q-129 -83 -197 -218
q-62 -122 -62 -272q0 -140 67 -264q70 -130 199 -210q131 -80 276 -80q146 0 277 80q128 79 199 210q67 125 67 273q0 240 -166 407q-156 157 -381 157zM502 1554v130h560v-130h-560z" />
    <glyph glyph-name="omacron" unicode="&#x14d;" horiz-adv-x="1077" 
d="M546 932q203 0 341 -156q119 -136 119 -321q0 -218 -154 -359q-130 -120 -314 -120q-212 0 -348 156q-119 136 -119 326q0 213 154 354q131 120 321 120zM533 799q-151 0 -245 -120q-70 -88 -70 -225q0 -159 95 -254q92 -92 225 -92q159 0 252 120q69 92 69 229
q0 156 -94 250q-92 92 -232 92zM259 1145v130h560v-130h-560z" />
    <glyph glyph-name="Obreve" unicode="&#x14e;" horiz-adv-x="1565" 
d="M782 1389q187 0 344 -94q164 -98 258 -260q95 -164 95 -353q0 -188 -95 -354q-92 -158 -248 -252q-166 -100 -359 -100q-182 0 -348 100q-156 94 -248 252q-95 167 -95 365q0 184 95 342q100 168 258 260q160 94 343 94zM778 1246q-151 0 -279 -83q-129 -83 -197 -218
q-62 -122 -62 -272q0 -140 67 -264q70 -130 199 -210q131 -80 276 -80q146 0 277 80q128 79 199 210q67 125 67 273q0 240 -166 407q-156 157 -381 157zM513 1734l125 10q3 -69 38 -109q41 -45 103 -45q126 0 148 154l125 -10q-12 -104 -64 -169q-80 -101 -208 -101
q-132 0 -212 101q-54 69 -55 169z" />
    <glyph glyph-name="obreve" unicode="&#x14f;" horiz-adv-x="1077" 
d="M546 932q203 0 341 -156q119 -136 119 -321q0 -218 -154 -359q-130 -120 -314 -120q-212 0 -348 156q-119 136 -119 326q0 213 154 354q131 120 321 120zM533 799q-151 0 -245 -120q-70 -88 -70 -225q0 -159 95 -254q92 -92 225 -92q159 0 252 120q69 92 69 229
q0 156 -94 250q-92 92 -232 92zM269 1324l125 10q4 -70 39 -109q41 -45 102 -45q127 0 148 154l125 -10q-10 -103 -63 -169q-80 -101 -209 -101q-132 0 -212 101q-54 69 -55 169z" />
    <glyph glyph-name="Ohungarumlaut" unicode="&#x150;" horiz-adv-x="1565" 
d="M782 1389q187 0 344 -94q164 -98 258 -260q95 -164 95 -353q0 -188 -95 -354q-92 -158 -248 -252q-166 -100 -359 -100q-182 0 -348 100q-156 94 -248 252q-95 167 -95 365q0 184 95 342q100 168 258 260q160 94 343 94zM778 1246q-151 0 -279 -83q-129 -83 -197 -218
q-62 -122 -62 -272q0 -140 67 -264q70 -130 199 -210q131 -80 276 -80q146 0 277 80q128 79 199 210q67 125 67 273q0 240 -166 407q-156 157 -381 157zM762 1799l136 -77l-256 -258l-85 53zM1049 1799l136 -77l-256 -258l-85 53z" />
    <glyph glyph-name="ohungarumlaut" unicode="&#x151;" horiz-adv-x="1077" 
d="M546 932q203 0 341 -156q119 -136 119 -321q0 -218 -154 -359q-130 -120 -314 -120q-212 0 -348 156q-119 136 -119 326q0 213 154 354q131 120 321 120zM533 799q-151 0 -245 -120q-70 -88 -70 -225q0 -159 95 -254q92 -92 225 -92q159 0 252 120q69 92 69 229
q0 156 -94 250q-92 92 -232 92zM539 1389l136 -77l-256 -258l-85 53zM825 1389l137 -77l-256 -258l-85 53z" />
    <glyph glyph-name="OE" unicode="&#x152;" horiz-adv-x="2134" 
d="M1324 1123v242h704v-141h-551v-461h489v-142h-489v-479h571v-142h-724v242q-51 -63 -108 -110q-193 -156 -434 -156q-189 0 -353 100q-156 94 -248 252q-95 166 -95 354q0 187 95 353t258 260q160 94 343 94q268 0 467 -186q39 -35 75 -80zM778 1245q-151 0 -279 -83
q-129 -83 -197 -218q-62 -122 -62 -272q0 -139 67 -263q70 -130 199 -210q131 -80 276 -80q146 0 277 80q127 79 198 210q67 125 67 272q0 241 -166 407q-156 157 -380 157z" />
    <glyph glyph-name="oe" unicode="&#x153;" horiz-adv-x="1804" 
d="M931 719q137 213 369 213q172 0 292 -121q141 -139 141 -370v-49h-724q8 -57 26 -98q37 -90 114 -140q70 -46 160 -46q184 0 277 161l130 -55q-68 -116 -172 -177t-234 -61q-119 0 -217.5 55.5t-161.5 158.5q-38 -60 -89 -104q-130 -110 -303 -110q-213 0 -349 156
q-119 137 -119 322q0 219 154 358q131 120 313 120q122 0 225 -56t168 -157zM533 800q-152 0 -245 -120q-70 -89 -70 -225q0 -158 95 -255q92 -92 225 -92q159 0 252 121q69 90 69 229q0 155 -94 250q-92 92 -232 92zM1009 517h579q-7 54 -25 98q-37 90 -110 140
q-68 45 -152 45q-114 0 -194 -77q-78 -75 -98 -206z" />
    <glyph glyph-name="Racute" unicode="&#x154;" horiz-adv-x="1092" 
d="M628 1799l144 -77l-257 -258l-92 53zM714 592l327 -592h-170l-307 559q-76 -6 -120 -6h-127v-553h-153v1365h280q134 0 220 -24q85 -24 150 -80q63 -54 99 -136t36 -173q0 -188 -135 -300q-43 -35 -100 -60zM317 1224v-532h145q172 0 253 66q84 69 84 194q0 128 -84 202
q-79 70 -253 70h-145z" />
    <glyph glyph-name="racute" unicode="&#x155;" horiz-adv-x="600" 
d="M275 908v-102q84 103 236 103q18 0 48 -2v-131q-16 1 -40 1q-93 0 -153 -45q-52 -40 -71 -103q-20 -66 -20 -191v-438h-146v908h146zM402 1389l143 -77l-256 -258l-92 53z" />
    <glyph glyph-name="Rcommaaccent" unicode="&#x156;" horiz-adv-x="1092" 
d="M445 -418l96 323l141 -43l-135 -312zM714 592l327 -592h-170l-307 559q-76 -6 -120 -6h-127v-553h-153v1365h280q134 0 220 -24q85 -24 150 -80q63 -54 99 -136t36 -173q0 -188 -135 -300q-43 -35 -100 -60zM317 1224v-532h145q172 0 253 66q84 69 84 194q0 128 -84 202
q-79 70 -253 70h-145z" />
    <glyph glyph-name="rcommaaccent" unicode="&#x157;" horiz-adv-x="600" 
d="M275 908v-102q84 103 236 103q18 0 48 -2v-131q-16 1 -39 1q-94 0 -153 -45q-53 -39 -72 -103q-20 -66 -20 -191v-438h-146v908h146zM48 -418l96 323l141 -43l-135 -312z" />
    <glyph glyph-name="Rcaron" unicode="&#x158;" horiz-adv-x="1092" 
d="M337 1787l189 -178l188 178l105 -53l-235 -258h-116l-236 258zM714 592l327 -592h-170l-307 559q-76 -6 -120 -6h-127v-553h-153v1365h280q134 0 220 -24q85 -24 150 -80q63 -54 99 -136t36 -173q0 -188 -135 -300q-43 -35 -100 -60zM317 1224v-532h145q172 0 253 66
q84 69 84 194q0 128 -84 202q-79 70 -253 70h-145z" />
    <glyph glyph-name="rcaron" unicode="&#x159;" horiz-adv-x="600" 
d="M276 908v-102q84 103 236 103q18 0 48 -2v-131q-16 1 -39 1q-94 0 -154 -45q-52 -40 -71 -103q-20 -66 -20 -191v-438h-146v908h146zM156 1377l189 -178l188 178l105 -53l-235 -258h-116l-236 258z" />
    <glyph glyph-name="Sacute" unicode="&#x15a;" horiz-adv-x="1035" 
d="M903 1174l-122 -79q-98 152 -247 152q-70 0 -125 -28t-89 -83.5t-34 -117.5q0 -138 198 -215l134 -52q164 -63 240 -148q79 -88 79 -215q0 -186 -143 -309q-121 -103 -291 -103q-162 0 -272 92t-149 259l148 42q61 -250 278 -250q120 0 199 82q76 79 76 185q0 82 -54 137
t-184 106l-128 50q-282 111 -282 341q0 178 140 285q111 84 264 84q232 0 364 -215zM650 1799l143 -77l-256 -258l-92 53z" />
    <glyph glyph-name="sacute" unicode="&#x15b;" horiz-adv-x="760" 
d="M662 768l-117 -62q-30 46 -57 66q-44 32 -101 32q-65 0 -107.5 -36t-42.5 -92q0 -53 40 -87q19 -16 118 -55l89 -35q109 -42 157.5 -97.5t48.5 -137.5q0 -127 -97 -212q-88 -76 -217 -76q-225 0 -315 232l126 53q41 -85 84 -120q43 -34 111 -34q82 0 127 53q36 43 36 97
q0 51 -30 79q-32 29 -130 66l-98 39q-186 72 -186 229q0 118 90 192q85 70 200 70q179 0 271 -164zM490 1389l144 -77l-257 -258l-92 53z" />
    <glyph glyph-name="Scircumflex" unicode="&#x15c;" horiz-adv-x="1035" 
d="M903 1174l-122 -79q-98 152 -247 152q-70 0 -125 -28t-89 -83.5t-34 -117.5q0 -138 198 -215l134 -52q164 -63 240 -148q79 -88 79 -215q0 -186 -143 -309q-121 -103 -291 -103q-162 0 -272 92t-149 259l148 42q61 -250 278 -250q120 0 199 82q76 79 76 185q0 82 -54 137
t-184 106l-128 50q-282 111 -282 341q0 178 140 285q111 84 264 84q232 0 364 -215zM698 1464l-189 178l-188 -178l-105 53l235 258h117l235 -258z" />
    <glyph glyph-name="scircumflex" unicode="&#x15d;" horiz-adv-x="760" 
d="M662 768l-117 -62q-30 46 -57 66q-44 32 -101 32q-65 0 -107.5 -36t-42.5 -92q0 -53 40 -87q19 -16 118 -55l89 -35q109 -42 157.5 -97.5t48.5 -137.5q0 -127 -97 -212q-88 -76 -217 -76q-225 0 -315 232l126 53q41 -85 84 -120q43 -34 111 -34q82 0 127 53q36 43 36 97
q0 51 -30 79q-32 29 -130 66l-98 39q-186 72 -186 229q0 118 90 192q85 70 200 70q179 0 271 -164zM566 1054l-189 178l-188 -178l-105 53l235 258h117l235 -258z" />
    <glyph glyph-name="Scedilla" unicode="&#x15e;" horiz-adv-x="1035" 
d="M903 1174l-122 -79q-98 152 -247 152q-70 0 -125 -28t-89 -83.5t-34 -117.5q0 -138 198 -215l134 -52q164 -63 240 -148q79 -88 79 -215q0 -186 -143 -309q-121 -103 -291 -103q-162 0 -272 92t-149 259l148 42q61 -250 278 -250q120 0 199 82q76 79 76 185q0 82 -54 137
t-184 106l-128 50q-282 111 -282 341q0 178 140 285q111 84 264 84q232 0 364 -215zM528 -96l135 -58l-207 -262l-100 50z" />
    <glyph glyph-name="scedilla" unicode="&#x15f;" horiz-adv-x="760" 
d="M662 768l-117 -62q-30 46 -57 66q-44 32 -101 32q-65 0 -107.5 -36t-42.5 -92q0 -53 40 -87q19 -16 118 -55l89 -35q109 -42 157.5 -97.5t48.5 -137.5q0 -127 -97 -212q-88 -76 -217 -76q-225 0 -315 232l126 53q41 -85 84 -120q43 -34 111 -34q82 0 127 53q36 43 36 97
q0 51 -30 79q-32 29 -130 66l-98 39q-186 72 -186 229q0 118 90 192q85 70 200 70q179 0 271 -164zM379 -96l135 -58l-207 -262l-100 50z" />
    <glyph glyph-name="Scaron" unicode="&#x160;" horiz-adv-x="1035" 
d="M903 1174l-122 -79q-98 152 -247 152q-70 0 -125 -28t-89 -83.5t-34 -117.5q0 -138 198 -215l134 -52q164 -63 240 -148q79 -88 79 -215q0 -186 -143 -309q-121 -103 -291 -103q-162 0 -272 92t-149 259l148 42q61 -250 278 -250q120 0 199 82q76 79 76 185q0 82 -54 137
t-184 106l-128 50q-282 111 -282 341q0 178 140 285q111 84 264 84q232 0 364 -215zM321 1787l188 -178l189 178l105 -53l-235 -258h-117l-235 258z" />
    <glyph glyph-name="scaron" unicode="&#x161;" horiz-adv-x="760" 
d="M662 768l-117 -62q-30 46 -57 66q-44 32 -101 32q-65 0 -107.5 -36t-42.5 -92q0 -53 40 -87q19 -16 118 -55l89 -35q109 -42 157.5 -97.5t48.5 -137.5q0 -127 -97 -212q-88 -76 -217 -76q-225 0 -315 232l126 53q41 -85 84 -120q43 -34 111 -34q82 0 127 53q36 43 36 97
q0 51 -30 79q-32 29 -130 66l-98 39q-186 72 -186 229q0 118 90 192q85 70 200 70q179 0 271 -164zM189 1377l188 -178l189 178l105 -53l-235 -258h-117l-235 258z" />
    <glyph glyph-name="Tcommaaccent" unicode="&#x162;" horiz-adv-x="887" 
d="M874 1224h-353v-1224h-153v1224h-354v141h860v-141zM294 -418l95 323l142 -43l-135 -312z" />
    <glyph glyph-name="tcommaaccent" unicode="&#x163;" horiz-adv-x="504" 
d="M443 776h-151v-503q0 -151 102 -151q25 0 62 10v-132q-51 -14 -90 -14q-220 0 -220 287v503h-102v132h102v215l146 58v-273h151v-132zM132 -418l95 323l142 -43l-135 -312z" />
    <glyph glyph-name="Tcaron" unicode="&#x164;" horiz-adv-x="887" 
d="M874 1224h-353v-1224h-153v1224h-354v141h860v-141zM256 1787l188 -178l188 178l106 -53l-236 -258h-116l-235 258z" />
    <glyph glyph-name="tcaron" unicode="&#x165;" horiz-adv-x="614" 
d="M443 776h-151v-503q0 -151 102 -151q25 0 62 10v-132q-51 -14 -90 -14q-220 0 -220 287v503h-102v132h102v215l146 58v-273h151v-132zM388 1066l96 323l141 -43l-135 -312z" />
    <glyph glyph-name="Tbar" unicode="&#x166;" horiz-adv-x="887" 
d="M738 776h-217v-776h-153v776h-217v132h217v316h-354v141h860v-141h-353v-316h217v-132z" />
    <glyph glyph-name="tbar" unicode="&#x167;" horiz-adv-x="504" 
d="M146 273v272h-102v125h102v113h-102v125h102v215l146 58v-273h151v-125h-151v-113h151v-125h-151v-272q0 -151 102 -151q25 0 62 10v-132q-51 -14 -90 -14q-220 0 -220 287z" />
    <glyph glyph-name="Utilde" unicode="&#x168;" horiz-adv-x="1301" 
d="M164 1365h153v-846q0 -108 10 -159q10 -55 36 -97q38 -62 115 -102q80 -43 172 -43q127 0 225 76q65 50 87 117q22 65 22 208v846h153v-887q0 -109 -20.5 -182.5t-68.5 -134.5q-71 -91 -181 -140q-102 -46 -216 -46q-166 0 -297 91q-103 71 -146 166q-44 97 -44 246v887z
M812 1722l118 -28q-8 -85 -49 -129.5t-112 -44.5q-53 0 -139 39q-66 31 -89 31q-24 0 -35.5 -15.5t-17.5 -57.5l-116 27q9 82 52 128t111 46q45 0 142 -44q60 -26 87 -26q25 0 35 15t13 59z" />
    <glyph glyph-name="utilde" unicode="&#x169;" horiz-adv-x="1043" 
d="M768 0v102q-100 -126 -273 -126q-167 0 -272 115q-50 54 -72 130.5t-22 194.5v492h146v-475q0 -98 14 -154.5t48 -93.5q63 -69 171 -69q132 0 203 86q57 69 57 252v454h146v-908h-146zM683 1312l117 -27q-7 -84 -48 -129t-112 -45q-54 0 -139 39q-66 31 -89 31
q-24 0 -35.5 -15.5t-18.5 -58.5l-115 28q9 81 52 127.5t110 46.5q47 0 143 -44q58 -26 87 -26q25 0 35 15t13 58z" />
    <glyph glyph-name="Umacron" unicode="&#x16a;" horiz-adv-x="1301" 
d="M164 1365h153v-846q0 -108 10 -159q10 -55 36 -97q38 -62 115 -102q80 -43 172 -43q127 0 225 76q65 50 87 117q22 65 22 208v846h153v-887q0 -109 -20.5 -182.5t-68.5 -134.5q-71 -91 -181 -140q-102 -46 -216 -46q-166 0 -297 91q-103 71 -146 166q-44 97 -44 246v887z
M371 1554v130h560v-130h-560z" />
    <glyph glyph-name="umacron" unicode="&#x16b;" horiz-adv-x="1043" 
d="M768 0v102q-100 -126 -273 -126q-167 0 -272 115q-50 54 -72 130.5t-22 194.5v492h146v-475q0 -98 14 -154.5t48 -93.5q63 -69 171 -69q132 0 203 86q57 69 57 252v454h146v-908h-146zM242 1145v130h559v-130h-559z" />
    <glyph glyph-name="Ubreve" unicode="&#x16c;" horiz-adv-x="1301" 
d="M164 1365h153v-846q0 -108 10 -159q10 -55 36 -97q38 -62 115 -102q80 -43 172 -43q127 0 225 76q65 50 87 117q22 65 22 208v846h153v-887q0 -109 -20.5 -182.5t-68.5 -134.5q-71 -91 -181 -140q-102 -46 -216 -46q-166 0 -297 91q-103 71 -146 166q-44 97 -44 246v887z
M381 1734l125 10q4 -70 39 -109q41 -45 102 -45q127 0 148 154l125 -10q-10 -103 -63 -169q-80 -101 -208 -101q-133 0 -213 101q-52 67 -55 169z" />
    <glyph glyph-name="ubreve" unicode="&#x16d;" horiz-adv-x="1043" 
d="M768 0v102q-100 -126 -273 -126q-167 0 -272 115q-50 54 -72 130.5t-22 194.5v492h146v-475q0 -98 14 -154.5t48 -93.5q63 -69 171 -69q132 0 203 86q57 69 57 252v454h146v-908h-146zM252 1324l125 10q3 -69 38 -109q40 -45 103 -45q127 0 148 154l125 -10
q-10 -101 -64 -169q-80 -101 -208 -101q-132 0 -212 101q-54 69 -55 169z" />
    <glyph glyph-name="Uring" unicode="&#x16e;" horiz-adv-x="1301" 
d="M164 1365h153v-846q0 -108 10 -159q10 -55 36 -97q38 -62 115 -102q80 -43 172 -43q127 0 225 76q65 50 87 117q22 65 22 208v846h153v-887q0 -109 -20.5 -182.5t-68.5 -134.5q-71 -91 -181 -140q-102 -46 -216 -46q-166 0 -297 91q-103 71 -146 166q-44 97 -44 246v887z
M650 1799q78 0 131 -52q53 -53 53 -127t-53 -127q-55 -53 -130 -53q-77 0 -130 53q-54 53 -54 129q0 72 54 125q53 52 129 52zM651 1725q-45 0 -75.5 -31t-30.5 -76q0 -42 31 -73t75 -31q43 0 74 31t31 74q0 44 -30.5 75t-74.5 31z" />
    <glyph glyph-name="uring" unicode="&#x16f;" horiz-adv-x="1043" 
d="M768 0v102q-100 -126 -273 -126q-167 0 -272 115q-50 54 -72 130.5t-22 194.5v492h146v-475q0 -98 14 -154.5t48 -93.5q63 -69 171 -69q132 0 203 86q57 69 57 252v454h146v-908h-146zM521 1389q78 0 131 -52q53 -53 53 -127t-53 -127q-55 -53 -130 -53q-77 0 -130 53
q-54 53 -54 129q0 72 54 125q53 52 129 52zM522 1315q-45 0 -75.5 -31t-30.5 -76q0 -42 31 -73t75 -31q43 0 74 31t31 74q0 44 -30.5 75t-74.5 31z" />
    <glyph glyph-name="Uhungarumlaut" unicode="&#x170;" horiz-adv-x="1301" 
d="M164 1365h153v-846q0 -108 10 -159q10 -55 36 -97q38 -62 115 -102q80 -43 172 -43q127 0 225 76q65 50 87 117q22 65 22 208v846h153v-887q0 -109 -20.5 -182.5t-68.5 -134.5q-71 -91 -181 -140q-102 -46 -216 -46q-166 0 -297 91q-103 71 -146 166q-44 97 -44 246v887z
M610 1799l136 -77l-256 -258l-85 53zM897 1799l136 -77l-256 -258l-85 53z" />
    <glyph glyph-name="uhungarumlaut" unicode="&#x171;" horiz-adv-x="1043" 
d="M768 0v102q-100 -126 -273 -126q-167 0 -272 115q-50 54 -72 130.5t-22 194.5v492h146v-475q0 -98 14 -154.5t48 -93.5q63 -69 171 -69q132 0 203 86q57 69 57 252v454h146v-908h-146zM491 1389l136 -77l-256 -258l-85 53zM778 1389l136 -77l-256 -258l-85 53z" />
    <glyph glyph-name="Uogonek" unicode="&#x172;" horiz-adv-x="1301" 
d="M731 -19q-58 -68 -58 -118q0 -53 66 -53q33 0 76 15l41 -104q-72 -27 -129 -27q-82 0 -135 44q-53 45 -53 113q0 66 46 128q-204 29 -312.5 157.5t-108.5 341.5v887h153v-846q0 -108 10 -159q10 -54 36 -98q38 -61 115 -101q80 -43 172 -43q127 0 225 76q65 50 87 117
q22 65 22 208v846h153v-887q0 -161 -50 -256q-83 -159 -270 -220q-40 -13 -86 -21z" />
    <glyph glyph-name="uogonek" unicode="&#x173;" horiz-adv-x="1043" 
d="M914 908v-908q-74 -86 -74 -137q0 -53 66 -53q31 0 76 15l41 -104q-73 -27 -129 -27q-82 0 -135 44q-53 45 -53 113q0 73 62 149v102q-100 -126 -273 -126q-167 0 -272 115q-50 54 -72 130.5t-22 194.5v492h146v-475q0 -98 14 -154.5t48 -93.5q63 -69 171 -69
q132 0 203 86q57 69 57 252v454h146z" />
    <glyph glyph-name="Wcircumflex" unicode="&#x174;" horiz-adv-x="1802" 
d="M14 1365h159l338 -1143l322 1143h137l322 -1143l339 1143h158l-416 -1365h-81h-77l-314 1106l-314 -1106h-76h-81zM1090 1464l-189 178l-188 -178l-105 53l236 258h116l235 -258z" />
    <glyph glyph-name="wcircumflex" unicode="&#x175;" horiz-adv-x="1368" 
d="M872 1054l-188 178l-189 -178l-105 53l236 258h116l235 -258zM1 908h156l249 -690l216 690h123l217 -690l249 690h155l-341 -908h-123l-218 683l-219 -683h-123z" />
    <glyph glyph-name="Ycircumflex" unicode="&#x176;" horiz-adv-x="1038" 
d="M442 0v570l-442 795h167l352 -652l352 652h166l-442 -795v-570h-153zM708 1464l-188 178l-189 -178l-105 53l236 258h116l235 -258z" />
    <glyph glyph-name="ycircumflex" unicode="&#x177;" horiz-adv-x="904" 
d="M642 1054l-189 178l-188 -178l-105 53l236 258h116l235 -258zM145 -478l225 519l-369 867h157l289 -690l299 690h156l-607 -1386h-150z" />
    <glyph glyph-name="Ydieresis" unicode="&#x178;" horiz-adv-x="1038" 
d="M442 0v570l-442 795h167l352 -652l352 652h166l-442 -795v-570h-153zM707 1722q42 0 72 -30t30 -72q0 -43 -30 -73t-72 -30q-43 0 -73 30.5t-30 73.5q0 41 30.5 71t72.5 30zM331 1722q43 0 73 -30t30 -72q0 -43 -30 -73t-73 -30t-72.5 30t-29.5 74q0 41 30 71t72 30z" />
    <glyph glyph-name="Zacute" unicode="&#x179;" horiz-adv-x="1042" 
d="M976 1229l-748 -1087h763v-142h-943v135l758 1089h-697v141h867v-136zM619 1799l143 -77l-256 -258l-92 53z" />
    <glyph glyph-name="zacute" unicode="&#x17a;" horiz-adv-x="857" 
d="M540 1389l143 -77l-256 -258l-92 53zM803 787l-562 -655h583v-132h-765v120l563 657h-532v131h713v-121z" />
    <glyph glyph-name="Zdotaccent" unicode="&#x17b;" horiz-adv-x="1042" 
d="M976 1229l-748 -1087h763v-142h-943v135l758 1089h-697v141h867v-136zM553 1722q43 0 73 -30t30 -72q0 -43 -30 -73t-73 -30t-72.5 30t-29.5 74q0 41 30 71t72 30z" />
    <glyph glyph-name="zdotaccent" unicode="&#x17c;" horiz-adv-x="857" 
d="M441 1312q43 0 73 -30t30 -72q0 -43 -30 -73t-73 -30t-72.5 30t-29.5 74q0 41 30 71t72 30zM803 787l-562 -655h583v-132h-765v120l563 657h-532v131h713v-121z" />
    <glyph glyph-name="Zcaron" unicode="&#x17d;" horiz-adv-x="1042" 
d="M976 1229l-748 -1087h763v-142h-943v135l758 1089h-697v141h867v-136zM365 1787l189 -178l188 178l105 -53l-235 -258h-116l-236 258z" />
    <glyph glyph-name="zcaron" unicode="&#x17e;" horiz-adv-x="857" 
d="M253 1377l188 -178l188 178l106 -53l-236 -258h-116l-236 258zM803 787l-562 -655h583v-132h-765v120l563 657h-532v131h713v-121z" />
    <glyph glyph-name="longs" unicode="&#x17f;" horiz-adv-x="467" 
d="M303 1092v-1092h-146v776h-92v132h92v184q0 287 220 287q34 0 90 -14v-132q-39 10 -62 10q-102 0 -102 -151z" />
    <glyph glyph-name="florin" unicode="&#x192;" horiz-adv-x="950" 
d="M17 -389l27 132q36 -10 60 -10q102 0 132 151l182 892h-92l27 132h92l14 68l23 116q59 287 279 287q33 0 87 -14l-27 -132q-36 10 -60 10q-102 0 -133 -151l-37 -184h167l-27 -132h-167l-182 -892q-59 -287 -278 -287q-36 0 -87 14z" />
    <glyph glyph-name="Ohorn" unicode="&#x1a0;" horiz-adv-x="1565" 
d="M1285 1168q104 53 104 143q0 88 -86 160l102 51q114 -82 114 -215q0 -144 -155 -240q115 -178 115 -386q0 -187 -95 -353q-91 -157 -248 -252q-164 -100 -354 -100q-189 0 -353 100q-156 94 -248 252q-95 166 -95 354q0 190 94 353q94 165 259 260q160 94 343 94
q141 0 272.5 -57.5t230.5 -163.5zM778 1246q-151 0 -279 -83q-129 -83 -197 -218q-62 -122 -62 -272q0 -140 67 -264q70 -130 199 -210q131 -80 276 -80q146 0 277 80q128 79 199 210q67 125 67 273q0 240 -166 407q-156 157 -381 157z" />
    <glyph glyph-name="ohorn" unicode="&#x1a1;" horiz-adv-x="1146" 
d="M920 735q62 47 62 119q0 86 -86 160l102 51q114 -82 114 -215q0 -132 -135 -227q29 -79 29 -166q0 -220 -154 -361q-130 -120 -314 -120q-212 0 -348 156q-119 137 -119 322q0 219 154 358q131 120 313 120q117 0 216 -51.5t166 -145.5zM533 800q-152 0 -245 -120
q-70 -89 -70 -225q0 -158 95 -255q92 -92 225 -92q159 0 252 121q69 90 69 229q0 155 -94 250q-92 92 -232 92z" />
    <glyph glyph-name="Uhorn" unicode="&#x1af;" horiz-adv-x="1361" 
d="M1137 1365v-188q86 50 86 134q0 88 -86 160l102 51q114 -82 114 -215q0 -85 -57 -156.5t-159 -113.5v-559q0 -108 -21 -182t-68 -135q-71 -91 -181 -140q-102 -46 -217 -46q-163 0 -296 91q-103 71 -146 166q-44 97 -44 246v887h153v-846q0 -108 10 -159q10 -55 36 -97
q38 -62 115 -102q80 -43 172 -43q125 0 225 77q65 50 87 116q22 65 22 208v846h153z" />
    <glyph glyph-name="uhorn" unicode="&#x1b0;" horiz-adv-x="1165" 
d="M914 908v-188q86 50 86 134q0 86 -86 160l102 51q114 -82 114 -215q0 -85 -57 -156t-159 -114v-580h-146v102q-100 -126 -273 -126q-167 0 -272 115q-50 54 -72 130.5t-22 194.5v492h146v-475q0 -98 14 -154.5t48 -93.5q63 -69 171 -69q132 0 203 86q57 69 57 252v454
h146z" />
    <glyph glyph-name="uni01C4" unicode="&#x1c4;" horiz-adv-x="2275" 
d="M164 0v1365h280q306 0 502 -153q235 -184 235 -528q0 -347 -235 -531q-195 -153 -502 -153h-280zM451 1223h-134v-1081h134q240 0 391 121q185 149 185 421q0 271 -185 418q-152 121 -391 121zM2209 1229l-748 -1087h763v-142h-943v135l758 1089h-697v141h867v-136z
M1598 1787l189 -178l188 178l105 -53l-235 -258h-116l-236 258z" />
    <glyph glyph-name="uni01C5" unicode="&#x1c5;" horiz-adv-x="2090" 
d="M164 0v1365h280q306 0 502 -153q235 -184 235 -528q0 -347 -235 -531q-195 -153 -502 -153h-280zM451 1223h-134v-1081h134q240 0 391 121q185 149 185 421q0 271 -185 418q-152 121 -391 121zM1485 1377l189 -178l188 178l105 -53l-235 -258h-116l-236 258zM2036 787
l-563 -655h583v-132h-764v120l563 657h-533v131h714v-121z" />
    <glyph glyph-name="uni01C6" unicode="&#x1c6;" horiz-adv-x="1981" 
d="M995 1365v-1365h-146v119q-128 -143 -319 -143q-119 0 -223 61q-112 64 -175 178q-61 109 -61 239q0 217 154 358q132 120 305 120q187 0 319 -144v577h146zM531 800q-149 0 -243 -120q-70 -88 -70 -225q0 -160 95 -255q92 -92 224 -92q155 0 245 121q67 89 67 227
q0 157 -91 252q-87 92 -227 92zM1926 787l-562 -655h583v-132h-765v120l563 657h-532v131h713v-121zM1376 1377l188 -178l189 178l105 -53l-235 -258h-116l-236 258z" />
    <glyph glyph-name="uni01C7" unicode="&#x1c7;" horiz-adv-x="1696" 
d="M164 1365h153v-1223h530v-142h-683v1365zM1380 1365h153v-956q0 -129 -23 -207q-22 -76 -78 -132q-94 -94 -238 -94q-84 0 -155 33q-70 33 -158 113l93 110q116 -113 217 -113q97 0 143 70.5t46 219.5v956z" />
    <glyph glyph-name="uni01C8" unicode="&#x1c8;" horiz-adv-x="1288" 
d="M164 1365h153v-1223h530v-142h-683v1365zM1084 1314q43 0 73.5 -30.5t30.5 -73.5q0 -44 -30.5 -74.5t-73.5 -30.5q-44 0 -74.5 31t-30.5 75q0 42 31 72.5t74 30.5zM1011 -205v1113h146v-1113q0 -286 -220 -286q-39 0 -90 13v133q39 -10 62 -10q102 0 102 150z" />
    <glyph glyph-name="uni01C9" unicode="&#x1c9;" horiz-adv-x="807" 
d="M277 1365v-1365h-146v1365h146zM603 1314q43 0 73.5 -30.5t30.5 -73.5q0 -44 -30.5 -74.5t-74.5 -30.5q-43 0 -73.5 31t-30.5 75q0 42 31 72.5t74 30.5zM530 -205v1113h146v-1113q0 -286 -220 -286q-41 0 -90 13v133q39 -10 62 -10q102 0 102 150z" />
    <glyph glyph-name="uni01CA" unicode="&#x1ca;" horiz-adv-x="2270" 
d="M317 0h-153v1365h143l830 -1116v1116h153v-1365h-143l-830 1116v-1116zM1953 1365h153v-956q0 -129 -23 -207q-23 -76 -78 -132q-94 -94 -238 -94q-85 0 -155 33t-158 113l93 110q116 -113 217 -113q97 0 143 70.5t46 219.5v956z" />
    <glyph glyph-name="uni01CB" unicode="&#x1cb;" horiz-adv-x="1881" 
d="M317 0h-153v1365h143l830 -1116v1116h153v-1365h-143l-830 1116v-1116zM1678 1314q43 0 73.5 -30.5t30.5 -73.5q0 -44 -30.5 -74.5t-74.5 -30.5q-43 0 -73.5 31t-30.5 75q0 42 31 72.5t74 30.5zM1605 -205v1113h146v-1113q0 -286 -220 -286q-41 0 -90 13v133
q39 -10 62 -10q102 0 102 150z" />
    <glyph glyph-name="uni01CC" unicode="&#x1cc;" horiz-adv-x="1444" 
d="M275 908v-102q101 126 273 126q167 0 272 -115q50 -54 72 -130.5t22 -194.5v-492h-146v474q0 99 -14 155.5t-48 93.5q-64 69 -171 69q-132 0 -203 -86q-57 -69 -57 -252v-454h-146v908h146zM1240 1314q43 0 73.5 -30.5t30.5 -73.5q0 -44 -30.5 -74.5t-73.5 -30.5
q-44 0 -74.5 31t-30.5 75q0 42 31 72.5t74 30.5zM1167 -205v1113h146v-1113q0 -286 -220 -286q-41 0 -90 13v133q39 -10 62 -10q102 0 102 150z" />
    <glyph glyph-name="uni01CD" unicode="&#x1cd;" horiz-adv-x="1270" 
d="M950 386h-632l-146 -386h-158l526 1365h191l525 -1365h-159zM632 1217l-260 -689h523zM447 1787l188 -178l189 178l105 -53l-236 -258h-116l-235 258z" />
    <glyph glyph-name="uni01CE" unicode="&#x1ce;" 
d="M995 908v-908h-146v119q-128 -143 -319 -143q-119 0 -223 61q-112 64 -175 178q-61 109 -61 239q0 217 154 358q132 120 305 120q187 0 319 -144v120h146zM531 800q-149 0 -243 -120q-70 -88 -70 -225q0 -160 95 -255q92 -92 224 -92q156 0 247 121q68 91 68 227
q0 155 -92 252q-89 92 -229 92zM345 1377l188 -178l189 178l105 -53l-236 -258h-116l-235 258z" />
    <glyph glyph-name="uni01CF" unicode="&#x1cf;" horiz-adv-x="481" 
d="M164 1365h153v-1365h-153v1365zM52 1787l189 -178l188 178l105 -53l-235 -258h-116l-236 258z" />
    <glyph glyph-name="uni01D0" unicode="&#x1d0;" horiz-adv-x="408" 
d="M132 908h146v-908h-146v908zM16 1377l189 -178l188 178l105 -53l-235 -258h-116l-236 258z" />
    <glyph glyph-name="uni01D1" unicode="&#x1d1;" horiz-adv-x="1565" 
d="M782 1389q187 0 344 -94q164 -98 258 -260q95 -164 95 -353q0 -188 -95 -354q-92 -158 -248 -252q-166 -100 -359 -100q-182 0 -348 100q-156 94 -248 252q-95 167 -95 365q0 184 95 342q100 168 258 260q160 94 343 94zM778 1246q-151 0 -279 -83q-129 -83 -197 -218
q-62 -122 -62 -272q0 -140 67 -264q70 -130 199 -210q131 -80 276 -80q146 0 277 80q128 79 199 210q67 125 67 273q0 240 -166 407q-156 157 -381 157zM594 1787l188 -178l189 178l105 -53l-236 -258h-116l-235 258z" />
    <glyph glyph-name="uni01D2" unicode="&#x1d2;" horiz-adv-x="1077" 
d="M546 932q203 0 341 -156q119 -136 119 -321q0 -218 -154 -359q-130 -120 -314 -120q-212 0 -348 156q-119 136 -119 326q0 213 154 354q131 120 321 120zM533 799q-151 0 -245 -120q-70 -88 -70 -225q0 -159 95 -254q92 -92 225 -92q159 0 252 120q69 92 69 229
q0 156 -94 250q-92 92 -232 92zM350 1377l189 -178l188 178l105 -53l-235 -258h-116l-236 258z" />
    <glyph glyph-name="uni01D3" unicode="&#x1d3;" horiz-adv-x="1301" 
d="M164 1365h153v-846q0 -108 10 -159q10 -55 36 -97q38 -62 115 -102q80 -43 172 -43q127 0 225 76q65 50 87 117q22 65 22 208v846h153v-887q0 -109 -20.5 -182.5t-68.5 -134.5q-71 -91 -181 -140q-102 -46 -216 -46q-166 0 -297 91q-103 71 -146 166q-44 97 -44 246v887z
M462 1787l189 -178l188 178l105 -53l-235 -258h-116l-236 258z" />
    <glyph glyph-name="uni01D4" unicode="&#x1d4;" horiz-adv-x="1043" 
d="M768 0v102q-100 -126 -273 -126q-167 0 -272 115q-50 54 -72 130.5t-22 194.5v492h146v-475q0 -98 14 -154.5t48 -93.5q63 -69 171 -69q132 0 203 86q57 69 57 252v454h146v-908h-146zM333 1377l189 -178l188 178l105 -53l-235 -258h-116l-236 258z" />
    <glyph glyph-name="Gcaron" unicode="&#x1e6;" horiz-adv-x="1490" 
d="M840 563v142h560v-75q0 -185 -68 -330q-64 -135 -186 -221q-148 -103 -352 -103q-282 0 -482 186q-108 101 -167 236t-59 281q0 190 94 356q95 168 256 260q160 94 354 94q144 0 258 -51t233 -167l-105 -105q-71 74 -127 108q-117 72 -260 72q-163 0 -294 -83
q-126 -80 -194 -218q-61 -123 -61 -265q0 -146 66 -271q70 -132 196 -209q130 -81 289 -81q185 0 308 111q138 124 144 333h-403zM602 1787l188 -178l189 178l105 -53l-235 -258h-117l-235 258z" />
    <glyph glyph-name="gcaron" unicode="&#x1e7;" 
d="M849 908h146v-925q0 -198 -107 -326q-64 -76 -160 -117.5t-208 -41.5q-127 0 -224 47q-94 46 -189 154l96 96q65 -79 118 -112q85 -53 198 -53q154 0 242 94t88 259v136q-128 -143 -319 -143q-119 0 -223 61q-112 64 -175 178q-61 109 -61 239q0 217 154 358
q132 120 305 120q187 0 319 -144v120zM531 800q-149 0 -243 -120q-70 -88 -70 -225q0 -160 95 -255q92 -92 224 -92q155 0 246 121q67 89 67 227q0 155 -92 252q-87 92 -227 92zM345 1377l188 -178l189 178l105 -53l-236 -258h-116l-235 258z" />
    <glyph glyph-name="uni01F4" unicode="&#x1f4;" horiz-adv-x="1490" 
d="M840 563v142h560v-75q0 -185 -68 -330q-64 -135 -186 -221q-148 -103 -352 -103q-282 0 -482 186q-108 101 -167 236t-59 281q0 190 94 356q95 168 256 260q160 94 354 94q144 0 258 -51t233 -167l-105 -105q-71 74 -127 108q-117 72 -260 72q-163 0 -294 -83
q-126 -80 -194 -218q-61 -123 -61 -265q0 -146 66 -271q70 -132 196 -209q130 -81 289 -81q185 0 308 111q138 124 144 333h-403zM903 1799l144 -77l-257 -258l-92 53z" />
    <glyph glyph-name="uni01F5" unicode="&#x1f5;" 
d="M849 908h146v-925q0 -198 -107 -326q-64 -76 -160 -117.5t-208 -41.5q-127 0 -224 47q-94 46 -189 154l96 96q65 -79 118 -112q85 -53 198 -53q154 0 242 94t88 259v136q-128 -143 -319 -143q-119 0 -223 61q-112 64 -175 178q-61 109 -61 239q0 217 154 358
q132 120 305 120q187 0 319 -144v120zM531 800q-149 0 -243 -120q-70 -88 -70 -225q0 -160 95 -255q92 -92 224 -92q155 0 246 121q67 89 67 227q0 155 -92 252q-87 92 -227 92zM643 1389l143 -77l-256 -258l-92 53z" />
    <glyph glyph-name="Aringacute" unicode="&#x1fa;" horiz-adv-x="1270" 
d="M950 386h-632l-146 -386h-158l526 1365h191l525 -1365h-159zM632 1217l-260 -689h523zM634 1799q78 0 131 -52q54 -53 54 -127t-53 -127q-55 -53 -131 -53q-77 0 -130 53q-54 53 -54 129q0 73 55 125q53 52 128 52zM635 1725q-44 0 -75 -31t-31 -76q0 -41 32 -73
q31 -31 74 -31q44 0 75 31t31 74q0 44 -31 75t-75 31zM666 2171l144 -77l-257 -258l-92 53z" />
    <glyph glyph-name="aringacute" unicode="&#x1fb;" 
d="M995 908v-908h-146v119q-128 -143 -319 -143q-119 0 -223 61q-112 64 -175 178q-61 109 -61 239q0 217 154 358q132 120 305 120q187 0 319 -144v120h146zM531 800q-149 0 -243 -120q-70 -88 -70 -225q0 -160 95 -255q92 -92 224 -92q156 0 247 121q68 91 68 227
q0 155 -92 252q-89 92 -229 92zM560 1389q78 0 131 -52q53 -53 53 -127t-53 -127q-55 -53 -130 -53q-77 0 -130 53q-54 53 -54 129q0 72 54 125q53 52 129 52zM561 1315q-45 0 -75.5 -31t-30.5 -76q0 -42 31 -73t75 -31q43 0 74 31t31 74q0 44 -30.5 75t-74.5 31zM591 1799
l144 -77l-257 -258l-91 53z" />
    <glyph glyph-name="AEacute" unicode="&#x1fc;" horiz-adv-x="1720" 
d="M911 0v386h-531l-195 -386h-171l703 1365h897v-141h-550v-461h489v-142h-489v-479h571v-142h-724zM452 528h459v696h-106zM1177 1799l143 -77l-256 -258l-92 53z" />
    <glyph glyph-name="aeacute" unicode="&#x1fd;" horiz-adv-x="1683" 
d="M837 150q-84 -174 -361 -174q-185 0 -299 84q-106 79 -106 225q0 142 100 222t279 80h287q-11 97 -63 147q-70 65 -204 65q-162 0 -293 -102l-68 98q167 136 378 136q249 0 344 -180q133 180 348 180q190 0 311 -139q122 -140 122 -356v-44h-724q8 -57 26 -98
q37 -90 114 -140q70 -46 160 -46q184 0 277 161l130 -55q-68 -116 -172 -177t-233 -61q-216 0 -353 174zM742 293v169h-264q-263 0 -263 -176q0 -97 87 -142q68 -36 175 -36q265 0 265 185zM888 517h579q-10 59 -25 97q-37 90 -110 140q-68 45 -152 45q-115 0 -194 -76
q-78 -75 -98 -206zM943 1389l143 -77l-256 -258l-92 53z" />
    <glyph glyph-name="Oslashacute" unicode="&#x1fe;" horiz-adv-x="1580" 
d="M111 77l149 151q-166 196 -166 455q0 186 95 352t258 260q160 94 343 94q250 0 449 -169l147 148l84 -80l-149 -151q166 -196 166 -457q0 -186 -95 -352q-91 -157 -248 -252q-164 -100 -353 -100q-250 0 -450 169l-146 -148zM364 334l773 782q-157 130 -347 130
q-152 0 -283 -83q-126 -78 -197 -218q-62 -124 -62 -263q0 -193 116 -348zM1216 1031l-771 -781q69 -62 161 -96.5t186 -34.5q144 0 275 80q129 80 199 210q67 124 67 272q0 195 -117 350zM903 1799l144 -77l-257 -258l-92 53z" />
    <glyph glyph-name="oslashacute" unicode="&#x1ff;" horiz-adv-x="1105" 
d="M85 71l94 92q-94 128 -94 292q0 216 154 357q131 120 313 120q170 0 301 -108l90 87l77 -74l-93 -92q93 -131 93 -291q0 -217 -154 -358q-130 -120 -313 -120q-170 0 -301 109l-90 -88zM829 650l-483 -473q88 -69 205 -69q159 0 252 121q70 89 70 224q0 117 -44 197z
M277 258l482 474q-89 68 -205 68q-160 0 -253 -120q-69 -90 -69 -226q0 -104 45 -196zM666 1389l143 -77l-256 -258l-92 53z" />
    <glyph glyph-name="uni0200" unicode="&#x200;" horiz-adv-x="1270" 
d="M950 386h-632l-146 -386h-158l526 1365h191l525 -1365h-159zM632 1217l-260 -689h523zM780 1464l-257 258l137 77l205 -282zM493 1464l-256 258l136 77l205 -282z" />
    <glyph glyph-name="uni0201" unicode="&#x201;" 
d="M995 908v-908h-146v119q-128 -143 -319 -143q-119 0 -223 61q-112 64 -175 178q-61 109 -61 239q0 217 154 358q132 120 305 120q187 0 319 -144v120h146zM531 800q-149 0 -243 -120q-70 -88 -70 -225q0 -160 95 -255q92 -92 224 -92q156 0 247 121q68 91 68 227
q0 155 -92 252q-89 92 -229 92zM632 1054l-256 258l137 77l204 -282zM346 1054l-257 258l137 77l205 -282z" />
    <glyph glyph-name="Scommaaccent" unicode="&#x218;" horiz-adv-x="1035" 
d="M903 1174l-122 -79q-98 152 -247 152q-70 0 -125 -28t-89 -83.5t-34 -117.5q0 -138 198 -215l134 -52q164 -63 240 -148q79 -88 79 -215q0 -186 -143 -309q-121 -103 -291 -103q-162 0 -272 92t-149 259l148 42q61 -250 278 -250q120 0 199 82q76 79 76 185q0 82 -54 137
t-184 106l-128 50q-282 111 -282 341q0 178 140 285q111 84 264 84q232 0 364 -215zM517 -96l135 -58l-207 -262l-100 50z" />
    <glyph glyph-name="scommaaccent" unicode="&#x219;" horiz-adv-x="760" 
d="M662 768l-117 -62q-30 46 -57 66q-44 32 -101 32q-65 0 -107.5 -36t-42.5 -92q0 -53 40 -87q19 -16 118 -55l89 -35q109 -42 157.5 -97.5t48.5 -137.5q0 -127 -97 -212q-88 -76 -217 -76q-225 0 -315 232l126 53q41 -85 84 -120q43 -34 111 -34q82 0 127 53q36 43 36 97
q0 51 -30 79q-32 29 -130 66l-98 39q-186 72 -186 229q0 118 90 192q85 70 200 70q179 0 271 -164zM257 -418l95 323l142 -43l-135 -312z" />
    <glyph glyph-name="uni021A" unicode="&#x21a;" horiz-adv-x="887" 
d="M874 1224h-353v-1224h-153v1224h-354v141h860v-141zM294 -418l95 323l142 -43l-135 -312z" />
    <glyph glyph-name="uni021B" unicode="&#x21b;" horiz-adv-x="504" 
d="M443 776h-151v-503q0 -151 102 -151q25 0 62 10v-132q-51 -14 -90 -14q-220 0 -220 287v503h-102v132h102v215l146 58v-273h151v-132zM132 -418l95 323l142 -43l-135 -312z" />
    <glyph glyph-name="uni0226" unicode="&#x226;" horiz-adv-x="1270" 
d="M950 386h-632l-146 -386h-158l526 1365h191l525 -1365h-159zM632 1217l-260 -689h523zM635 1722q43 0 73 -30t30 -72q0 -43 -30 -73t-73 -30t-72.5 30t-29.5 74q0 41 30 71t72 30z" />
    <glyph glyph-name="uni0227" unicode="&#x227;" 
d="M995 908v-908h-146v119q-128 -143 -319 -143q-119 0 -223 61q-112 64 -175 178q-61 109 -61 239q0 217 154 358q132 120 305 120q187 0 319 -144v120h146zM531 800q-149 0 -243 -120q-70 -88 -70 -225q0 -160 95 -255q92 -92 224 -92q156 0 247 121q68 91 68 227
q0 155 -92 252q-89 92 -229 92zM534 1312q43 0 73 -30t30 -72q0 -43 -30 -73t-73 -30t-72.5 30t-29.5 74q0 41 30 71t72 30z" />
    <glyph glyph-name="uni0237" unicode="&#x237;" horiz-adv-x="427" 
d="M150 -205v1113h146v-1113q0 -286 -220 -286q-41 0 -90 13v133q39 -10 62 -10q102 0 102 150z" />
    <glyph glyph-name="uni02BB" unicode="&#x2bb;" horiz-adv-x="467" 
d="M399 1395l-170 -472l-134 49l206 462z" />
    <glyph glyph-name="afii57929" unicode="&#x2bc;" horiz-adv-x="536" 
d="M116 962l170 472l134 -49l-206 -462z" />
    <glyph glyph-name="circumflex" unicode="&#x2c6;" horiz-adv-x="975" 
d="M676 1054l-188 178l-189 -178l-105 53l236 258h116l235 -258z" />
    <glyph glyph-name="caron" unicode="&#x2c7;" horiz-adv-x="975" 
d="M299 1377l189 -178l188 178l105 -53l-235 -258h-116l-236 258z" />
    <glyph glyph-name="uni02C9" unicode="&#x2c9;" horiz-adv-x="975" 
d="M208 1145v130h560v-130h-560z" />
    <glyph glyph-name="breve" unicode="&#x2d8;" horiz-adv-x="975" 
d="M218 1324l125 10q4 -70 39 -109q40 -45 102 -45q127 0 148 154l125 -10q-10 -103 -63 -169q-80 -101 -209 -101q-132 0 -212 101q-54 69 -55 169z" />
    <glyph glyph-name="dotaccent" unicode="&#x2d9;" horiz-adv-x="975" 
d="M487 1312q43 0 73 -30t30 -72q0 -43 -30 -73t-73 -30t-72.5 30t-29.5 74q0 41 30 71t72 30z" />
    <glyph glyph-name="ring" unicode="&#x2da;" horiz-adv-x="975" 
d="M487 1389q78 0 131 -52q53 -53 53 -127t-53 -127q-55 -53 -130 -53q-77 0 -130 53q-54 53 -54 129q0 72 54 125q53 52 129 52zM488 1315q-45 0 -75.5 -31t-30.5 -76q0 -42 31 -73t75 -31q43 0 74 31t31 74q0 44 -30.5 75t-74.5 31z" />
    <glyph glyph-name="ogonek" unicode="&#x2db;" horiz-adv-x="975" 
d="M729 0h146q-74 -86 -74 -137q0 -53 67 -53q31 0 76 15l41 -104q-73 -27 -130 -27q-82 0 -135 44q-53 45 -53 113q0 72 62 149z" />
    <glyph glyph-name="tilde" unicode="&#x2dc;" horiz-adv-x="975" 
d="M649 1312l118 -27q-7 -84 -48.5 -129t-112.5 -45q-54 0 -139 39q-66 31 -89 31q-24 0 -35.5 -16t-17.5 -58l-116 28q9 81 52 127.5t111 46.5q46 0 142 -44q58 -26 87 -26q25 0 35 15t13 58z" />
    <glyph glyph-name="hungarumlaut" unicode="&#x2dd;" horiz-adv-x="975" 
d="M463 1389l136 -77l-256 -258l-85 53zM750 1389l136 -77l-256 -258l-85 53z" />
    <glyph glyph-name="uni0309" unicode="&#x309;" horiz-adv-x="975" 
d="M609 1476h-131q1 44 28 81l19 28q28 40 28 61q0 49 -68 49q-31 0 -75 -16l-41 104q72 28 134 28q83 0 133 -38t50 -101q0 -49 -32 -99l-31 -49q-14 -23 -14 -48z" />
    <glyph glyph-name="uni0323" unicode="&#x323;" horiz-adv-x="975" 
d="M487 -123q44 0 74.5 -30.5t30.5 -73.5q0 -44 -30.5 -74.5t-73.5 -30.5q-44 0 -74.5 31t-30.5 75q0 42 31 72.5t73 30.5z" />
    <glyph glyph-name="uni037E" unicode="&#x37e;" horiz-adv-x="465" 
d="M48 -272l170 472l134 -49l-206 -462zM265 875q42 0 71.5 -29t29.5 -71t-29.5 -71.5t-71.5 -29.5t-71.5 29.5t-29.5 72.5q0 40 30 69.5t71 29.5z" />
    <glyph glyph-name="uni0387" unicode="&#x387;" horiz-adv-x="464" 
d="M232 784q42 0 71.5 -29.5t29.5 -71.5t-29.5 -71.5t-71.5 -29.5t-71.5 30t-29.5 72q0 41 30 70.5t71 29.5z" />
    <glyph glyph-name="uni1E1E" unicode="&#x1e1e;" horiz-adv-x="894" 
d="M819 1365v-141h-502v-461h458v-142h-458v-621h-153v1365h655zM491 1722q43 0 73 -30t30 -72q0 -43 -30 -73t-73 -30t-72.5 30t-29.5 74q0 41 30 71t72 30z" />
    <glyph glyph-name="uni1E1F" unicode="&#x1e1f;" horiz-adv-x="511" 
d="M471 776h-168v-776h-146v776h-92v132h92v184q0 287 220 287q34 0 90 -14v-132q-39 10 -62 10q-102 0 -102 -151v-184h168v-132zM319 1722q43 0 73 -30t30 -72q0 -43 -30 -73t-73 -30t-72.5 30t-29.5 74q0 41 30 71t72 30z" />
    <glyph glyph-name="Wgrave" unicode="&#x1e80;" horiz-adv-x="1802" 
d="M14 1365h159l338 -1143l322 1143h137l322 -1143l339 1143h158l-416 -1365h-81h-77l-314 1106l-314 -1106h-76h-81zM915 1464l-256 258l143 77l205 -282z" />
    <glyph glyph-name="wgrave" unicode="&#x1e81;" horiz-adv-x="1368" 
d="M1 908h156l249 -690l216 690h123l217 -690l249 690h155l-341 -908h-123l-218 683l-219 -683h-123zM684 1054l-257 258l144 77l205 -282z" />
    <glyph glyph-name="Wacute" unicode="&#x1e82;" horiz-adv-x="1802" 
d="M14 1365h159l338 -1143l322 1143h137l322 -1143l339 1143h158l-416 -1365h-81h-77l-314 1106l-314 -1106h-76h-81zM1014 1799l144 -77l-257 -258l-91 53z" />
    <glyph glyph-name="wacute" unicode="&#x1e83;" horiz-adv-x="1368" 
d="M1 908h156l249 -690l216 690h123l217 -690l249 690h155l-341 -908h-123l-218 683l-219 -683h-123zM735 1389l143 -77l-256 -258l-92 53z" />
    <glyph glyph-name="Wdieresis" unicode="&#x1e84;" horiz-adv-x="1802" 
d="M14 1365h159l338 -1143l322 1143h137l322 -1143l339 1143h158l-416 -1365h-81h-77l-314 1106l-314 -1106h-76h-81zM1090 1722q42 0 72 -30t30 -72q0 -43 -30 -73t-72 -30q-43 0 -73 30.5t-30 73.5q0 41 30.5 71t72.5 30zM713 1722q43 0 73 -30t30 -72q0 -43 -30 -73
t-73 -30t-72.5 30t-29.5 74q0 41 30 71t72 30z" />
    <glyph glyph-name="wdieresis" unicode="&#x1e85;" horiz-adv-x="1368" 
d="M1 908h156l249 -690l216 690h123l217 -690l249 690h155l-341 -908h-123l-218 683l-219 -683h-123zM872 1312q42 0 72 -30t30 -72q0 -43 -30 -73t-72 -30q-43 0 -73 30.5t-30 73.5q0 41 30.5 71t72.5 30zM496 1312q43 0 73 -30t30 -72q0 -43 -30 -73t-73 -30t-72.5 30.5
t-29.5 73.5q0 41 30 71t72 30z" />
    <glyph glyph-name="uni1EA0" unicode="&#x1ea0;" horiz-adv-x="1270" 
d="M950 386h-632l-146 -386h-158l526 1365h191l525 -1365h-159zM632 1217l-260 -689h523zM635 -123q43 0 73 -30t30 -72q0 -43 -30 -73t-73 -30t-72.5 30t-29.5 74q0 41 30 71t72 30z" />
    <glyph glyph-name="uni1EA1" unicode="&#x1ea1;" 
d="M995 908v-908h-146v119q-128 -143 -319 -143q-119 0 -223 61q-112 64 -175 178q-61 109 -61 239q0 217 154 358q132 120 305 120q187 0 319 -144v120h146zM531 800q-149 0 -243 -120q-70 -88 -70 -225q0 -160 95 -255q92 -92 224 -92q156 0 247 121q68 91 68 227
q0 155 -92 252q-89 92 -229 92zM558 -123q43 0 73 -30t30 -72q0 -43 -30 -73t-73 -30t-72.5 30t-29.5 74q0 41 30 71t72 30z" />
    <glyph glyph-name="uni1EA2" unicode="&#x1ea2;" horiz-adv-x="1270" 
d="M950 386h-632l-146 -386h-158l526 1365h191l525 -1365h-159zM632 1217l-260 -689h523zM716 1476h-130q2 45 27 81l20 28q28 40 28 61q0 49 -68 49q-31 0 -75 -16l-41 104q72 28 134 28q83 0 133 -38t50 -101q0 -49 -32 -99l-31 -49q-13 -22 -15 -48z" />
    <glyph glyph-name="uni1EA3" unicode="&#x1ea3;" 
d="M995 908v-908h-146v119q-128 -143 -319 -143q-119 0 -223 61q-112 64 -175 178q-61 109 -61 239q0 217 154 358q132 120 305 120q187 0 319 -144v120h146zM531 800q-149 0 -243 -120q-70 -88 -70 -225q0 -160 95 -255q92 -92 224 -92q156 0 247 121q68 91 68 227
q0 155 -92 252q-89 92 -229 92zM633 1055h-130q1 43 27 81l20 28q28 40 28 60q0 49 -68 49q-31 0 -76 -15l-41 104q73 27 135 27q83 0 133 -38t50 -100q0 -49 -32 -99l-32 -50q-14 -22 -14 -47z" />
    <glyph glyph-name="uni1EA4" unicode="&#x1ea4;" horiz-adv-x="1270" 
d="M1103 1834l-242 -243l68 -74l-105 -53l-189 178l-188 -178l-105 53l235 258h116l93 -102l173 238zM950 386h-632l-146 -386h-158l526 1365h191l525 -1365h-159zM632 1217l-260 -689h523z" />
    <glyph glyph-name="uni1EA5" unicode="&#x1ea5;" 
d="M475 1331h116l236 -258l-105 -53l-189 178l-188 -178l-105 53zM995 908v-908h-146v119q-128 -143 -319 -143q-119 0 -223 61q-112 64 -175 178q-61 109 -61 239q0 217 154 358q132 120 305 120q187 0 319 -144v120h146zM531 800q-149 0 -243 -120q-70 -88 -70 -225
q0 -160 95 -255q92 -92 224 -92q156 0 247 121q68 91 68 227q0 155 -92 252q-89 92 -229 92zM923 1599l143 -77l-256 -258l-92 53z" />
    <glyph glyph-name="uni1EA6" unicode="&#x1ea6;" horiz-adv-x="1270" 
d="M950 386h-632l-146 -386h-158l526 1365h191l525 -1365h-159zM632 1217l-260 -689h523zM824 1464l-189 178l-188 -178l-105 53l235 258h116l236 -258zM984 1577l-256 257l143 77l205 -281z" />
    <glyph glyph-name="uni1EA7" unicode="&#x1ea7;" 
d="M995 908v-908h-146v119q-128 -143 -319 -143q-119 0 -223 61q-112 64 -175 178q-61 109 -61 239q0 217 154 358q132 120 305 120q187 0 319 -144v120h146zM531 800q-149 0 -243 -120q-70 -88 -70 -225q0 -160 95 -255q92 -92 224 -92q156 0 247 121q68 91 68 227
q0 155 -92 252q-89 92 -229 92zM722 1020l-189 178l-188 -178l-105 53l235 258h116l236 -258zM793 1264l-256 258l143 77l205 -282z" />
    <glyph glyph-name="uni1EA8" unicode="&#x1ea8;" horiz-adv-x="1270" 
d="M577 1775h116l236 -258l-105 -53l-189 178l-188 -178l-105 53zM950 386h-632l-146 -386h-158l526 1365h191l525 -1365h-159zM632 1217l-260 -689h523zM1025 1577h-130q1 43 27 81l20 28q28 40 28 61q0 49 -68 49q-32 0 -76 -16l-41 104q72 28 134 28q84 0 134 -38
t50 -101q0 -49 -32 -99l-32 -50q-14 -22 -14 -47z" />
    <glyph glyph-name="uni1EA9" unicode="&#x1ea9;" 
d="M995 908v-908h-146v119q-128 -143 -319 -143q-119 0 -223 61q-112 64 -175 178q-61 109 -61 239q0 217 154 358q132 120 305 120q187 0 319 -144v120h146zM531 800q-149 0 -243 -120q-70 -88 -70 -225q0 -160 95 -255q92 -92 224 -92q156 0 247 121q68 91 68 227
q0 155 -92 252q-89 92 -229 92zM475 1331h116l236 -258l-105 -53l-189 178l-188 -178l-105 53zM862 1264h-131q1 42 28 81l19 28q28 40 28 61q0 49 -68 49q-31 0 -75 -16l-41 104q72 28 134 28q83 0 133 -38t50 -101q0 -50 -31 -99l-32 -49q-14 -23 -14 -48z" />
    <glyph glyph-name="uni1EAA" unicode="&#x1eaa;" horiz-adv-x="1270" 
d="M950 386h-632l-146 -386h-158l526 1365h191l525 -1365h-159zM632 1217l-260 -689h523zM824 1413l-189 178l-188 -178l-105 53l235 258h116l236 -258zM797 1963l117 -28q-7 -84 -48.5 -129t-112.5 -45q-52 0 -139 39q-66 31 -88 31q-24 0 -35.5 -15.5t-18.5 -57.5l-116 27
q9 82 52.5 128t110.5 46q45 0 142 -44q60 -26 87 -26q25 0 35 15t14 59z" />
    <glyph glyph-name="uni1EAB" unicode="&#x1eab;" 
d="M995 908v-908h-146v119q-128 -143 -319 -143q-119 0 -223 61q-112 64 -175 178q-61 109 -61 239q0 217 154 358q132 120 305 120q187 0 319 -144v120h146zM531 800q-149 0 -243 -120q-70 -88 -70 -225q0 -160 95 -255q92 -92 224 -92q156 0 247 121q68 91 68 227
q0 155 -92 252q-89 92 -229 92zM694 1599l118 -28q-7 -84 -48.5 -129t-112.5 -45q-52 0 -139 39q-66 31 -88 31q-25 0 -36 -15.5t-18 -57.5l-116 27q9 81 52 127.5t111 46.5q45 0 142 -44q60 -26 87 -26q25 0 35 15t13 59zM721 1020l-188 178l-189 -178l-105 53l236 258h116
l235 -258z" />
    <glyph glyph-name="uni1EAC" unicode="&#x1eac;" horiz-adv-x="1270" 
d="M950 386h-632l-146 -386h-158l526 1365h191l525 -1365h-159zM632 1217l-260 -689h523zM824 1464l-189 178l-188 -178l-105 53l235 258h116l236 -258zM635 -123q43 0 73 -30t30 -72q0 -43 -30 -73t-73 -30t-72.5 30t-29.5 74q0 41 30 71t72 30z" />
    <glyph glyph-name="uni1EAD" unicode="&#x1ead;" 
d="M995 908v-908h-146v119q-128 -143 -319 -143q-119 0 -223 61q-112 64 -175 178q-61 109 -61 239q0 217 154 358q132 120 305 120q187 0 319 -144v120h146zM531 800q-149 0 -243 -120q-70 -88 -70 -225q0 -160 95 -255q92 -92 224 -92q156 0 247 121q68 91 68 227
q0 155 -92 252q-89 92 -229 92zM558 -123q43 0 73 -30t30 -72q0 -43 -30 -73t-73 -30t-72.5 30t-29.5 74q0 41 30 71t72 30zM722 1054l-189 178l-188 -178l-105 53l235 258h116l236 -258z" />
    <glyph glyph-name="uni1EAE" unicode="&#x1eae;" horiz-adv-x="1270" 
d="M950 386h-632l-146 -386h-158l526 1365h191l525 -1365h-159zM632 1217l-260 -689h523zM366 1683l125 10q3 -69 38 -109q41 -45 103 -45q126 0 148 154l125 -10q-12 -104 -64 -169q-80 -101 -208 -101q-132 0 -212 101q-54 69 -55 169zM741 1963l143 -77l-256 -258l-92 53
z" />
    <glyph glyph-name="uni1EAF" unicode="&#x1eaf;" 
d="M995 908v-908h-146v119q-128 -143 -319 -143q-119 0 -223 61q-112 64 -175 178q-61 109 -61 239q0 217 154 358q132 120 305 120q187 0 319 -144v120h146zM531 800q-149 0 -243 -120q-70 -88 -70 -225q0 -160 95 -255q92 -92 224 -92q156 0 247 121q68 91 68 227
q0 155 -92 252q-89 92 -229 92zM267 1290l124 10q5 -69 39 -108q40 -45 103 -45q125 0 148 153l125 -10q-12 -104 -64 -168q-80 -101 -208 -101q-132 0 -212 101q-54 67 -55 168zM653 1599l143 -77l-256 -258l-92 53z" />
    <glyph glyph-name="uni1EB0" unicode="&#x1eb0;" horiz-adv-x="1270" 
d="M950 386h-632l-146 -386h-158l526 1365h191l525 -1365h-159zM632 1217l-260 -689h523zM366 1683l125 10q3 -69 38 -109q41 -45 103 -45q126 0 148 154l125 -10q-12 -104 -64 -169q-80 -101 -208 -101q-132 0 -212 101q-54 69 -55 169zM632 1628l-256 258l144 77l204 -282
z" />
    <glyph glyph-name="uni1EB1" unicode="&#x1eb1;" 
d="M995 908v-908h-146v119q-128 -143 -319 -143q-119 0 -223 61q-112 64 -175 178q-61 109 -61 239q0 217 154 358q132 120 305 120q187 0 319 -144v120h146zM531 800q-149 0 -243 -120q-70 -88 -70 -225q0 -160 95 -255q92 -92 224 -92q156 0 247 121q68 91 68 227
q0 155 -92 252q-89 92 -229 92zM267 1290l124 10q5 -69 39 -108q40 -45 103 -45q125 0 148 153l125 -10q-12 -104 -64 -168q-80 -101 -208 -101q-132 0 -212 101q-54 67 -55 168zM526 1264l-256 258l144 77l204 -282z" />
    <glyph glyph-name="uni1EB2" unicode="&#x1eb2;" horiz-adv-x="1270" 
d="M950 386h-632l-146 -386h-158l526 1365h191l525 -1365h-159zM632 1217l-260 -689h523zM366 1683l125 10q3 -69 38 -109q41 -45 103 -45q126 0 148 154l125 -10q-12 -104 -64 -169q-80 -101 -208 -101q-132 0 -212 101q-54 69 -55 169zM691 1628h-130q1 44 27 81l20 28
q28 40 28 61q0 49 -68 49q-31 0 -75 -16l-41 104q72 28 134 28q83 0 133 -38t50 -101q0 -49 -32 -99l-31 -49q-14 -22 -15 -48z" />
    <glyph glyph-name="uni1EB3" unicode="&#x1eb3;" 
d="M995 908v-908h-146v119q-128 -143 -319 -143q-119 0 -223 61q-112 64 -175 178q-61 109 -61 239q0 217 154 358q132 120 305 120q187 0 319 -144v120h146zM531 800q-149 0 -243 -120q-70 -88 -70 -225q0 -160 95 -255q92 -92 224 -92q156 0 247 121q68 91 68 227
q0 155 -92 252q-89 92 -229 92zM267 1290l124 10q5 -69 39 -108q40 -45 103 -45q125 0 148 153l125 -10q-12 -104 -64 -168q-80 -101 -208 -101q-132 0 -212 101q-54 67 -55 168zM592 1264h-130q2 44 27 81l20 28q28 40 28 61q0 49 -68 49q-31 0 -76 -16l-41 104
q72 28 135 28q83 0 133 -38t50 -101q0 -49 -32 -99l-32 -49q-14 -23 -14 -48z" />
    <glyph glyph-name="uni1EB4" unicode="&#x1eb4;" horiz-adv-x="1270" 
d="M950 386h-632l-146 -386h-158l526 1365h191l525 -1365h-159zM632 1217l-260 -689h523zM797 1963l117 -28q-7 -84 -48.5 -129t-112.5 -45q-52 0 -139 39q-66 31 -88 31q-24 0 -35.5 -15.5t-18.5 -57.5l-116 27q9 82 52.5 128t110.5 46q45 0 142 -44q60 -26 87 -26
q25 0 35 15t14 59zM366 1683l125 10q3 -69 38 -109q41 -45 103 -45q126 0 148 154l125 -10q-12 -104 -64 -169q-80 -101 -208 -101q-132 0 -212 101q-54 69 -55 169z" />
    <glyph glyph-name="uni1EB5" unicode="&#x1eb5;" 
d="M995 908v-908h-146v119q-128 -143 -319 -143q-119 0 -223 61q-112 64 -175 178q-61 109 -61 239q0 217 154 358q132 120 305 120q187 0 319 -144v120h146zM531 800q-149 0 -243 -120q-70 -88 -70 -225q0 -160 95 -255q92 -92 224 -92q156 0 247 121q68 91 68 227
q0 155 -92 252q-89 92 -229 92zM694 1599l118 -28q-7 -84 -48.5 -129t-112.5 -45q-52 0 -139 39q-66 31 -88 31q-25 0 -36 -15.5t-18 -57.5l-116 27q9 81 52 127.5t111 46.5q45 0 142 -44q60 -26 87 -26q25 0 35 15t13 59zM266 1290l125 10q5 -69 39 -108q40 -45 102 -45
q127 0 148 153l125 -10q-11 -104 -63 -168q-80 -101 -208 -101q-133 0 -213 101q-52 65 -55 168z" />
    <glyph glyph-name="uni1EB6" unicode="&#x1eb6;" horiz-adv-x="1270" 
d="M950 386h-632l-146 -386h-158l526 1365h191l525 -1365h-159zM632 1217l-260 -689h523zM635 -123q43 0 73 -30t30 -72q0 -43 -30 -73t-73 -30t-72.5 30t-29.5 74q0 41 30 71t72 30zM366 1734l125 10q3 -69 38 -109q41 -45 103 -45q126 0 148 154l125 -10
q-12 -104 -64 -169q-80 -101 -208 -101q-132 0 -212 101q-54 69 -55 169z" />
    <glyph glyph-name="uni1EB7" unicode="&#x1eb7;" 
d="M995 908v-908h-146v119q-128 -143 -319 -143q-119 0 -223 61q-112 64 -175 178q-61 109 -61 239q0 217 154 358q132 120 305 120q187 0 319 -144v120h146zM531 800q-149 0 -243 -120q-70 -88 -70 -225q0 -160 95 -255q92 -92 224 -92q156 0 247 121q68 91 68 227
q0 155 -92 252q-89 92 -229 92zM558 -123q43 0 73 -30t30 -72q0 -43 -30 -73t-73 -30t-72.5 30t-29.5 74q0 41 30 71t72 30zM263 1324l125 10q4 -70 39 -109q41 -45 102 -45q127 0 149 154l125 -10q-12 -104 -64 -169q-80 -101 -208 -101q-132 0 -212 101q-53 68 -56 169z
" />
    <glyph glyph-name="uni1EB8" unicode="&#x1eb8;" horiz-adv-x="973" 
d="M867 1365v-141h-550v-461h489v-142h-489v-479h571v-142h-724v1365h703zM553 -123q43 0 73 -30t30 -72q0 -43 -30 -73t-73 -30t-72.5 30t-29.5 74q0 41 30 71t72 30z" />
    <glyph glyph-name="uni1EB9" unicode="&#x1eb9;" horiz-adv-x="1017" 
d="M945 392h-724q8 -57 26 -98q37 -89 115 -140q70 -46 160 -46q184 0 276 161l130 -55q-66 -116 -170.5 -177t-234.5 -61q-209 0 -339 157q-113 136 -113 324q0 127 57 237q62 114 167 178q101 60 217 60q191 0 312 -139q122 -140 122 -356q0 -24 -1 -45zM221 517h579
q-7 54 -25 98q-37 90 -110 140q-68 45 -152 45q-114 0 -194 -77q-78 -75 -98 -206zM523 -123q43 0 73 -30t30 -72q0 -43 -30 -73t-73 -30q-42 0 -72 30.5t-30 73.5q0 41 30 71t72 30z" />
    <glyph glyph-name="uni1EBA" unicode="&#x1eba;" horiz-adv-x="973" 
d="M867 1365v-141h-550v-461h489v-142h-489v-479h571v-142h-724v1365h703zM607 1476h-131q1 44 28 81l19 28q29 41 29 61q0 49 -68 49q-32 0 -76 -16l-41 104q72 28 134 28q84 0 134 -38t50 -101q0 -49 -32 -99l-32 -49q-14 -23 -14 -48z" />
    <glyph glyph-name="uni1EBB" unicode="&#x1ebb;" horiz-adv-x="1017" 
d="M945 392h-724q8 -57 26 -98q37 -89 115 -140q70 -46 160 -46q184 0 276 161l130 -55q-66 -116 -170.5 -177t-234.5 -61q-209 0 -339 157q-113 136 -113 324q0 127 57 237q62 114 167 178q101 60 217 60q191 0 312 -139q122 -140 122 -356q0 -24 -1 -45zM221 517h579
q-7 54 -25 98q-37 90 -110 140q-68 45 -152 45q-114 0 -194 -77q-78 -75 -98 -206zM609 1055h-131q1 42 28 81l19 28q28 38 28 60q0 49 -68 49q-31 0 -75 -15l-41 104q74 27 134 27q83 0 133 -38t50 -100q0 -49 -32 -99l-31 -50q-14 -22 -14 -47z" />
    <glyph glyph-name="uni1EBC" unicode="&#x1ebc;" horiz-adv-x="973" 
d="M867 1365v-141h-550v-461h489v-142h-489v-479h571v-142h-724v1365h703zM645 1722l118 -28q-8 -85 -49 -129.5t-112 -44.5q-54 0 -139 39q-66 31 -89 31q-24 0 -35.5 -15.5t-17.5 -57.5l-116 27q9 82 52 128t111 46q45 0 142 -44q60 -26 87 -26q25 0 35 15t13 59z" />
    <glyph glyph-name="uni1EBD" unicode="&#x1ebd;" horiz-adv-x="1017" 
d="M945 392h-724q8 -57 26 -98q37 -89 115 -140q70 -46 160 -46q184 0 276 161l130 -55q-66 -116 -170.5 -177t-234.5 -61q-209 0 -339 157q-113 136 -113 324q0 127 57 237q62 114 167 178q101 60 217 60q191 0 312 -139q122 -140 122 -356q0 -24 -1 -45zM221 517h579
q-7 54 -25 98q-37 90 -110 140q-68 45 -152 45q-114 0 -194 -77q-78 -75 -98 -206zM670 1312l117 -27q-7 -84 -48.5 -129t-112.5 -45q-52 0 -138 39q-66 31 -89 31q-24 0 -35.5 -15.5t-18.5 -58.5l-115 28q8 81 51.5 127.5t110.5 46.5q47 0 143 -44q58 -26 87 -26
q25 0 34.5 15t13.5 58z" />
    <glyph glyph-name="uni1EBE" unicode="&#x1ebe;" horiz-adv-x="973" 
d="M867 1365v-141h-550v-461h489v-142h-489v-479h571v-142h-724v1365h703zM970 1834l-242 -243l67 -74l-105 -53l-188 178l-188 -178l-106 53l236 258h116l93 -102l173 238z" />
    <glyph glyph-name="uni1EBF" unicode="&#x1ebf;" horiz-adv-x="1017" 
d="M945 392h-724q8 -57 26 -98q37 -89 115 -140q70 -46 160 -46q184 0 276 161l130 -55q-66 -116 -170.5 -177t-234.5 -61q-209 0 -339 157q-113 136 -113 324q0 127 57 237q62 114 167 178q101 60 217 60q191 0 312 -139q122 -140 122 -356q0 -24 -1 -45zM221 517h579
q-7 54 -25 98q-37 90 -110 140q-68 45 -152 45q-114 0 -194 -77q-78 -75 -98 -206zM902 1599l143 -77l-256 -258l-92 53zM455 1331h116l235 -258l-105 -53l-189 178l-188 -178l-105 53z" />
    <glyph glyph-name="uni1EC0" unicode="&#x1ec0;" horiz-adv-x="973" 
d="M867 1365v-141h-550v-461h489v-142h-489v-479h571v-142h-724v1365h703zM850 1577l-256 257l144 77l204 -281zM690 1464l-188 178l-188 -178l-106 53l236 258h116l235 -258z" />
    <glyph glyph-name="uni1EC1" unicode="&#x1ec1;" horiz-adv-x="1017" 
d="M945 392h-724q8 -57 26 -98q37 -89 115 -140q70 -46 160 -46q184 0 276 161l130 -55q-66 -116 -170.5 -177t-234.5 -61q-209 0 -339 157q-113 136 -113 324q0 127 57 237q62 114 167 178q101 60 217 60q191 0 312 -139q122 -140 122 -356q0 -24 -1 -45zM221 517h579
q-7 54 -25 98q-37 90 -110 140q-68 45 -152 45q-114 0 -194 -77q-78 -75 -98 -206zM772 1264l-256 258l143 77l205 -282zM701 1020l-189 178l-188 -178l-105 53l236 258h116l235 -258z" />
    <glyph glyph-name="uni1EC2" unicode="&#x1ec2;" horiz-adv-x="973" 
d="M867 1365v-141h-550v-461h489v-142h-489v-479h571v-142h-724v1365h703zM444 1775h116l235 -258l-105 -53l-188 178l-188 -178l-106 53zM892 1577h-131q1 42 28 81l19 28q29 41 29 61q0 49 -68 49q-32 0 -76 -16l-41 104q72 28 134 28q84 0 134 -38t50 -101q0 -49 -32 -99
l-32 -50q-14 -22 -14 -47z" />
    <glyph glyph-name="uni1EC3" unicode="&#x1ec3;" horiz-adv-x="1017" 
d="M945 392h-724q8 -57 26 -98q37 -89 115 -140q70 -46 160 -46q184 0 276 161l130 -55q-66 -116 -170.5 -177t-234.5 -61q-209 0 -339 157q-113 136 -113 324q0 127 57 237q62 114 167 178q101 60 217 60q191 0 312 -139q122 -140 122 -356q0 -24 -1 -45zM221 517h579
q-7 54 -25 98q-37 90 -110 140q-68 45 -152 45q-114 0 -194 -77q-78 -75 -98 -206zM455 1331h116l235 -258l-105 -53l-189 178l-188 -178l-105 53zM841 1264h-131q1 42 28 81l19 28q29 41 29 61q0 49 -68 49q-31 0 -76 -16l-41 104q72 28 134 28q84 0 134 -38t50 -101
q0 -49 -32 -99l-32 -49q-14 -23 -14 -48z" />
    <glyph glyph-name="uni1EC4" unicode="&#x1ec4;" horiz-adv-x="973" 
d="M867 1365v-141h-550v-461h489v-142h-489v-479h571v-142h-724v1365h703zM690 1413l-188 178l-188 -178l-106 53l236 258h116l235 -258zM663 1963l118 -28q-7 -84 -48.5 -129t-112.5 -45q-52 0 -139 39q-66 31 -88 31q-25 0 -36 -15.5t-18 -57.5l-116 27q9 82 52 128
t111 46q45 0 142 -44q60 -26 87 -26q25 0 35 15t13 59z" />
    <glyph glyph-name="uni1EC5" unicode="&#x1ec5;" horiz-adv-x="1017" 
d="M945 392h-724q8 -57 26 -98q37 -89 115 -140q70 -46 160 -46q184 0 276 161l130 -55q-66 -116 -170.5 -177t-234.5 -61q-209 0 -339 157q-113 136 -113 324q0 127 57 237q62 114 167 178q101 60 217 60q191 0 312 -139q122 -140 122 -356q0 -24 -1 -45zM221 517h579
q-7 54 -25 98q-37 90 -110 140q-68 45 -152 45q-114 0 -194 -77q-78 -75 -98 -206zM674 1599l117 -28q-7 -84 -48.5 -129t-111.5 -45q-53 0 -139 39q-66 31 -89 31q-24 0 -35.5 -15.5t-18.5 -57.5l-115 27q8 81 51.5 127.5t110.5 46.5q46 0 143 -44q58 -26 87 -26
q25 0 35 15t13 59zM701 1020l-189 178l-188 -178l-105 53l236 258h116l235 -258z" />
    <glyph glyph-name="uni1EC6" unicode="&#x1ec6;" horiz-adv-x="973" 
d="M867 1365v-141h-550v-461h489v-142h-489v-479h571v-142h-724v1365h703zM553 -123q43 0 73 -30t30 -72q0 -43 -30 -73t-73 -30t-72.5 30t-29.5 74q0 41 30 71t72 30zM714 1464l-188 178l-189 -178l-105 53l236 258h116l235 -258z" />
    <glyph glyph-name="uni1EC7" unicode="&#x1ec7;" horiz-adv-x="1017" 
d="M945 392h-724q8 -57 26 -98q37 -89 115 -140q70 -46 160 -46q184 0 276 161l130 -55q-66 -116 -170.5 -177t-234.5 -61q-209 0 -339 157q-113 136 -113 324q0 127 57 237q62 114 167 178q101 60 217 60q191 0 312 -139q122 -140 122 -356q0 -24 -1 -45zM221 517h579
q-7 54 -25 98q-37 90 -110 140q-68 45 -152 45q-114 0 -194 -77q-78 -75 -98 -206zM523 -123q43 0 73 -30t30 -72q0 -43 -30 -73t-73 -30q-42 0 -72 30.5t-30 73.5q0 41 30 71t72 30zM701 1054l-189 178l-188 -178l-105 53l236 258h116l235 -258z" />
    <glyph glyph-name="uni1EC8" unicode="&#x1ec8;" horiz-adv-x="481" 
d="M164 1365h153v-1365h-153v1365zM317 1476h-131q1 44 28 81l19 28q29 41 29 61q0 49 -68 49q-32 0 -76 -16l-41 104q72 28 134 28q84 0 134 -38t50 -101q0 -49 -32 -99l-32 -49q-14 -23 -14 -48z" />
    <glyph glyph-name="uni1EC9" unicode="&#x1ec9;" horiz-adv-x="408" 
d="M131 908h146v-908h-146v908zM277 1055h-131q1 42 28 81l19 28q29 41 29 60q0 49 -68 49q-31 0 -76 -15l-41 104q74 27 134 27q84 0 134 -38t50 -100q0 -49 -32 -99l-32 -50q-14 -22 -14 -47z" />
    <glyph glyph-name="uni1ECA" unicode="&#x1eca;" horiz-adv-x="481" 
d="M164 1365h153v-1365h-153v1365zM240 -123q43 0 73 -30t30 -72q0 -43 -30 -73t-73 -30q-42 0 -72 30.5t-30 73.5q0 41 30 71t72 30z" />
    <glyph glyph-name="uni1ECB" unicode="&#x1ecb;" horiz-adv-x="408" 
d="M131 908h146v-908h-146v908zM205 1314q43 0 73.5 -30.5t30.5 -73.5q0 -44 -30.5 -74.5t-74.5 -30.5q-43 0 -73.5 31t-30.5 75q0 42 31 72.5t74 30.5zM204 -123q43 0 73 -30t30 -72q0 -43 -30 -73t-73 -30q-42 0 -72 30.5t-30 73.5q0 41 30 71t72 30z" />
    <glyph glyph-name="uni1ECC" unicode="&#x1ecc;" horiz-adv-x="1565" 
d="M782 1389q187 0 344 -94q164 -98 258 -260q95 -164 95 -353q0 -188 -95 -354q-92 -158 -248 -252q-166 -100 -359 -100q-182 0 -348 100q-156 94 -248 252q-95 167 -95 365q0 184 95 342q100 168 258 260q160 94 343 94zM778 1246q-151 0 -279 -83q-129 -83 -197 -218
q-62 -122 -62 -272q0 -140 67 -264q70 -130 199 -210q131 -80 276 -80q146 0 277 80q128 79 199 210q67 125 67 273q0 240 -166 407q-156 157 -381 157zM783 -123q43 0 73 -30t30 -72q0 -43 -30 -73t-73 -30t-72.5 30t-29.5 74q0 41 30 71t72 30z" />
    <glyph glyph-name="uni1ECD" unicode="&#x1ecd;" horiz-adv-x="1077" 
d="M546 932q203 0 341 -156q119 -136 119 -321q0 -218 -154 -359q-130 -120 -314 -120q-212 0 -348 156q-119 136 -119 326q0 213 154 354q131 120 321 120zM533 799q-151 0 -245 -120q-70 -88 -70 -225q0 -159 95 -254q92 -92 225 -92q159 0 252 120q69 92 69 229
q0 156 -94 250q-92 92 -232 92zM539 -123q43 0 73 -30t30 -72q0 -43 -30 -73t-73 -30t-72.5 30t-29.5 74q0 41 30 71t72 30z" />
    <glyph glyph-name="uni1ECE" unicode="&#x1ece;" horiz-adv-x="1565" 
d="M782 1389q187 0 344 -94q164 -98 258 -260q95 -164 95 -353q0 -188 -95 -354q-92 -158 -248 -252q-166 -100 -359 -100q-182 0 -348 100q-156 94 -248 252q-95 167 -95 365q0 184 95 342q100 168 258 260q160 94 343 94zM778 1246q-151 0 -279 -83q-129 -83 -197 -218
q-62 -122 -62 -272q0 -140 67 -264q70 -130 199 -210q131 -80 276 -80q146 0 277 80q128 79 199 210q67 125 67 273q0 240 -166 407q-156 157 -381 157zM863 1476h-130q1 45 27 81l20 28q28 40 28 61q0 49 -68 49q-31 0 -75 -16l-41 104q72 28 134 28q83 0 133 -38t50 -101
q0 -49 -32 -99l-31 -49q-14 -22 -15 -48z" />
    <glyph glyph-name="uni1ECF" unicode="&#x1ecf;" horiz-adv-x="1077" 
d="M546 932q203 0 341 -156q119 -136 119 -321q0 -218 -154 -359q-130 -120 -314 -120q-212 0 -348 156q-119 136 -119 326q0 213 154 354q131 120 321 120zM533 799q-151 0 -245 -120q-70 -88 -70 -225q0 -159 95 -254q92 -92 225 -92q159 0 252 120q69 92 69 229
q0 156 -94 250q-92 92 -232 92zM620 1055h-131q1 42 28 81l19 28q28 38 28 60q0 49 -68 49q-32 0 -75 -15l-41 104q74 27 134 27q83 0 133 -38t50 -100q0 -49 -32 -99l-31 -50q-14 -22 -14 -47z" />
    <glyph glyph-name="uni1ED0" unicode="&#x1ed0;" horiz-adv-x="1565" 
d="M782 1389q187 0 344 -94q164 -98 258 -260q95 -164 95 -353q0 -188 -95 -354q-92 -158 -248 -252q-166 -100 -359 -100q-182 0 -348 100q-156 94 -248 252q-95 167 -95 365q0 184 95 342q100 168 258 260q160 94 343 94zM778 1246q-151 0 -279 -83q-129 -83 -197 -218
q-62 -122 -62 -272q0 -140 67 -264q70 -130 199 -210q131 -80 276 -80q146 0 277 80q128 79 199 210q67 125 67 273q0 240 -166 407q-156 157 -381 157zM1250 1834l-242 -243l68 -74l-105 -53l-189 178l-188 -178l-105 53l235 258h116l93 -102l174 238z" />
    <glyph glyph-name="uni1ED1" unicode="&#x1ed1;" horiz-adv-x="1077" 
d="M546 932q203 0 341 -156q119 -136 119 -321q0 -218 -154 -359q-130 -120 -314 -120q-212 0 -348 156q-119 136 -119 326q0 213 154 354q131 120 321 120zM533 799q-151 0 -245 -120q-70 -88 -70 -225q0 -159 95 -254q92 -92 225 -92q159 0 252 120q69 92 69 229
q0 156 -94 250q-92 92 -232 92zM481 1331h116l235 -258l-105 -53l-188 178l-189 -178l-105 53zM928 1599l143 -77l-256 -258l-92 53z" />
    <glyph glyph-name="uni1ED2" unicode="&#x1ed2;" horiz-adv-x="1565" 
d="M782 1389q187 0 344 -94q164 -98 258 -260q95 -164 95 -353q0 -188 -95 -354q-92 -158 -248 -252q-166 -100 -359 -100q-182 0 -348 100q-156 94 -248 252q-95 167 -95 365q0 184 95 342q100 168 258 260q160 94 343 94zM778 1246q-151 0 -279 -83q-129 -83 -197 -218
q-62 -122 -62 -272q0 -140 67 -264q70 -130 199 -210q131 -80 276 -80q146 0 277 80q128 79 199 210q67 125 67 273q0 240 -166 407q-156 157 -381 157zM971 1464l-189 178l-188 -178l-105 53l235 258h116l236 -258zM1131 1577l-256 257l143 77l205 -281z" />
    <glyph glyph-name="uni1ED3" unicode="&#x1ed3;" horiz-adv-x="1077" 
d="M546 932q203 0 341 -156q119 -136 119 -321q0 -218 -154 -359q-130 -120 -314 -120q-212 0 -348 156q-119 136 -119 326q0 213 154 354q131 120 321 120zM533 799q-151 0 -245 -120q-70 -88 -70 -225q0 -159 95 -254q92 -92 225 -92q159 0 252 120q69 92 69 229
q0 156 -94 250q-92 92 -232 92zM727 1020l-188 178l-189 -178l-105 53l236 258h116l235 -258zM798 1264l-256 258l144 77l204 -282z" />
    <glyph glyph-name="uni1ED4" unicode="&#x1ed4;" horiz-adv-x="1565" 
d="M782 1389q187 0 344 -94q164 -98 258 -260q95 -164 95 -353q0 -188 -95 -354q-92 -158 -248 -252q-166 -100 -359 -100q-182 0 -348 100q-156 94 -248 252q-95 167 -95 365q0 184 95 342q100 168 258 260q160 94 343 94zM778 1246q-151 0 -279 -83q-129 -83 -197 -218
q-62 -122 -62 -272q0 -140 67 -264q70 -130 199 -210q131 -80 276 -80q146 0 277 80q128 79 199 210q67 125 67 273q0 240 -166 407q-156 157 -381 157zM724 1775h116l236 -258l-105 -53l-189 178l-188 -178l-105 53zM1172 1577h-130q2 43 27 81l20 28q28 40 28 61
q0 49 -68 49q-32 0 -76 -16l-40 104q72 28 134 28q83 0 133 -38t50 -101q0 -49 -32 -99l-32 -50q-14 -22 -14 -47z" />
    <glyph glyph-name="uni1ED5" unicode="&#x1ed5;" horiz-adv-x="1077" 
d="M546 932q203 0 341 -156q119 -136 119 -321q0 -218 -154 -359q-130 -120 -314 -120q-212 0 -348 156q-119 136 -119 326q0 213 154 354q131 120 321 120zM533 799q-151 0 -245 -120q-70 -88 -70 -225q0 -159 95 -254q92 -92 225 -92q159 0 252 120q69 92 69 229
q0 156 -94 250q-92 92 -232 92zM481 1331h116l235 -258l-105 -53l-188 178l-189 -178l-105 53zM867 1264h-130q1 44 27 81l20 28q28 40 28 61q0 49 -68 49q-31 0 -76 -16l-41 104q72 28 135 28q83 0 133 -38t50 -101q0 -49 -32 -99l-32 -49q-14 -23 -14 -48z" />
    <glyph glyph-name="uni1ED6" unicode="&#x1ed6;" horiz-adv-x="1565" 
d="M782 1389q187 0 344 -94q164 -98 258 -260q95 -164 95 -353q0 -188 -95 -354q-92 -158 -248 -252q-166 -100 -359 -100q-182 0 -348 100q-156 94 -248 252q-95 167 -95 365q0 184 95 342q100 168 258 260q160 94 343 94zM778 1246q-151 0 -279 -83q-129 -83 -197 -218
q-62 -122 -62 -272q0 -140 67 -264q70 -130 199 -210q131 -80 276 -80q146 0 277 80q128 79 199 210q67 125 67 273q0 240 -166 407q-156 157 -381 157zM971 1413l-189 178l-188 -178l-105 53l235 258h116l236 -258zM944 1963l117 -28q-7 -84 -48.5 -129t-112.5 -45
q-52 0 -138 39q-66 31 -89 31q-24 0 -35.5 -15.5t-18.5 -57.5l-115 27q8 81 51.5 127.5t110.5 46.5q46 0 143 -44q58 -26 87 -26q24 0 34 15t14 59z" />
    <glyph glyph-name="uni1ED7" unicode="&#x1ed7;" horiz-adv-x="1077" 
d="M546 932q203 0 341 -156q119 -136 119 -321q0 -218 -154 -359q-130 -120 -314 -120q-212 0 -348 156q-119 136 -119 326q0 213 154 354q131 120 321 120zM533 799q-151 0 -245 -120q-70 -88 -70 -225q0 -159 95 -254q92 -92 225 -92q159 0 252 120q69 92 69 229
q0 156 -94 250q-92 92 -232 92zM700 1599l117 -28q-7 -84 -48 -129t-112 -45q-52 0 -139 39q-66 31 -89 31q-24 0 -35.5 -15.5t-18.5 -57.5l-115 27q9 81 52 127.5t110 46.5q46 0 143 -44q60 -26 87 -26q25 0 35 15t13 59zM727 1020l-188 178l-189 -178l-105 53l236 258h116
l235 -258z" />
    <glyph glyph-name="uni1ED8" unicode="&#x1ed8;" horiz-adv-x="1565" 
d="M782 1389q187 0 344 -94q164 -98 258 -260q95 -164 95 -353q0 -188 -95 -354q-92 -158 -248 -252q-166 -100 -359 -100q-182 0 -348 100q-156 94 -248 252q-95 167 -95 365q0 184 95 342q100 168 258 260q160 94 343 94zM778 1246q-151 0 -279 -83q-129 -83 -197 -218
q-62 -122 -62 -272q0 -140 67 -264q70 -130 199 -210q131 -80 276 -80q146 0 277 80q128 79 199 210q67 125 67 273q0 240 -166 407q-156 157 -381 157zM971 1464l-189 178l-188 -178l-105 53l235 258h116l236 -258zM782 -123q43 0 73 -30t30 -72q0 -43 -30 -73t-73 -30
t-72.5 30t-29.5 74q0 41 30 71t72 30z" />
    <glyph glyph-name="uni1ED9" unicode="&#x1ed9;" horiz-adv-x="1077" 
d="M546 932q203 0 341 -156q119 -136 119 -321q0 -218 -154 -359q-130 -120 -314 -120q-212 0 -348 156q-119 136 -119 326q0 213 154 354q131 120 321 120zM533 799q-151 0 -245 -120q-70 -88 -70 -225q0 -159 95 -254q92 -92 225 -92q159 0 252 120q69 92 69 229
q0 156 -94 250q-92 92 -232 92zM539 -123q43 0 73 -30t30 -72q0 -43 -30 -73t-73 -30t-72.5 30t-29.5 74q0 41 30 71t72 30zM727 1054l-188 178l-189 -178l-105 53l236 258h116l235 -258z" />
    <glyph glyph-name="uni1EDA" unicode="&#x1eda;" horiz-adv-x="1565" 
d="M1285 1168q104 53 104 143q0 88 -86 160l102 51q114 -82 114 -215q0 -144 -155 -240q115 -178 115 -386q0 -187 -95 -353q-91 -157 -248 -252q-164 -100 -354 -100q-189 0 -353 100q-156 94 -248 252q-95 166 -95 354q0 190 94 353q94 165 259 260q160 94 343 94
q141 0 272.5 -57.5t230.5 -163.5zM778 1246q-151 0 -279 -83q-129 -83 -197 -218q-62 -122 -62 -272q0 -140 67 -264q70 -130 199 -210q131 -80 276 -80q146 0 277 80q128 79 199 210q67 125 67 273q0 240 -166 407q-156 157 -381 157zM895 1799l144 -77l-257 -258l-92 53z
" />
    <glyph glyph-name="uni1EDB" unicode="&#x1edb;" horiz-adv-x="1146" 
d="M920 735q62 47 62 119q0 86 -86 160l102 51q114 -82 114 -215q0 -132 -135 -227q29 -79 29 -166q0 -220 -154 -361q-130 -120 -314 -120q-212 0 -348 156q-119 137 -119 322q0 219 154 358q131 120 313 120q117 0 216 -51.5t166 -145.5zM533 800q-152 0 -245 -120
q-70 -89 -70 -225q0 -158 95 -255q92 -92 225 -92q159 0 252 121q69 90 69 229q0 155 -94 250q-92 92 -232 92zM622 1389l144 -77l-257 -258l-91 53z" />
    <glyph glyph-name="uni1EDC" unicode="&#x1edc;" horiz-adv-x="1565" 
d="M1285 1168q104 53 104 143q0 88 -86 160l102 51q114 -82 114 -215q0 -144 -155 -240q115 -178 115 -386q0 -187 -95 -353q-91 -157 -248 -252q-164 -100 -354 -100q-189 0 -353 100q-156 94 -248 252q-95 166 -95 354q0 190 94 353q94 165 259 260q160 94 343 94
q141 0 272.5 -57.5t230.5 -163.5zM778 1246q-151 0 -279 -83q-129 -83 -197 -218q-62 -122 -62 -272q0 -140 67 -264q70 -130 199 -210q131 -80 276 -80q146 0 277 80q128 79 199 210q67 125 67 273q0 240 -166 407q-156 157 -381 157zM782 1464l-256 258l143 77l205 -282z
" />
    <glyph glyph-name="uni1EDD" unicode="&#x1edd;" horiz-adv-x="1146" 
d="M920 735q62 47 62 119q0 86 -86 160l102 51q114 -82 114 -215q0 -132 -135 -227q29 -79 29 -166q0 -220 -154 -361q-130 -120 -314 -120q-212 0 -348 156q-119 137 -119 322q0 219 154 358q131 120 313 120q117 0 216 -51.5t166 -145.5zM533 800q-152 0 -245 -120
q-70 -89 -70 -225q0 -158 95 -255q92 -92 225 -92q159 0 252 121q69 90 69 229q0 155 -94 250q-92 92 -232 92zM539 1054l-257 258l144 77l205 -282z" />
    <glyph glyph-name="uni1EDE" unicode="&#x1ede;" horiz-adv-x="1565" 
d="M1285 1168q104 53 104 143q0 88 -86 160l102 51q114 -82 114 -215q0 -144 -155 -240q115 -178 115 -386q0 -187 -95 -353q-91 -157 -248 -252q-164 -100 -354 -100q-189 0 -353 100q-156 94 -248 252q-95 166 -95 354q0 190 94 353q94 165 259 260q160 94 343 94
q141 0 272.5 -57.5t230.5 -163.5zM778 1246q-151 0 -279 -83q-129 -83 -197 -218q-62 -122 -62 -272q0 -140 67 -264q70 -130 199 -210q131 -80 276 -80q146 0 277 80q128 79 199 210q67 125 67 273q0 240 -166 407q-156 157 -381 157zM882 1476h-130q2 45 27 81l20 28
q28 40 28 61q0 49 -68 49q-32 0 -76 -16l-41 104q72 28 135 28q83 0 133 -38t50 -101q0 -49 -32 -99l-32 -49q-14 -23 -14 -48z" />
    <glyph glyph-name="uni1EDF" unicode="&#x1edf;" horiz-adv-x="1146" 
d="M920 735q62 47 62 119q0 86 -86 160l102 51q114 -82 114 -215q0 -132 -135 -227q29 -79 29 -166q0 -220 -154 -361q-130 -120 -314 -120q-212 0 -348 156q-119 137 -119 322q0 219 154 358q131 120 313 120q117 0 216 -51.5t166 -145.5zM533 800q-152 0 -245 -120
q-70 -89 -70 -225q0 -158 95 -255q92 -92 225 -92q159 0 252 121q69 90 69 229q0 155 -94 250q-92 92 -232 92zM635 1055h-131q1 42 28 81l19 28q29 41 29 60q0 49 -68 49q-31 0 -76 -15l-41 104q73 27 134 27q84 0 134 -38t50 -100q0 -49 -32 -99l-32 -50q-14 -22 -14 -47z
" />
    <glyph glyph-name="uni1EE0" unicode="&#x1ee0;" horiz-adv-x="1565" 
d="M1285 1168q104 53 104 143q0 88 -86 160l102 51q114 -82 114 -215q0 -144 -155 -240q115 -178 115 -386q0 -187 -95 -353q-91 -157 -248 -252q-164 -100 -354 -100q-189 0 -353 100q-156 94 -248 252q-95 166 -95 354q0 190 94 353q94 165 259 260q160 94 343 94
q141 0 272.5 -57.5t230.5 -163.5zM778 1246q-151 0 -279 -83q-129 -83 -197 -218q-62 -122 -62 -272q0 -140 67 -264q70 -130 199 -210q131 -80 276 -80q146 0 277 80q128 79 199 210q67 125 67 273q0 240 -166 407q-156 157 -381 157zM944 1722l117 -28q-7 -84 -48.5 -129
t-112.5 -45q-52 0 -138 39q-66 31 -89 31q-24 0 -35.5 -15.5t-18.5 -57.5l-115 27q8 81 51.5 127.5t110.5 46.5q46 0 143 -44q58 -26 87 -26q24 0 34 15t14 59z" />
    <glyph glyph-name="uni1EE1" unicode="&#x1ee1;" horiz-adv-x="1146" 
d="M920 735q62 47 62 119q0 86 -86 160l102 51q114 -82 114 -215q0 -132 -135 -227q29 -79 29 -166q0 -220 -154 -361q-130 -120 -314 -120q-212 0 -348 156q-119 137 -119 322q0 219 154 358q131 120 313 120q117 0 216 -51.5t166 -145.5zM533 800q-152 0 -245 -120
q-70 -89 -70 -225q0 -158 95 -255q92 -92 225 -92q159 0 252 121q69 90 69 229q0 155 -94 250q-92 92 -232 92zM700 1312l117 -27q-7 -84 -48 -129t-112 -45q-53 0 -139 39q-66 31 -89 31q-24 0 -35.5 -15.5t-18.5 -58.5l-115 28q9 81 52 127.5t110 46.5q47 0 143 -44
q58 -26 87 -26q25 0 35 15t13 58z" />
    <glyph glyph-name="uni1EE2" unicode="&#x1ee2;" horiz-adv-x="1565" 
d="M1285 1168q104 53 104 143q0 88 -86 160l102 51q114 -82 114 -215q0 -144 -155 -240q115 -178 115 -386q0 -187 -95 -353q-91 -157 -248 -252q-164 -100 -354 -100q-189 0 -353 100q-156 94 -248 252q-95 166 -95 354q0 190 94 353q94 165 259 260q160 94 343 94
q141 0 272.5 -57.5t230.5 -163.5zM778 1246q-151 0 -279 -83q-129 -83 -197 -218q-62 -122 -62 -272q0 -140 67 -264q70 -130 199 -210q131 -80 276 -80q146 0 277 80q128 79 199 210q67 125 67 273q0 240 -166 407q-156 157 -381 157zM783 -123q43 0 73 -30t30 -72
q0 -43 -30 -73t-73 -30t-72.5 30t-29.5 74q0 41 30 71t72 30z" />
    <glyph glyph-name="uni1EE3" unicode="&#x1ee3;" horiz-adv-x="1146" 
d="M920 735q62 47 62 119q0 86 -86 160l102 51q114 -82 114 -215q0 -132 -135 -227q29 -79 29 -166q0 -220 -154 -361q-130 -120 -314 -120q-212 0 -348 156q-119 137 -119 322q0 219 154 358q131 120 313 120q117 0 216 -51.5t166 -145.5zM533 800q-152 0 -245 -120
q-70 -89 -70 -225q0 -158 95 -255q92 -92 225 -92q159 0 252 121q69 90 69 229q0 155 -94 250q-92 92 -232 92zM539 -123q43 0 73 -30t30 -72q0 -43 -30 -73t-73 -30t-72.5 30t-29.5 74q0 41 30 71t72 30z" />
    <glyph glyph-name="uni1EE4" unicode="&#x1ee4;" horiz-adv-x="1301" 
d="M164 1365h153v-846q0 -108 10 -159q10 -55 36 -97q38 -62 115 -102q80 -43 172 -43q127 0 225 76q65 50 87 117q22 65 22 208v846h153v-887q0 -109 -20.5 -182.5t-68.5 -134.5q-71 -91 -181 -140q-102 -46 -216 -46q-166 0 -297 91q-103 71 -146 166q-44 97 -44 246v887z
M651 -123q43 0 73 -30t30 -72q0 -43 -30 -73t-73 -30t-72.5 30t-29.5 74q0 41 30 71t72 30z" />
    <glyph glyph-name="uni1EE5" unicode="&#x1ee5;" horiz-adv-x="1043" 
d="M768 0v102q-100 -126 -273 -126q-167 0 -272 115q-50 54 -72 130.5t-22 194.5v492h146v-475q0 -98 14 -154.5t48 -93.5q63 -69 171 -69q132 0 203 86q57 69 57 252v454h146v-908h-146zM498 -123q43 0 73 -30t30 -72q0 -43 -30 -73t-73 -30t-72.5 30t-29.5 74q0 41 30 71
t72 30z" />
    <glyph glyph-name="uni1EE6" unicode="&#x1ee6;" horiz-adv-x="1301" 
d="M164 1365h153v-846q0 -108 10 -159q10 -55 36 -97q38 -62 115 -102q80 -43 172 -43q127 0 225 76q65 50 87 117q22 65 22 208v846h153v-887q0 -109 -20.5 -182.5t-68.5 -134.5q-71 -91 -181 -140q-102 -46 -216 -46q-166 0 -297 91q-103 71 -146 166q-44 97 -44 246v887z
M732 1476h-131q1 44 28 81l19 28q29 41 29 61q0 49 -68 49q-32 0 -76 -16l-41 104q72 28 134 28q84 0 134 -38t50 -101q0 -49 -32 -99l-32 -49q-14 -23 -14 -48z" />
    <glyph glyph-name="uni1EE7" unicode="&#x1ee7;" horiz-adv-x="1043" 
d="M768 0v102q-100 -126 -273 -126q-167 0 -272 115q-50 54 -72 130.5t-22 194.5v492h146v-475q0 -98 14 -154.5t48 -93.5q63 -69 171 -69q132 0 203 86q57 69 57 252v454h146v-908h-146zM602 1055h-130q1 42 28 81l19 28q28 38 28 60q0 49 -68 49q-31 0 -75 -15l-41 104
q73 27 134 27q83 0 133 -38t50 -100q0 -49 -32 -99l-31 -50q-13 -21 -15 -47z" />
    <glyph glyph-name="uni1EE8" unicode="&#x1ee8;" horiz-adv-x="1361" 
d="M1137 1365v-188q86 50 86 134q0 88 -86 160l102 51q114 -82 114 -215q0 -85 -57 -156.5t-159 -113.5v-559q0 -108 -21 -182t-68 -135q-71 -91 -181 -140q-102 -46 -217 -46q-163 0 -296 91q-103 71 -146 166q-44 97 -44 246v887h153v-846q0 -108 10 -159q10 -55 36 -97
q38 -62 115 -102q80 -43 172 -43q125 0 225 77q65 50 87 116q22 65 22 208v846h153zM764 1799l143 -77l-256 -258l-92 53z" />
    <glyph glyph-name="uni1EE9" unicode="&#x1ee9;" horiz-adv-x="1165" 
d="M914 908v-188q86 50 86 134q0 86 -86 160l102 51q114 -82 114 -215q0 -85 -57 -156t-159 -114v-580h-146v102q-100 -126 -273 -126q-167 0 -272 115q-50 54 -72 130.5t-22 194.5v492h146v-475q0 -98 14 -154.5t48 -93.5q63 -69 171 -69q132 0 203 86q57 69 57 252v454
h146zM624 1389l144 -77l-257 -258l-91 53z" />
    <glyph glyph-name="uni1EEA" unicode="&#x1eea;" horiz-adv-x="1361" 
d="M1137 1365v-188q86 50 86 134q0 88 -86 160l102 51q114 -82 114 -215q0 -85 -57 -156.5t-159 -113.5v-559q0 -108 -21 -182t-68 -135q-71 -91 -181 -140q-102 -46 -217 -46q-163 0 -296 91q-103 71 -146 166q-44 97 -44 246v887h153v-846q0 -108 10 -159q10 -55 36 -97
q38 -62 115 -102q80 -43 172 -43q125 0 225 77q65 50 87 116q22 65 22 208v846h153zM651 1464l-257 258l144 77l204 -282z" />
    <glyph glyph-name="uni1EEB" unicode="&#x1eeb;" horiz-adv-x="1165" 
d="M914 908v-188q86 50 86 134q0 86 -86 160l102 51q114 -82 114 -215q0 -85 -57 -156t-159 -114v-580h-146v102q-100 -126 -273 -126q-167 0 -272 115q-50 54 -72 130.5t-22 194.5v492h146v-475q0 -98 14 -154.5t48 -93.5q63 -69 171 -69q132 0 203 86q57 69 57 252v454
h146zM511 1054l-256 258l144 77l204 -282z" />
    <glyph glyph-name="uni1EEC" unicode="&#x1eec;" horiz-adv-x="1361" 
d="M1137 1365v-188q86 50 86 134q0 88 -86 160l102 51q114 -82 114 -215q0 -85 -57 -156.5t-159 -113.5v-559q0 -108 -21 -182t-68 -135q-71 -91 -181 -140q-102 -46 -217 -46q-163 0 -296 91q-103 71 -146 166q-44 97 -44 246v887h153v-846q0 -108 10 -159q10 -55 36 -97
q38 -62 115 -102q80 -43 172 -43q125 0 225 77q65 50 87 116q22 65 22 208v846h153zM747 1476h-131q1 44 28 81l19 28q29 41 29 61q0 49 -68 49q-32 0 -76 -16l-41 104q72 28 134 28q84 0 134 -38t50 -101q0 -49 -32 -99l-32 -49q-14 -23 -14 -48z" />
    <glyph glyph-name="uni1EED" unicode="&#x1eed;" horiz-adv-x="1165" 
d="M914 908v-188q86 50 86 134q0 86 -86 160l102 51q114 -82 114 -215q0 -85 -57 -156t-159 -114v-580h-146v102q-100 -126 -273 -126q-167 0 -272 115q-50 54 -72 130.5t-22 194.5v492h146v-475q0 -98 14 -154.5t48 -93.5q63 -69 171 -69q132 0 203 86q57 69 57 252v454
h146zM608 1055h-131q1 42 28 81l19 28q29 41 29 60q0 49 -68 49q-31 0 -76 -15l-41 104q73 27 134 27q84 0 134 -38t50 -100q0 -49 -32 -99l-32 -50q-14 -22 -14 -47z" />
    <glyph glyph-name="uni1EEE" unicode="&#x1eee;" horiz-adv-x="1361" 
d="M1137 1365v-188q86 50 86 134q0 88 -86 160l102 51q114 -82 114 -215q0 -85 -57 -156.5t-159 -113.5v-559q0 -108 -21 -182t-68 -135q-71 -91 -181 -140q-102 -46 -217 -46q-163 0 -296 91q-103 71 -146 166q-44 97 -44 246v887h153v-846q0 -108 10 -159q10 -55 36 -97
q38 -62 115 -102q80 -43 172 -43q125 0 225 77q65 50 87 116q22 65 22 208v846h153zM812 1722l118 -28q-8 -85 -49 -129.5t-112 -44.5q-53 0 -139 39q-66 31 -89 31q-24 0 -35.5 -15.5t-17.5 -57.5l-116 27q9 82 52 128t111 46q45 0 142 -44q60 -26 87 -26q25 0 35 15t13 59
z" />
    <glyph glyph-name="uni1EEF" unicode="&#x1eef;" horiz-adv-x="1165" 
d="M914 908v-188q86 50 86 134q0 86 -86 160l102 51q114 -82 114 -215q0 -85 -57 -156t-159 -114v-580h-146v102q-100 -126 -273 -126q-167 0 -272 115q-50 54 -72 130.5t-22 194.5v492h146v-475q0 -98 14 -154.5t48 -93.5q63 -69 171 -69q132 0 203 86q57 69 57 252v454
h146zM683 1312l117 -27q-7 -84 -48 -129t-112 -45q-54 0 -139 39q-66 31 -89 31q-24 0 -35.5 -15.5t-18.5 -58.5l-115 28q9 81 52 127.5t110 46.5q47 0 143 -44q58 -26 87 -26q25 0 35 15t13 58z" />
    <glyph glyph-name="uni1EF0" unicode="&#x1ef0;" horiz-adv-x="1361" 
d="M1137 1365v-188q86 50 86 134q0 88 -86 160l102 51q114 -82 114 -215q0 -85 -57 -156.5t-159 -113.5v-559q0 -108 -21 -182t-68 -135q-71 -91 -181 -140q-102 -46 -217 -46q-163 0 -296 91q-103 71 -146 166q-44 97 -44 246v887h153v-846q0 -108 10 -159q10 -55 36 -97
q38 -62 115 -102q80 -43 172 -43q125 0 225 77q65 50 87 116q22 65 22 208v846h153zM651 -123q43 0 73 -30t30 -72q0 -43 -30 -73t-73 -30t-72.5 30t-29.5 74q0 41 30 71t72 30z" />
    <glyph glyph-name="uni1EF1" unicode="&#x1ef1;" horiz-adv-x="1165" 
d="M914 908v-188q86 50 86 134q0 86 -86 160l102 51q114 -82 114 -215q0 -85 -57 -156t-159 -114v-580h-146v102q-100 -126 -273 -126q-167 0 -272 115q-50 54 -72 130.5t-22 194.5v492h146v-475q0 -98 14 -154.5t48 -93.5q63 -69 171 -69q132 0 203 86q57 69 57 252v454
h146zM522 -123q43 0 73 -30t30 -72q0 -43 -30 -73t-73 -30t-72.5 30.5t-29.5 73.5q0 41 30 71t72 30z" />
    <glyph glyph-name="Ygrave" unicode="&#x1ef2;" horiz-adv-x="1038" 
d="M442 0v570l-442 795h167l352 -652l352 652h166l-442 -795v-570h-153zM533 1464l-257 258l144 77l205 -282z" />
    <glyph glyph-name="ygrave" unicode="&#x1ef3;" horiz-adv-x="904" 
d="M145 -478l225 519l-369 867h157l289 -690l299 690h156l-607 -1386h-150zM465 1054l-256 258l144 77l204 -282z" />
    <glyph glyph-name="uni1EF4" unicode="&#x1ef4;" horiz-adv-x="1038" 
d="M442 0v570l-442 795h167l352 -652l352 652h166l-442 -795v-570h-153zM518 -123q43 0 73 -30t30 -72q0 -43 -30 -73t-73 -30t-72.5 30t-29.5 74q0 41 30 71t72 30z" />
    <glyph glyph-name="uni1EF5" unicode="&#x1ef5;" horiz-adv-x="904" 
d="M145 -478l225 519l-369 867h157l289 -690l299 690h156l-607 -1386h-150zM663 -123q43 0 73 -30t30 -72q0 -43 -30 -73t-73 -30t-72.5 30t-29.5 74q0 41 30 71t72 30z" />
    <glyph glyph-name="uni1EF6" unicode="&#x1ef6;" horiz-adv-x="1038" 
d="M442 0v570l-442 795h167l352 -652l352 652h166l-442 -795v-570h-153zM600 1476h-131q1 44 28 81l19 28q29 41 29 61q0 49 -68 49q-32 0 -76 -16l-41 104q72 28 134 28q84 0 134 -38t50 -101q0 -49 -32 -99l-32 -49q-14 -23 -14 -48z" />
    <glyph glyph-name="uni1EF7" unicode="&#x1ef7;" horiz-adv-x="904" 
d="M145 -478l225 519l-369 867h157l289 -690l299 690h156l-607 -1386h-150zM533 1055h-131q1 42 28 81l19 28q28 38 28 60q0 49 -68 49q-31 0 -75 -15l-41 104q74 27 134 27q83 0 133 -38t50 -100q0 -49 -32 -99l-31 -50q-14 -22 -14 -47z" />
    <glyph glyph-name="uni1EF8" unicode="&#x1ef8;" horiz-adv-x="1038" 
d="M442 0v570l-442 795h167l352 -652l352 652h166l-442 -795v-570h-153zM680 1722l118 -28q-8 -85 -49 -129.5t-112 -44.5q-53 0 -139 39q-66 31 -89 31q-24 0 -35.5 -15.5t-17.5 -57.5l-116 27q9 82 52 128t111 46q45 0 142 -44q60 -26 87 -26q25 0 35 15t13 59z" />
    <glyph glyph-name="uni1EF9" unicode="&#x1ef9;" horiz-adv-x="904" 
d="M145 -478l225 519l-369 867h157l289 -690l299 690h156l-607 -1386h-150zM613 1312l117 -27q-7 -84 -48 -129t-112 -45q-54 0 -139 39q-66 31 -89 31q-24 0 -35.5 -15.5t-18.5 -58.5l-115 28q9 81 52 127.5t110 46.5q47 0 143 -44q58 -26 87 -26q25 0 35 15t13 58z" />
    <glyph glyph-name="uni2002" unicode="&#x2002;" horiz-adv-x="1024" 
 />
    <glyph glyph-name="uni2003" unicode="&#x2003;" horiz-adv-x="2048" 
 />
    <glyph glyph-name="uni2004" unicode="&#x2004;" horiz-adv-x="683" 
 />
    <glyph glyph-name="uni2005" unicode="&#x2005;" horiz-adv-x="512" 
 />
    <glyph glyph-name="uni2006" unicode="&#x2006;" horiz-adv-x="137" 
 />
    <glyph glyph-name="uni2007" unicode="&#x2007;" horiz-adv-x="1139" 
 />
    <glyph glyph-name="uni2009" unicode="&#x2009;" horiz-adv-x="256" 
 />
    <glyph glyph-name="uni200A" unicode="&#x200a;" horiz-adv-x="68" 
 />
    <glyph glyph-name="uni2011" unicode="&#x2011;" horiz-adv-x="522" 
d="M75 406v131h372v-131h-372z" />
    <glyph glyph-name="figuredash" unicode="&#x2012;" horiz-adv-x="1159" 
d="M239 406v131h681v-131h-681z" />
    <glyph glyph-name="endash" unicode="&#x2013;" horiz-adv-x="1159" 
d="M239 406v131h681v-131h-681z" />
    <glyph glyph-name="emdash" unicode="&#x2014;" horiz-adv-x="1264" 
d="M75 406v131h1114v-131h-1114z" />
    <glyph glyph-name="afii00208" unicode="&#x2015;" horiz-adv-x="1264" 
d="M75 406v131h1114v-131h-1114z" />
    <glyph glyph-name="underscoredbl" unicode="&#x2017;" horiz-adv-x="1024" 
d="M0 -239v106h1024v-106h-1024zM0 -451v106h1024v-106h-1024z" />
    <glyph glyph-name="quoteleft" unicode="&#x2018;" horiz-adv-x="535" 
d="M419 1395l-169 -472l-134 49l206 462z" />
    <glyph glyph-name="quoteright" unicode="&#x2019;" horiz-adv-x="467" 
d="M69 962l170 472l134 -49l-206 -462z" />
    <glyph glyph-name="quotesinglbase" unicode="&#x201a;" horiz-adv-x="467" 
d="M69 -272l170 472l134 -49l-206 -462z" />
    <glyph glyph-name="quotereversed" unicode="&#x201b;" horiz-adv-x="467" 
d="M95 1385l134 49l170 -472l-98 -39z" />
    <glyph glyph-name="quotedblleft" unicode="&#x201c;" horiz-adv-x="836" 
d="M719 1395l-169 -472l-134 49l206 462zM419 1395l-169 -472l-134 49l206 462z" />
    <glyph glyph-name="quotedblright" unicode="&#x201d;" horiz-adv-x="835" 
d="M116 962l170 472l133 -49l-205 -462zM416 962l170 472l133 -49l-205 -462z" />
    <glyph glyph-name="quotedblbase" unicode="&#x201e;" horiz-adv-x="835" 
d="M116 -272l170 472l133 -49l-205 -462zM416 -272l170 472l133 -49l-205 -462z" />
    <glyph glyph-name="dagger" unicode="&#x2020;" 
d="M488 908v453h147v-453h308v-142h-308v-1143h-147v1143h-307v142h307z" />
    <glyph glyph-name="daggerdbl" unicode="&#x2021;" 
d="M488 -377v454h-307v142h307v547h-307v142h307v453h147v-453h308v-142h-308v-547h308v-142h-308v-454h-147z" />
    <glyph glyph-name="bullet" unicode="&#x2022;" horiz-adv-x="983" 
d="M496 969q122 0 208 -95q74 -82 74 -191q0 -127 -95 -213q-82 -74 -192 -74q-126 0 -212 95q-74 82 -74 194q0 124 95 210q82 74 196 74z" />
    <glyph glyph-name="ellipsis" unicode="&#x2026;" horiz-adv-x="1528" 
d="M255 182q42 0 71.5 -29.5t29.5 -71.5t-29.5 -71.5t-71.5 -29.5t-71.5 30t-29.5 72q0 41 30 70.5t71 29.5zM1274 182q42 0 71.5 -29.5t29.5 -71.5t-29.5 -71.5t-71.5 -29.5t-71.5 30t-29.5 72q0 41 30 70.5t71 29.5zM764 182q42 0 71.5 -29.5t29.5 -71.5t-29.5 -71.5
t-71.5 -29.5t-71.5 30t-29.5 72q0 41 30 70.5t71 29.5z" />
    <glyph glyph-name="perthousand" unicode="&#x2030;" horiz-adv-x="2590" 
d="M1424 823q318 0 318 -419q0 -418 -314 -418q-315 0 -315 424q0 413 311 413zM1428 718q-197 0 -197 -317q0 -310 196 -310q197 0 197 314q0 313 -196 313zM485 23l790 1366l84 -49l-790 -1365zM413 1379q318 0 318 -419q0 -418 -314 -418q-315 0 -315 424q0 413 311 413z
M417 1274q-197 0 -197 -317q0 -310 196 -310q197 0 197 314q0 313 -196 313zM2169 823q318 0 318 -419q0 -418 -314 -418q-315 0 -315 424q0 413 311 413zM2173 718q-197 0 -197 -317q0 -310 197 -310q196 0 196 314q0 313 -196 313z" />
    <glyph glyph-name="minute" unicode="&#x2032;" horiz-adv-x="351" 
d="M-68 962l170 472l134 -49l-206 -462z" />
    <glyph glyph-name="second" unicode="&#x2033;" horiz-adv-x="651" 
d="M-68 962l170 472l133 -49l-205 -462zM232 962l170 472l133 -49l-205 -462z" />
    <glyph glyph-name="guilsinglleft" unicode="&#x2039;" horiz-adv-x="579" 
d="M475 763l-243 -308l243 -301l-95 -75l-305 375l305 384z" />
    <glyph glyph-name="guilsinglright" unicode="&#x203a;" horiz-adv-x="579" 
d="M104 154l243 301l-243 308l95 75l305 -384l-305 -375z" />
    <glyph glyph-name="uni203E" unicode="&#x203e;" horiz-adv-x="1024" 
d="M0 1568v135h1024v-135h-1024z" />
    <glyph glyph-name="slash.aalt" unicode="&#x2044;" horiz-adv-x="369" 
d="M-253 23l790 1366l84 -49l-790 -1365z" />
    <glyph glyph-name="zerosuperior" unicode="&#x2070;" horiz-adv-x="792" 
d="M392 1655q318 0 318 -419q0 -418 -314 -418q-315 0 -315 424q0 413 311 413zM396 1550q-197 0 -197 -318q0 -309 196 -309q197 0 197 313q0 314 -196 314z" />
    <glyph glyph-name="foursuperior" unicode="&#x2074;" horiz-adv-x="792" 
d="M454 1659l95 -57l-320 -492h234v208h116v-208h101v-104h-101v-175h-116v175h-364v105z" />
    <glyph glyph-name="fivesuperior" unicode="&#x2075;" horiz-adv-x="792" 
d="M333 1536l-36 -173q47 11 78 11q134 0 220 -95q67 -76 67 -179q0 -128 -97 -210q-83 -72 -196 -72q-66 0 -127.5 26.5t-101.5 72.5q-5 6 -40 56l94 64q5 -10 6 -13q50 -101 166 -101q75 0 128 50q52 49 52 123q0 75 -51 126q-52 50 -127 50q-73 0 -117 -44l-8 -8l-89 18
l84 403h383v-105h-288z" />
    <glyph glyph-name="sixsuperior" unicode="&#x2076;" horiz-adv-x="792" 
d="M168 1282l279 377l89 -64l-170 -234q27 3 38 3q58 0 116 -25t96 -67q66 -72 66 -174q0 -124 -95 -208q-81 -72 -193 -72q-128 0 -213 88q-78 79 -78 191q0 96 65 185zM392 1262q-74 0 -124 -48q-50 -50 -50 -120q0 -72 50 -122q49 -49 124 -49q73 0 125 50q50 50 50 124
q0 70 -50 118q-50 47 -125 47z" />
    <glyph glyph-name="sevensuperior" unicode="&#x2077;" horiz-adv-x="792" 
d="M180 863l374 672h-409v105h545v-86l-409 -742z" />
    <glyph glyph-name="eightsuperior" unicode="&#x2078;" horiz-adv-x="792" 
d="M230 1263q-81 72 -81 165q0 108 87 176q65 51 160 51q112 0 180 -67q68 -66 68 -160q0 -93 -81 -165q108 -83 108 -197q0 -119 -92 -190q-76 -58 -183 -58q-124 0 -204 77q-70 67 -70 171q0 114 108 197zM395 1204q-69 0 -113.5 -39.5t-44.5 -101.5t45 -101.5t114 -39.5
q70 0 115 39.5t45 101.5q0 63 -44.5 102t-116.5 39zM395 1553q-60 0 -99 -35.5t-39 -90.5q0 -52 40 -86q41 -35 99 -35q61 0 100.5 35t39.5 88q0 54 -39.5 89t-101.5 35z" />
    <glyph glyph-name="ninesuperior" unicode="&#x2079;" horiz-adv-x="792" 
d="M623 1189l-279 -377l-89 65l174 236q-36 -2 -38 -2q-132 0 -216 90q-66 72 -66 173q0 125 95 209q81 72 193 72q128 0 213 -88q78 -79 78 -193q0 -96 -65 -185zM399 1550q-74 0 -124 -50q-51 -50 -51 -124q0 -69 50 -116t125 -47t124 48q50 47 50 118q0 72 -50 122
q-49 49 -124 49z" />
    <glyph glyph-name="zeroinferior" unicode="&#x2080;" horiz-adv-x="792" 
d="M392 558q318 0 318 -419t-314 -419q-315 0 -315 424q0 414 311 414zM396 453q-197 0 -197 -318q0 -310 196 -310q197 0 197 314t-196 314z" />
    <glyph glyph-name="oneinferior" unicode="&#x2081;" horiz-adv-x="792" 
d="M486 543v-808h-116v677l-121 -67l-55 91l193 107h99z" />
    <glyph glyph-name="twoinferior" unicode="&#x2082;" horiz-adv-x="792" 
d="M663 -265h-526v95l303 327q91 97 91 181q0 51 -38 83t-99 32q-65 0 -100 -29t-56 -100l-106 28q50 206 266 206q109 0 179 -62q68 -63 68 -163q0 -113 -87 -208l-264 -285h369v-105z" />
    <glyph glyph-name="threeinferior" unicode="&#x2083;" horiz-adv-x="792" 
d="M331 105v105h47q54 0 89 18q57 30 57 103q0 55 -36 88t-97 33q-48 0 -79 -17q-31 -18 -69 -70l-96 52q89 141 245 141q100 0 167 -55q78 -65 78 -171q0 -105 -78 -166q96 -72 96 -193q0 -123 -93 -194q-76 -58 -179 -58q-95 0 -163 48t-95 135l-8 29l113 29
q11 -42 20 -57q39 -77 133 -77q69 0 113 40t44 103q0 65 -42 99.5t-120 34.5h-47z" />
    <glyph glyph-name="fourinferior" unicode="&#x2084;" horiz-adv-x="792" 
d="M454 562l95 -57l-320 -492h234v208h116v-208h101v-104h-101v-174h-116v174h-364v105z" />
    <glyph glyph-name="fiveinferior" unicode="&#x2085;" horiz-adv-x="792" 
d="M333 439l-36 -172q46 11 78 11q134 0 220 -95q67 -76 67 -180q0 -126 -97 -210q-83 -72 -196 -72q-67 0 -128 26.5t-101 72.5q-8 10 -40 56l94 64l6 -12q50 -102 166 -102q75 0 128 50q52 49 52 123q0 75 -50 125q-51 52 -128 52q-73 0 -117 -44q-2 -1 -4.5 -4t-3.5 -5
l-89 19l84 402h383v-105h-288z" />
    <glyph glyph-name="sixinferior" unicode="&#x2086;" horiz-adv-x="792" 
d="M168 185l279 378l89 -65l-170 -233q34 2 38 2q58 0 116 -25t96 -67q66 -72 66 -174q0 -124 -95 -208q-81 -72 -193 -72q-128 0 -213 88q-78 79 -78 192q0 95 65 184zM392 164q-74 0 -124 -48q-50 -50 -50 -120q0 -71 50 -121q49 -49 124 -49t125 49q50 50 50 124
q0 71 -50 118t-125 47z" />
    <glyph glyph-name="seveninferior" unicode="&#x2087;" horiz-adv-x="792" 
d="M180 -234l374 672h-409v105h545v-86l-409 -742z" />
    <glyph glyph-name="eightinferior" unicode="&#x2088;" horiz-adv-x="792" 
d="M230 165q-81 73 -81 166q0 109 87 176q64 51 160 51q112 0 180 -67q68 -66 68 -160q0 -93 -81 -166q108 -81 108 -196q0 -119 -92 -190q-76 -58 -183 -58q-124 0 -204 77q-70 67 -70 171q0 115 108 196zM395 107q-69 0 -113.5 -39.5t-44.5 -101.5t45 -101.5t114 -39.5
q70 0 115 39.5t45 101.5q0 63 -44.5 102t-116.5 39zM395 456q-60 0 -99 -35.5t-39 -90.5q0 -52 40 -86.5t99 -34.5q61 0 100.5 35t39.5 88q0 54 -39.5 89t-101.5 35z" />
    <glyph glyph-name="nineinferior" unicode="&#x2089;" horiz-adv-x="792" 
d="M623 92l-279 -377l-89 64l174 237q-34 -2 -38 -2q-132 0 -216 90q-66 72 -66 173q0 125 95 209q81 72 193 72q128 0 213 -88q78 -80 78 -193q0 -96 -65 -185zM399 453q-74 0 -124 -50q-51 -49 -51 -124q0 -69 50 -116t125 -47t124 48q50 47 50 118q0 72 -50 122
q-49 49 -124 49z" />
    <glyph glyph-name="franc" unicode="&#x20a3;" horiz-adv-x="1412" 
d="M901 1365v-141h-502v-461h364v-142h-364v-621h-153v1365h655zM978 763v-102q86 104 245 104q15 0 39 -3v-131q-17 1 -40 1q-93 0 -153 -45q-52 -40 -71 -103q-20 -66 -20 -191v-293h-146v763h146z" />
    <glyph glyph-name="lira" unicode="&#x20a4;" horiz-adv-x="1145" 
d="M845 481h-369q6 -44 6 -91q0 -77 -23 -126q-22 -48 -93 -122h677v-142h-889v142q55 44 91 79q83 80 83 194q0 35 -4 66h-170v130h145l-15 70l-15 70l-1 3h-114v130h95q-3 33 -3 68q0 161 61 259q53 87 159 137q90 41 188 41q223 0 348 -215l-121 -78q-91 151 -233 151
q-122 0 -187 -77t-65 -221q0 -33 4 -65h445v-130h-422q28 -129 31 -143h391v-130z" />
    <glyph glyph-name="peseta" unicode="&#x20a7;" horiz-adv-x="1234" 
d="M1153 896h-120q-27 -175 -141.5 -259t-325.5 -84h-127v-553h-153v896h-115v130h115v339h280q406 9 467 -339h120v-130zM881 896h-442v-204h146q132 0 203.5 49t92.5 155zM439 1224v-198h442q-13 60 -41 98q-37 53 -97 76.5t-158 23.5h-146z" />
    <glyph glyph-name="uni20AB" unicode="&#x20ab;" horiz-adv-x="1152" 
d="M603 1198h246v167h146v-167h123v-132h-123v-1066h-146v119q-128 -143 -319 -143q-120 0 -223 61q-112 64 -175 178q-61 109 -61 239q0 217 154 358q132 120 305 120q187 0 319 -144v278h-246v132zM531 800q-149 0 -243 -120q-70 -88 -70 -225q0 -160 95 -255
q92 -92 224 -92q155 0 245 121q67 89 67 227q0 157 -91 252q-87 92 -227 92zM82 -268v135h1024v-135h-1024z" />
    <glyph glyph-name="Euro" unicode="&#x20ac;" horiz-adv-x="1630" 
d="M340 477h-203l54 137h122q-3 29 -3 67q0 44 4 69h-177l54 137h150q25 80 63 148q94 165 256 260q160 94 354 94q262 0 472 -201l-55 -139q-199 197 -420 197q-229 0 -383 -157q-82 -83 -127 -202h866l-55 -137h-844q-4 -32 -4 -73q0 -38 4 -63h790l-55 -137h-703
q15 -40 31 -68q70 -133 196 -210q131 -80 284 -80q115 0 214 47q97 47 206 156v-198q-182 -148 -415 -148q-239 0 -421 136q-183 137 -255 365z" />
    <glyph glyph-name="uni20B4" unicode="&#x20b4;" horiz-adv-x="1249" 
d="M171 611h139q82 85 232 140l8 3h-379v130h643q60 58 60 134q0 98 -71 164q-71 65 -177 65q-151 0 -247 -151l-121 78q132 215 364 215q180 0 295 -111q108 -104 108 -257q0 -75 -28 -137h81v-130h-192q-67 -46 -143 -75l-128 -50q-9 -3 -44 -18h507v-130h-679
q-21 -41 -21 -94q0 -126 99 -207q73 -61 176 -61q215 0 277 249l148 -41q-27 -114 -82 -187q-125 -164 -339 -164q-196 0 -322 134q-111 117 -111 279q0 46 11 92h-64v130z" />
    <glyph glyph-name="uni2101" unicode="&#x2101;" horiz-adv-x="1946" 
d="M1773 683l-93 -58q-62 92 -145 92q-39 0 -70 -15q-67 -33 -67 -105q0 -71 111 -112l81 -30q199 -73 199 -220q0 -114 -91 -187q-76 -62 -182 -62q-81 0 -145.5 39t-97.5 108q-10 21 -24 76l112 30q13 -48 24 -70q42 -76 134 -76q65 0 111 44q42 41 42 97q0 43 -30.5 71.5
t-104.5 56.5l-77 29q-177 66 -177 207q0 110 89 175q71 50 165 50q79 0 133.5 -32t102.5 -108zM714 778h-362l-87 -222h-122l325 809h132l275 -684l-73 -125zM532 1235l-138 -351h278zM631 23l790 1366l85 -49l-790 -1365z" />
    <glyph glyph-name="afii61248" unicode="&#x2105;" horiz-adv-x="2161" 
d="M890 1242l-81 -78q-38 38 -64 57q-73 51 -169 51q-153 0 -244 -111q-72 -87 -72 -201q0 -137 99 -227q92 -84 218 -84q69 0 121 24q50 24 115 87l81 -78q-47 -45 -83 -70q-103 -70 -233 -70q-198 0 -326 140q-109 118 -109 278q0 187 143 312q122 107 292 107
q92 0 160 -30q67 -30 152 -107zM1587 823q188 0 317 -138q113 -121 113 -281q0 -185 -142 -309q-124 -109 -292 -109q-111 0 -214 59q-97 55 -153 150q-59 98 -59 216q0 178 145 305q122 107 285 107zM1584 716q-142 0 -237 -111q-73 -85 -73 -206q0 -131 100 -222
q92 -84 213 -84q140 0 236 107q77 86 77 204q0 132 -96 225q-90 87 -220 87zM636 23l790 1366l84 -49l-790 -1365z" />
    <glyph glyph-name="uni2117" unicode="&#x2117;" horiz-adv-x="1754" 
d="M885 585h-115v-363h-132v921h247q85 0 139.5 -16.5t95.5 -54.5q88 -81 88 -211q0 -128 -88 -207q-41 -37 -95.5 -53t-139.5 -16zM770 1021v-314h127q180 0 180 157t-180 157h-127zM889 1457q199 0 375 -104q180 -106 284 -283q104 -179 104 -387q0 -207 -104 -388
q-103 -179 -284 -283t-387 -104t-387 104q-179 102 -284 283q-104 182 -104 394q0 333 257 569q218 199 530 199zM866 1344q-168 0 -320 -89q-154 -91 -242 -242q-89 -152 -89 -330q0 -177 89 -331q88 -154 242 -242q155 -89 331 -89t331 89t242 242q89 155 89 336
q0 286 -219 486q-188 170 -454 170z" />
    <glyph glyph-name="trademark" unicode="&#x2122;" horiz-adv-x="1424" 
d="M723 739h-85v639h88l237 -406l238 406h87v-639h-84v492l-205 -351h-71l-205 351v-492zM561 1302h-170v-563h-84v563h-170v76h424v-76z" />
    <glyph glyph-name="Omega" unicode="&#x2126;" horiz-adv-x="1638" 
d="M970 0v248q74 23 126 52q129 73 199 190q67 112 67 246q0 220 -167 369q-157 141 -376 141q-153 0 -283 -75q-129 -74 -197 -197q-62 -112 -62 -238q0 -194 134 -334q103 -107 258 -154v-248h-512v142h359v7q-34 16 -50 25q-155 87 -248 235q-95 152 -95 327
q0 174 95 326q95 153 258 241q161 86 343 86q183 0 344 -86q164 -89 259 -241q94 -151 94 -326q0 -250 -180 -435q-95 -100 -213 -152v-7h359v-142h-512z" />
    <glyph glyph-name="estimated" unicode="&#x212e;" horiz-adv-x="1515" 
d="M1371 663h-1016v-283q28 -77 53 -120q26 -43 61 -73q104 -95 294 -95q322 0 450 281h117q-39 -126 -114 -214q-158 -183 -455 -183q-295 0 -458 190q-160 185 -160 508q0 340 177 531q172 184 446 184q226 0 387 -125q173 -134 207 -401q10 -75 11 -200zM355 755h825v248
q-26 66 -62 111q-129 159 -357 159q-191 0 -302 -115q-50 -51 -104 -154v-249z" />
    <glyph glyph-name="onethird" unicode="&#x2153;" horiz-adv-x="1707" 
d="M329 23l790 1366l84 -49l-790 -1365zM1217 371v105h48q52 0 88 17q57 30 57 103q0 55 -36 88t-96 33q-48 0 -80 -17q-32 -18 -69 -69l-96 52q89 140 245 140q100 0 167 -55q78 -65 78 -170q0 -106 -78 -167q96 -72 96 -193q0 -123 -92 -194q-76 -58 -180 -58
q-95 0 -162.5 48t-95.5 135l-8 29l113 30q10 -37 20 -58q39 -77 133 -77q69 0 113 40t44 103q0 65 -41.5 100t-119.5 35h-48zM415 1365v-808h-116v677l-121 -67l-55 91l193 107h99z" />
    <glyph glyph-name="twothirds" unicode="&#x2154;" horiz-adv-x="1707" 
d="M423 23l790 1366l85 -49l-790 -1365zM640 555h-526v95l303 327q91 97 91 180q0 52 -38 83.5t-99 31.5q-66 0 -100 -28t-56 -100l-106 28q49 205 266 205q109 0 179 -62q68 -62 68 -163q0 -112 -87 -207l-264 -285h369v-105zM1217 371v105h47q52 0 88 17q58 30 58 103
q0 55 -36.5 88t-96.5 33q-49 0 -80 -18q-29 -17 -68 -68l-96 52q89 140 245 140q100 0 167 -55q78 -65 78 -170q0 -106 -78 -167q96 -71 96 -193q0 -123 -93 -194q-76 -58 -179 -58q-95 0 -163 48t-95 135l-8 29l112 30q10 -40 21 -58q39 -77 133 -77q69 0 113 40t44 103
q0 65 -42 100t-120 35h-47z" />
    <glyph glyph-name="onefifth" unicode="&#x2155;" horiz-adv-x="1707" 
d="M329 23l790 1366l84 -49l-790 -1365zM1195 704l-37 -172q46 11 78 11q134 0 220 -95q67 -76 67 -180q0 -126 -97 -210q-82 -72 -196 -72q-66 0 -127.5 26.5t-101.5 72.5q-5 6 -40 56l94 64q7 -11 7 -12q50 -102 165 -102q76 0 129 50q51 49 51 123q0 76 -49 125
q-52 52 -129 52q-69 0 -125 -53l-89 19l84 402h383v-105h-287zM415 1365v-808h-116v677l-121 -67l-55 91l193 107h99z" />
    <glyph glyph-name="twofifth" unicode="&#x2156;" horiz-adv-x="1707" 
d="M431 23l790 1366l85 -49l-790 -1365zM640 555h-526v95l303 327q91 97 91 180q0 52 -38 83.5t-99 31.5q-66 0 -100 -28t-56 -100l-106 28q49 205 266 205q109 0 179 -62q68 -62 68 -163q0 -112 -87 -207l-264 -285h369v-105zM1193 704l-36 -172q46 11 77 11q136 0 220 -95
q68 -77 68 -180q0 -126 -97 -210q-83 -72 -196 -72q-67 0 -128 26.5t-101 72.5q-5 6 -40 56l94 64q4 -7 6 -12q50 -102 166 -102q75 0 128 50q52 49 52 123q0 75 -50 125q-51 52 -129 52q-69 0 -124 -53l-90 19l85 402h383v-105h-288z" />
    <glyph glyph-name="threefifth" unicode="&#x2157;" horiz-adv-x="1707" 
d="M391 23l790 1366l84 -49l-790 -1365zM1194 704l-36 -172q46 11 77 11q136 0 220 -95q68 -77 68 -180q0 -126 -97 -210q-82 -72 -196 -72q-67 0 -128 26.5t-101 72.5q-5 6 -40 56l94 64q5 -7 6 -12q49 -102 166 -102q75 0 128 50q52 49 52 123q0 75 -50 125
q-51 52 -128 52q-70 0 -125 -53l-90 19l85 402h383v-105h-288zM320 927v105h47q55 0 89 18q57 28 57 102q0 55 -36 88t-97 33q-48 0 -79 -17q-30 -18 -69 -69l-96 52q89 140 245 140q100 0 167 -55q78 -65 78 -170q0 -106 -78 -167q96 -71 96 -193q0 -124 -93 -194
q-76 -58 -179 -58q-96 0 -163.5 48t-94.5 135l-8 29l113 30q11 -43 20 -58q39 -77 133 -77q69 0 113 40t44 103q0 65 -42 100t-120 35h-47z" />
    <glyph glyph-name="fourfifth" unicode="&#x2158;" horiz-adv-x="1707" 
d="M420 23l790 1366l85 -49l-790 -1365zM470 1382l95 -57l-320 -492h234v208h116v-208h100v-104h-100v-174h-116v174h-365v105zM1195 704l-37 -172q46 11 78 11q134 0 220 -95q67 -76 67 -180q0 -126 -97 -210q-82 -72 -196 -72q-66 0 -127.5 26.5t-101.5 72.5q-5 6 -40 56
l94 64q7 -11 7 -12q50 -102 165 -102q76 0 129 50q51 49 51 123q0 76 -49 125q-52 52 -129 52q-72 0 -125 -53l-89 19l84 402h383v-105h-287z" />
    <glyph glyph-name="onesixth" unicode="&#x2159;" horiz-adv-x="1707" 
d="M356 23l790 1366l84 -49l-790 -1365zM1009 451l278 377l90 -64l-170 -234q25 3 37 3q58 0 116 -25t96 -67q66 -73 66 -174q0 -125 -95 -209q-81 -72 -193 -72q-128 0 -213 88q-78 80 -78 192q0 96 66 185zM1234 430q-76 0 -125 -48q-50 -50 -50 -120q0 -72 50 -122
q49 -49 124 -49q74 0 126 50q50 50 50 124q0 70 -50 118q-50 47 -125 47zM415 1365v-808h-116v677l-121 -67l-55 91l193 107h99z" />
    <glyph glyph-name="fivesixth" unicode="&#x215a;" horiz-adv-x="1707" 
d="M437 23l790 1366l84 -49l-790 -1365zM339 1260l-36 -172q47 11 78 11q134 0 220 -95q67 -76 67 -180q0 -126 -97 -210q-83 -72 -196 -72q-66 0 -127.5 27t-101.5 72q-5 6 -40 56l94 64q4 -7 6 -12q50 -102 166 -102q75 0 128 50q52 49 52 123q0 75 -50 125
q-51 52 -128 52q-76 0 -117 -44l-8 -8l-89 18l84 402h383v-105h-288zM1008 451l279 377l90 -64l-171 -234q27 3 38 3q59 0 116.5 -25t96.5 -67q66 -72 66 -174q0 -125 -95 -209q-81 -72 -194 -72q-128 0 -213 88q-78 80 -78 192q0 96 65 185zM1232 430q-74 0 -124 -48
q-50 -50 -50 -120q0 -72 50 -122q49 -49 124 -49q74 0 126 50q50 50 50 124q0 70 -50 118q-50 47 -126 47z" />
    <glyph glyph-name="oneeighth" unicode="&#x215b;" horiz-adv-x="1707" 
d="M329 23l790 1366l84 -49l-790 -1365zM415 1364v-809h-116v678l-121 -68l-55 92l193 107h99zM1100 431q-81 72 -81 166q0 107 87 175q66 51 161 51q110 0 180 -67q68 -66 68 -159q0 -94 -81 -166q108 -81 108 -197q0 -119 -92 -190q-76 -58 -182 -58q-125 0 -205 77
q-70 67 -70 171q0 116 107 197zM1266 372q-69 0 -113.5 -39.5t-44.5 -101.5t45 -101.5t115 -39.5q69 0 114 39.5t45 101.5q0 63 -44.5 102t-116.5 39zM1266 721q-61 0 -100 -35.5t-39 -90.5q0 -52 40 -86.5t100 -34.5q61 0 100.5 35t39.5 88q0 54 -40 89t-101 35z" />
    <glyph glyph-name="threeeighths" unicode="&#x215c;" horiz-adv-x="1707" 
d="M1081 431q-81 72 -81 166q0 107 87 175q66 51 161 51q111 0 179 -67q69 -66 69 -159q0 -92 -81 -166q108 -81 108 -197q0 -119 -93 -190q-76 -58 -182 -58q-124 0 -204 77q-70 67 -70 171q0 114 107 197zM1246 372q-69 0 -113 -39.5t-44 -101.5t45 -101.5t114 -39.5
q70 0 115 39.5t45 101.5q0 63 -44.5 102t-117.5 39zM1246 721q-60 0 -99 -35.5t-39 -90.5q0 -52 40 -86.5t100 -34.5t100 35t40 88q0 54 -40 89t-102 35zM320 927v105h47q55 0 89 18q57 28 57 102q0 55 -36 88t-97 33q-48 0 -79 -17q-30 -18 -69 -69l-96 52q89 140 245 140
q100 0 167 -55q78 -65 78 -170q0 -106 -78 -167q96 -71 96 -193q0 -124 -93 -194q-76 -58 -179 -58q-96 0 -163.5 48t-94.5 135l-8 29l113 30q11 -43 20 -58q39 -77 133 -77q69 0 113 40t44 103q0 65 -42 100t-120 35h-47zM382 23l790 1366l84 -49l-790 -1365z" />
    <glyph glyph-name="fiveeighths" unicode="&#x215d;" horiz-adv-x="1707" 
d="M339 1260l-36 -172q47 11 78 11q134 0 220 -95q67 -76 67 -180q0 -126 -97 -210q-83 -72 -196 -72q-66 0 -127.5 27t-101.5 72q-5 6 -40 56l94 64q4 -7 6 -12q50 -102 166 -102q75 0 128 50q52 49 52 123q0 75 -50 125q-51 52 -128 52q-76 0 -117 -44l-8 -8l-89 18
l84 402h383v-105h-288zM1081 431q-81 72 -81 166q0 107 87 175q66 51 161 51q111 0 179 -67q69 -66 69 -159q0 -92 -81 -166q108 -81 108 -197q0 -119 -93 -190q-76 -58 -182 -58q-124 0 -204 77q-70 67 -70 171q0 114 107 197zM1246 721q-60 0 -99 -35.5t-39 -90.5
q0 -52 40 -86.5t100 -34.5t100 35t40 88q0 54 -40 89t-102 35zM1246 372q-69 0 -113 -39.5t-44 -101.5t45 -101.5t114 -39.5q70 0 115 39.5t45 101.5q0 63 -44.5 102t-117.5 39zM387 23l790 1366l85 -49l-790 -1365z" />
    <glyph glyph-name="seveneighths" unicode="&#x215e;" horiz-adv-x="1707" 
d="M315 23l790 1366l84 -49l-790 -1365zM192 588l374 672h-409v105h545v-86l-409 -742zM1081 431q-81 74 -81 166q0 107 87 175q66 51 161 51q110 0 180 -67q68 -66 68 -159q0 -94 -81 -166q107 -83 107 -197q0 -119 -92 -190q-76 -58 -183 -58q-123 0 -203 77
q-71 68 -71 171q0 116 108 197zM1247 721q-61 0 -100 -35.5t-39 -90.5q0 -52 40 -86.5t100 -34.5q61 0 100.5 35t39.5 88q0 54 -40 89t-101 35zM1246 372q-69 0 -113.5 -39.5t-44.5 -101.5t45 -101.5t114 -39.5q70 0 115 39.5t45 101.5q0 63 -44.5 102t-116.5 39z" />
    <glyph glyph-name="partialdiff" unicode="&#x2202;" horiz-adv-x="1217" 
d="M853 860q-64 147 -218 249q-153 100 -353 129l19 127q319 -44 511 -215q269 -239 269 -633q0 -178 -70 -303q-65 -116 -177 -180q-103 -58 -229 -58q-213 0 -349 156q-119 137 -119 322q0 217 154 358q131 120 312 120q141 0 250 -72zM599 800q-151 0 -245 -120
q-70 -89 -70 -225q0 -158 95 -255q92 -92 226 -92q158 0 251 121q69 90 69 227q0 157 -94 252q-92 92 -232 92z" />
    <glyph glyph-name="emptyset" unicode="&#x2205;" horiz-adv-x="1266" 
d="M461 219l-124 -244l-100 51l123 241q-8 5 -26 19q-197 161 -197 395q0 229 171 377q139 121 327 121q89 0 172 -30l123 241l100 -51l-124 -244q224 -161 224 -411q0 -140 -75 -262q-63 -104 -170 -167q-119 -69 -263 -69q-92 0 -161 33zM854 993l-341 -673h1
q68 -18 119 -18q168 0 282 123q101 109 101 257q0 95 -45 182q-45 86 -117 129zM413 372l341 672q-48 19 -118 19q-180 0 -296 -138q-89 -107 -89 -242q0 -182 159 -310z" />
    <glyph glyph-name="increment" unicode="&#x2206;" horiz-adv-x="1365" 
d="M778 1365l525 -1365h-1242l526 1365h191zM679 1218l-407 -1077h818z" />
    <glyph glyph-name="product" unicode="&#x220f;" horiz-adv-x="1365" 
d="M973 1223h-581v-1223h-153v1223h-171v142h1229v-142h-171v-1223h-153v1223z" />
    <glyph glyph-name="summation" unicode="&#x2211;" horiz-adv-x="1365" 
d="M224 135l399 573l-358 521v136h861v-141h-691l359 -516l-389 -566h762v-142h-943v135z" />
    <glyph glyph-name="minus" unicode="&#x2212;" horiz-adv-x="1139" 
d="M160 703h819v-128h-819v128z" />
    <glyph glyph-name="fraction" unicode="&#x2215;" horiz-adv-x="369" 
d="M-253 23l790 1366l84 -49l-790 -1365z" />
    <glyph glyph-name="uni2218" unicode="&#x2218;" horiz-adv-x="983" 
d="M496 970q122 0 208 -95q74 -83 74 -192q0 -127 -95 -213q-83 -74 -192 -74q-126 0 -212 95q-74 83 -74 194q0 124 95 211q80 74 196 74zM488 872q-80 0 -137 -62q-48 -54 -48 -127q0 -85 62 -141q54 -48 126 -48q85 0 141 62q48 54 48 128q0 81 -62 140q-52 48 -130 48z
" />
    <glyph glyph-name="radical" unicode="&#x221a;" horiz-adv-x="1292" 
d="M338 810l42 -128l167 -503l506 1517h158h422v-142h-469l-525 -1554h-184l-230 682h-157v128h270z" />
    <glyph glyph-name="infinity" unicode="&#x221e;" horiz-adv-x="1427" 
d="M717 589q-152 -212 -337 -212q-156 0 -245 110q-67 83 -67 208q0 176 140 263q78 48 173 48q187 0 329 -211q145 211 338 211q161 0 248 -116q62 -83 62 -201q0 -147 -98 -236q-88 -77 -210 -77q-190 0 -333 213zM790 692q65 -101 120 -143q56 -42 124 -42q83 0 138 58
q47 52 47 126q0 93 -71 146q-53 38 -116 38q-67 0 -122 -41q-53 -40 -120 -142zM636 691q-62 98 -119 141t-125 43q-83 0 -137 -58q-48 -51 -48 -126q0 -92 71 -145q53 -38 116 -38q67 0 122 41q53 41 120 142z" />
    <glyph glyph-name="integral" unicode="&#x222b;" horiz-adv-x="610" 
d="M68 -361v133q39 -10 62 -10q102 0 102 150v1306q0 286 220 286q39 0 90 -13v-133q-39 10 -62 10q-102 0 -102 -150v-1306q0 -286 -220 -286q-41 0 -90 13z" />
    <glyph glyph-name="similar" unicode="&#x223c;" horiz-adv-x="1139" 
d="M167 499l-90 59q33 72 75 129q81 109 206 109q76 0 229 -71q92 -42 126 -53q36 -12 72 -12q57 0 98 30q40 31 86 109l93 -54q-56 -114 -114 -163q-81 -69 -182 -69q-44 0 -96 18q-48 17 -191 81q-80 37 -135 37q-51 0 -92 -35t-85 -115z" />
    <glyph glyph-name="uni2243" unicode="&#x2243;" horiz-adv-x="1139" 
d="M167 646l-90 58q34 74 75 130q81 108 207 108q75 0 228 -71q95 -43 126 -53q35 -12 72 -12q58 0 98 31q39 29 86 109l93 -55q-55 -112 -114 -163q-81 -69 -182 -69q-44 0 -96 18q-55 19 -191 81q-80 37 -134 37q-98 0 -178 -149zM77 536h985v-126h-985v126z" />
    <glyph glyph-name="approxequal" unicode="&#x2248;" horiz-adv-x="1139" 
d="M167 680l-90 59q35 73 75 129q81 108 207 108q78 0 228 -70q93 -43 127 -53q34 -12 71 -12q57 0 98 30q39 29 86 109l93 -54q-56 -114 -114 -163q-81 -69 -182 -69q-44 0 -96 18q-50 17 -191 80q-80 37 -134 37q-97 0 -178 -149zM167 335l-90 59q35 74 75 129
q81 109 207 109q78 0 228 -70q93 -43 126 -53q35 -12 72 -12q58 0 98 31q39 29 86 108l93 -55q-56 -113 -114 -162q-81 -69 -182 -69q-44 0 -96 18q-50 17 -191 80q-80 37 -134 37q-99 0 -178 -150z" />
    <glyph glyph-name="notequal" unicode="&#x2260;" horiz-adv-x="1139" 
d="M847 1069l-115 -231h330v-128h-394l-70 -141h464v-128h-528l-137 -274l-105 43l115 231h-330v128h394l70 141h-464v128h528l137 274z" />
    <glyph glyph-name="lessequal" unicode="&#x2264;" horiz-adv-x="1139" 
d="M1013 417v-147l-887 398v134l887 403v-147l-723 -320zM1013 128v-128h-887v128h887z" />
    <glyph glyph-name="greaterequal" unicode="&#x2265;" horiz-adv-x="1139" 
d="M1013 668l-887 -398v147l723 321l-723 320v147l887 -403v-134zM1013 0h-887v128h887v-128z" />
    <glyph glyph-name="dotmath" unicode="&#x22c5;" horiz-adv-x="464" 
d="M232 784q42 0 71.5 -29.5t29.5 -71.5t-29.5 -71.5t-71.5 -29.5t-71.5 30t-29.5 72q0 41 30 70.5t71 29.5z" />
    <glyph glyph-name="lozenge" unicode="&#x25ca;" horiz-adv-x="1365" 
d="M1226 683l-544 -764l-543 764l543 764zM682 165l365 518l-365 517l-363 -517z" />
    <glyph glyph-name="openbullet" unicode="&#x25e6;" horiz-adv-x="983" 
d="M496 970q122 0 208 -95q74 -83 74 -192q0 -127 -95 -213q-83 -74 -192 -74q-126 0 -212 95q-74 83 -74 194q0 124 95 211q80 74 196 74zM488 872q-80 0 -137 -62q-48 -54 -48 -127q0 -85 62 -141q54 -48 126 -48q85 0 141 62q48 54 48 128q0 81 -62 140q-52 48 -130 48z
" />
    <glyph glyph-name="glyph155" horiz-adv-x="512" 
 />
    <glyph glyph-name="glyph172" horiz-adv-x="1171" 
 />
    <glyph glyph-name="glyph210" horiz-adv-x="512" 
 />
    <glyph glyph-name="seven.denominator" horiz-adv-x="792" 
d="M180 32l374 672h-409v105h545v-86l-409 -743z" />
    <glyph glyph-name="eight.denominator" horiz-adv-x="792" 
d="M230 431q-81 74 -81 166q0 107 87 175q66 51 160 51q112 0 180 -67q68 -66 68 -159q0 -94 -81 -166q108 -83 108 -197q0 -119 -92 -190q-76 -58 -183 -58q-124 0 -204 77q-70 67 -70 171q0 114 108 197zM395 372q-69 0 -113.5 -39.5t-44.5 -101.5t45 -101.5t114 -39.5
q70 0 115 39.5t45 101.5q0 63 -44.5 102t-116.5 39zM395 721q-60 0 -99 -35.5t-39 -90.5q0 -52 40 -86.5t99 -34.5q61 0 100.5 35t39.5 88q0 54 -39.5 89t-101.5 35z" />
    <glyph glyph-name="nine.denominator" horiz-adv-x="792" 
d="M623 358l-279 -378l-89 65l174 236q-36 -2 -38 -2q-132 0 -216 90q-66 72 -66 173q0 125 95 209q81 72 193 72q128 0 213 -88q78 -80 78 -193q0 -95 -65 -184zM399 718q-74 0 -124 -50q-51 -50 -51 -124q0 -69 50 -116t125 -47t124 48q50 47 50 118q0 72 -50 122
q-49 49 -124 49z" />
    <glyph glyph-name="four.fitted" horiz-adv-x="1139" 
d="M676 1389l122 -77l-541 -870h448v361h152v-361h168v-139h-168v-303h-152v303h-607v156z" />
    <glyph glyph-name="three.fitted" horiz-adv-x="1139" 
d="M477 645v140h58q97 0 157 33q48 27 77 80.5t29 115.5q0 106 -70 170t-184 64q-78 0 -132.5 -32.5t-107.5 -112.5l-125 71q128 215 366 215q163 0 272 -91q128 -107 128 -279q0 -178 -143 -291q175 -123 175 -335q0 -204 -146 -320q-122 -97 -288 -97q-221 0 -345 166
q-41 56 -66 137l-7 29l148 41q19 -72 50 -120q71 -110 222 -110q122 0 202 77q79 76 79 194q0 122 -76 188.5t-215 66.5h-58z" />
    <glyph glyph-name="zero.denominator" horiz-adv-x="792" 
d="M392 823q318 0 318 -419q0 -418 -314 -418q-315 0 -315 424q0 413 311 413zM396 718q-197 0 -197 -317q0 -310 196 -310q197 0 197 314q0 313 -196 313z" />
    <glyph glyph-name="two.fitted" horiz-adv-x="1139" 
d="M1007 0h-836v135l500 563q156 176 156 325q0 101 -68 163q-70 62 -179 62q-111 0 -175.5 -52t-98.5 -167l-138 38q20 89 69 156q120 166 348 166q179 0 286 -106q105 -102 105 -264q0 -192 -138 -348l-473 -531h642v-140z" />
    <glyph glyph-name="one.fitted" horiz-adv-x="1139" 
d="M274 138h264v1056l-215 -124l-70 122l299 173h138v-1227h239v-138h-655v138z" />
    <glyph glyph-name="Dieresis" horiz-adv-x="975" 
d="M675 1722q42 0 72 -30t30 -72q0 -43 -30 -73t-72 -30q-43 0 -73 30.5t-30 73.5q0 41 30.5 71t72.5 30zM299 1722q43 0 73 -30t30 -72q0 -43 -30 -73t-73 -30t-72.5 30t-29.5 74q0 41 30 71t72 30z" />
    <glyph glyph-name="Dotaccent" horiz-adv-x="975" 
d="M487 1722q43 0 73 -30t30 -72q0 -43 -30 -73t-73 -30t-72.5 30t-29.5 74q0 41 30 71t72 30z" />
    <glyph glyph-name="Ring" horiz-adv-x="975" 
d="M487 1799q78 0 131 -52q53 -53 53 -127t-53 -127q-55 -53 -130 -53q-77 0 -130 53q-54 53 -54 129q0 72 54 125q53 52 129 52zM488 1725q-44 0 -75 -31t-31 -76q0 -42 31 -73t75 -31q43 0 74 31t31 74q0 44 -30.5 75t-74.5 31z" />
    <glyph glyph-name="Acute" horiz-adv-x="975" 
d="M604 1799l143 -77l-256 -258l-92 53z" />
    <glyph glyph-name="Grave" horiz-adv-x="975" 
d="M484 1464l-256 258l143 77l205 -282z" />
    <glyph glyph-name="five.fitted" horiz-adv-x="1139" 
d="M446 1224l-71 -353q1 0 4.5 1.5t9.5 4t13 4.5q58 20 130 20q100 0 194 -42q94 -43 156 -117q107 -125 107 -297q0 -210 -154 -349q-131 -120 -314 -120q-181 0 -317 116q-46 40 -102 126l120 86q27 -57 64 -94q95 -95 231 -95q135 0 228 95q92 94 92 227q0 141 -88 233
q-91 96 -229 96q-61 0 -120.5 -24.5t-94.5 -64.5l-118 26l134 662h600v-141h-475z" />
    <glyph glyph-name="Caron" horiz-adv-x="975" 
d="M299 1787l189 -178l188 178l105 -53l-235 -258h-116l-236 258z" />
    <glyph glyph-name="Breve" horiz-adv-x="975" 
d="M218 1734l125 10q4 -70 39 -109q40 -45 102 -45q127 0 148 154l125 -10q-10 -103 -63 -169q-80 -101 -209 -101q-132 0 -212 101q-54 69 -55 169z" />
    <glyph glyph-name="Tilde" horiz-adv-x="975" 
d="M649 1722l118 -28q-8 -85 -49 -129.5t-112 -44.5q-54 0 -139 39q-66 31 -89 31q-24 0 -35.5 -15.5t-17.5 -57.5l-116 27q9 82 52 128t111 46q45 0 142 -44q60 -26 87 -26q25 0 35 15t13 59z" />
    <glyph glyph-name="Hungarumlaut" horiz-adv-x="975" 
d="M463 1799l136 -77l-256 -258l-85 53zM750 1799l136 -77l-256 -258l-85 53z" />
    <glyph glyph-name="Cedilla" horiz-adv-x="975" 
d="M519 -96l135 -58l-207 -262l-100 50z" />
    <glyph glyph-name="Ogonek" horiz-adv-x="975" 
d="M729 0h146q-74 -86 -74 -137q0 -53 67 -53q31 0 76 15l41 -104q-73 -27 -130 -27q-82 0 -135 44q-53 45 -53 113q0 72 62 149z" />
    <glyph glyph-name="Macron" horiz-adv-x="975" 
d="M208 1554v130h560v-130h-560z" />
    <glyph glyph-name="Commaaccent" horiz-adv-x="975" 
d="M335 -418l96 323l141 -43l-135 -312z" />
    <glyph glyph-name="Comma.high" horiz-adv-x="975" 
d="M581 1476l96 323l141 -43l-135 -312z" />
    <glyph glyph-name="Dieresis.alt" horiz-adv-x="975" 
d="M618 1722q42 0 72 -30t30 -72q0 -43 -30 -73t-72 -30q-43 0 -73 30.5t-30 73.5q0 41 30.5 71t72.5 30zM344 1722q43 0 73 -30t30 -72q0 -43 -30 -73t-73 -30t-72.5 30t-29.5 74q0 41 30 71t72 30z" />
    <glyph glyph-name="commaaccent" horiz-adv-x="975" 
d="M335 -418l96 323l141 -43l-135 -312z" />
    <glyph glyph-name="comma.high" horiz-adv-x="975" 
d="M581 1066l96 323l141 -43l-135 -312z" />
    <glyph glyph-name="dieresis.alt" horiz-adv-x="975" 
d="M618 1312q42 0 72 -30t30 -72q0 -43 -30 -73t-72 -30q-43 0 -73 30.5t-30 73.5q0 41 30.5 71t72.5 30zM344 1312q43 0 73 -30t30 -72q0 -43 -30 -73t-73 -30t-72.5 30t-29.5 74q0 41 30 71t72 30z" />
    <glyph glyph-name="commareversed" horiz-adv-x="975" 
d="M818 1357l-96 -323l-141 43l134 312z" />
    <glyph glyph-name="G.salt" horiz-adv-x="1492" 
d="M1199 349v214h-356v142h506v-444q-51 -69 -102 -112q-205 -173 -463 -173q-272 0 -472 186q-108 101 -167 236t-59 281q0 190 94 356q95 168 256 260q161 94 355 94q143 0 257 -51t233 -167l-104 -105q-71 74 -127 108q-118 72 -261 72q-163 0 -294 -83
q-126 -80 -194 -218q-61 -123 -61 -265q0 -146 66 -271q70 -130 196 -209q130 -81 283 -81q246 0 414 194v36z" />
    <glyph glyph-name="M.salt" horiz-adv-x="1720" 
d="M292 0h-155l137 1365h153l434 -894l433 894h154l136 -1365h-155l-109 1116l-391 -809h-136l-392 807z" />
    <glyph glyph-name="y.salt" horiz-adv-x="904" 
d="M158 908l291 -696l297 696h156l-522 -1213q-32 -78 -67 -122q-61 -75 -145 -75q-34 0 -81 14l21 133q27 -11 41 -11q33 0 54 24.5t51 94.5l119 280l-372 875h157z" />
    <glyph glyph-name="parenleft.salt" horiz-adv-x="601" 
d="M342 1618l130 -60q-154 -392 -154 -875q0 -484 154 -876l-130 -60q-70 150 -111 351q-60 298 -60 585q0 267 46 515q47 254 125 420z" />
    <glyph glyph-name="parenright.salt" horiz-adv-x="601" 
d="M260 -253l-130 60q154 393 154 876t-154 875l130 60q70 -148 111 -351q60 -298 60 -584q0 -267 -46 -515q-47 -255 -125 -421z" />
    <glyph glyph-name="bracketleft.salt" horiz-adv-x="597" 
d="M508 1472h-194v-1578h194v-138h-344v1854h344v-138z" />
    <glyph glyph-name="bracketright.salt" horiz-adv-x="597" 
d="M89 -106h194v1578h-194v138h344v-1854h-344v138z" />
    <glyph glyph-name="afii61248.salt" horiz-adv-x="1558" 
d="M1126 548q128 0 213 -93q75 -81 75 -194q0 -130 -97 -215q-83 -72 -196 -72q-132 0 -218 93q-75 81 -75 197q0 128 97 212q83 72 201 72zM1118 447q-78 0 -127 -52q-50 -53 -50 -134q0 -86 53 -137q50 -49 127 -49q80 0 130 53t50 135q0 84 -53 135q-50 49 -130 49z
M661 1219l-77 -74q-38 42 -69.5 57.5t-77.5 15.5q-81 0 -130 -51q-51 -53 -51 -135q0 -86 53 -137q50 -49 128 -49q51 0 79 15t72 63l77 -74q-58 -59 -108 -82q-51 -23 -119 -23q-134 0 -220 93q-75 81 -75 194q0 131 97 215q83 72 199 72q67 0 115 -22q49 -23 107 -78z
M331 23l790 1366l85 -49l-790 -1365z" />
    <glyph glyph-name="braceleft.salt" horiz-adv-x="597" 
d="M246 681q69 -37 97 -91q27 -54 27 -150v-371q0 -72 8 -106.5t29 -53.5q17 -15 42 -20t84 -4v-129q-25 -1 -57 -1q-132 0 -190 63q-65 71 -65 239v378q0 88 -26 131t-91 60v121q63 17 90 58.5t27 122.5v401q0 155 67 221q62 60 191 60q30 0 54 -1v-129q-10 1 -19 1
q-88 0 -116 -34t-28 -144v-384q0 -99 -26 -149q-27 -51 -98 -89z" />
    <glyph glyph-name="braceright.salt" horiz-adv-x="597" 
d="M349 681q-72 38 -97 89q-27 50 -27 149v384q0 118 -36 151q-29 27 -111 27q-7 0 -15 -1v129q24 1 54 1q136 0 196.5 -66t60.5 -215v-401q0 -81 27 -122.5t91 -58.5v-121q-65 -17 -91.5 -60t-26.5 -131v-378q0 -168 -65 -239q-59 -63 -191 -63q-31 0 -55 1v129q54 -1 84 4
q23 4 42 20q20 19 28 53.5t8 106.5v371q0 97 28 150q27 53 96 91z" />
    <glyph glyph-name="copyright.salt" horiz-adv-x="964" 
d="M709 1298l-55 -54q-37 38 -63 51.5t-65 13.5q-79 0 -125 -61q-37 -46 -37 -109q0 -74 50 -124q46 -46 112 -46q38 0 64.5 13.5t66.5 53.5l54 -54q-50 -50 -90 -69.5t-95 -19.5q-112 0 -184 82q-61 70 -61 164q0 109 80 183q69 63 165 63q56 0 93 -18t90 -69zM510 1556
q174 0 297 -123q123 -121 123 -295t-123 -296q-121 -123 -296 -123t-296 123q-123 124 -123 301q0 76 34 156t89 134q125 123 295 123zM511 1484q-144 0 -245 -101q-102 -103 -102 -249q0 -139 102 -241q100 -102 245 -102q143 0 246 101q101 103 101 246q0 146 -101 245
q-106 101 -246 101z" />
    <glyph glyph-name="registered.salt" horiz-adv-x="964" 
d="M591 1097l116 -195h-92l-105 182h-58v-182h-81v476h133q83 0 123 -37q46 -42 46 -110q0 -94 -82 -134zM510 1303h-58v-145h58q83 0 83 73q0 72 -83 72zM510 1556q174 0 297 -123q123 -121 123 -295t-123 -296q-121 -123 -296 -123t-296 123q-123 124 -123 301
q0 76 34 156t89 134q125 123 295 123zM511 1484q-144 0 -245 -101q-102 -103 -102 -249q0 -139 102 -241q100 -102 245 -102q143 0 246 101q101 103 101 246q0 146 -101 245q-106 101 -246 101z" />
    <glyph glyph-name="Circumflex" horiz-adv-x="975" 
d="M676 1464l-188 178l-189 -178l-105 53l236 258h116l235 -258z" />
    <glyph glyph-name="six.fitted" horiz-adv-x="1139" 
d="M209 751l452 638l116 -87l-305 -435q56 18 105 18q100 0 192 -40.5t154 -112.5q105 -120 105 -288q0 -209 -151 -348q-129 -120 -309 -120q-204 0 -340 147q-124 133 -124 318q0 161 105 310zM565 750q-131 0 -221 -91t-90 -225q0 -132 87 -224q90 -95 224 -95
q131 0 223 95q90 94 90 230q0 133 -86 219q-91 91 -227 91z" />
    <glyph glyph-name="seven.fitted" horiz-adv-x="1139" 
d="M236 44l631 1180h-697v141h867v-123l-670 -1267z" />
    <glyph glyph-name="eight.fitted" horiz-adv-x="1139" 
d="M325 727q-149 123 -149 290q0 177 137 287q103 85 255 85q175 0 286 -111q107 -109 107 -261q0 -169 -148 -290q193 -133 193 -341q0 -197 -146 -313q-121 -97 -291 -97q-198 0 -326 128q-111 111 -111 282q0 208 193 341zM566 648q-131 0 -210 -79q-74 -76 -74 -188
q0 -116 81 -191t206 -75q134 0 213 82q74 76 74 183q0 113 -74 189q-79 79 -216 79zM566 1254q-110 0 -184 -72q-67 -67 -67 -168q0 -111 88 -178q67 -54 165 -54q115 0 187 72q67 66 67 164q0 113 -88 182q-68 54 -168 54z" />
    <glyph glyph-name="nine.fitted" horiz-adv-x="1139" 
d="M930 614l-453 -639l-116 87l309 437q-57 -12 -104 -12q-218 0 -351 150q-105 119 -105 285q0 208 151 347q129 120 309 120q204 0 340 -147q124 -133 124 -318q0 -162 -104 -310zM574 1250q-132 0 -224 -95q-90 -93 -90 -229q0 -127 86 -215q91 -89 227 -89q130 0 221 89
q90 90 90 221q0 134 -87 223q-92 95 -223 95z" />
    <glyph glyph-name="zero.fitted" horiz-adv-x="1139" 
d="M570 1389q504 0 504 -707q0 -706 -503 -706q-289 0 -407 219q-98 179 -98 497q0 697 504 697zM571 1249q-350 0 -350 -574q0 -242 74 -393q82 -166 275 -166q349 0 349 567q0 566 -348 566z" />
    <glyph glyph-name="sterling.fitted" horiz-adv-x="1139" 
d="M842 614h-392q29 -121 29 -232q0 -71 -23 -120q-22 -48 -93 -120h677v-142h-889v142q55 44 91 79q83 80 83 190q0 70 -29 203h-145v137h115q-23 120 -23 203q0 157 61 257q53 87 159 137q90 41 188 41q223 0 348 -215l-121 -78q-91 151 -233 151q-71 0 -129.5 -32.5
t-87.5 -86.5q-35 -70 -35 -176q0 -67 28 -201h421v-137z" />
    <glyph glyph-name="dollar.fitted" horiz-adv-x="1139" 
d="M506 -212v189q-144 13 -243 102q-100 90 -138 248l148 41q61 -249 278 -249q120 0 199 82q76 79 76 185q0 82 -54 137t-184 106l-128 50q-282 109 -282 341q0 154 107 258q84 79 221 105v187h150v-187q181 -31 289 -209l-121 -79q-99 152 -247 152q-70 0 -125 -28
t-89 -83.5t-34 -117.5q0 -138 198 -215l134 -52q164 -63 240 -148q79 -86 79 -216q0 -160 -111 -277q-87 -93 -213 -122v-200h-150z" />
    <glyph glyph-name="cent.fitted" horiz-adv-x="1139" 
d="M520 0v214q-76 15 -137 51q-112 63 -175 178q-61 109 -61 240q0 173 104 304q103 129 269 163v215h150v-208q163 -20 291 -151l-98 -98q-104 119 -247 119q-160 0 -253 -120q-69 -89 -69 -224q0 -160 94 -254q92 -92 231 -92q80 0 135 28t116 98l98 -98
q-125 -139 -298 -158v-207h-150z" />
    <glyph glyph-name="florin.fitted" horiz-adv-x="1139" 
d="M118 -389l27 132q36 -10 60 -10q102 0 132 151l182 892h-92l27 132h92l14 68l23 116q59 287 279 287q33 0 87 -14l-27 -132q-36 10 -60 10q-102 0 -133 -151l-37 -184h167l-27 -132h-167l-182 -892q-59 -287 -278 -287q-36 0 -87 14z" />
    <glyph glyph-name="Euro.fitted" horiz-adv-x="1139" 
d="M115 477h-203l54 137h122q-3 28 -3 67q0 44 4 69h-177l54 137h150q25 80 63 148q94 165 256 260q160 94 354 94q262 0 472 -201l-55 -139q-199 197 -420 197q-229 0 -383 -157q-82 -83 -127 -202h866l-55 -137h-844q-4 -32 -4 -73q0 -38 4 -63h790l-55 -137h-703
q15 -40 31 -68q70 -133 196 -210q131 -80 284 -80q115 0 214 47q97 47 206 156v-198q-182 -148 -415 -148q-239 0 -421 136q-183 137 -255 365z" />
    <glyph glyph-name="yen.fitted" horiz-adv-x="1139" 
d="M979 477h-333v-477h-153v477h-333v137h308l-76 136h-232v137h157l-266 478h167l352 -652l352 652h166l-266 -478h157v-137h-232l-76 -136h308v-137z" />
    <glyph glyph-name="one.numerator" horiz-adv-x="792" 
d="M486 1365v-810h-116v679l-121 -67l-55 91l193 107h99z" />
    <glyph glyph-name="two.numerator" horiz-adv-x="792" 
d="M663 555h-526v95l303 327q91 97 91 180q0 52 -38 83.5t-99 31.5q-66 0 -100 -28t-56 -100l-106 28q49 205 266 205q109 0 179 -62q68 -62 68 -163q0 -112 -87 -207l-264 -285h369v-105z" />
    </font>
</defs>
</svg>
