<?xml version="1.0" standalone="no"?>
<!DOCTYPE svg PUBLIC "-//W3C//DTD SVG 1.1//EN" "http://www.w3.org/Graphics/SVG/1.1/DTD/svg11.dtd" >
<svg xmlns="http://www.w3.org/2000/svg" xmlns:xlink="http://www.w3.org/1999/xlink" version="1.1">
<metadata>
Created by FontForge 20170731 at Thu Jan 14 12:16:41 2016
 By Aleksey,,,
(URW)++,Copyright 2015 by (URW)++ Design &#38; Development
</metadata>
<defs>
<font id="URWGeometric-SemiBold" horiz-adv-x="792" >
  <font-face 
    font-family="URW Geometric SemBd"
    font-weight="600"
    font-stretch="normal"
    units-per-em="2048"
    panose-1="0 0 0 0 0 0 0 0 0 0"
    ascent="1499"
    descent="-549"
    x-height="908"
    cap-height="1365"
    bbox="-266 -535 2503 2205"
    underline-thickness="186"
    underline-position="-480"
    unicode-range="U+0020-FB04"
  />
<missing-glyph horiz-adv-x="485" 
d="M436 0h-387v1365h387v-1365zM98 49h289v1267h-289v-1267z" />
    <glyph glyph-name="afii61352" unicode="Nr&#x2e;" horiz-adv-x="2171" 
d="M2024 561h-523v146h523v-146zM363 0h-213v1365h187l751 -1004v1004h212v-1365h-187l-750 1004v-1004zM1767 1393q129 0 217 -96q74 -82 74 -193q0 -129 -95 -215q-84 -75 -201 -75q-135 0 -222 96q-74 83 -74 196q0 126 95 212q83 75 206 75zM1761 1258
q-64 0 -105.5 -43.5t-41.5 -110.5q0 -69 41.5 -112t106.5 -43q66 0 107 43.5t41 112.5q0 67 -41.5 110t-107.5 43z" />
    <glyph glyph-name="ff" unicode="ff" horiz-adv-x="1040" 
d="M503 908v-184h-160v-724h-204v724h-88v184h88v151q0 173 82 245q64 56 159 56q54 0 120 -15v-185q-53 14 -81 14q-76 0 -76 -115v-151h160zM1015 908v-184h-159v-724h-204v724h-88v184h88v171q0 174 81 246q65 56 160 56q56 0 119 -16v-184q-54 14 -80 14q-76 0 -76 -116
v-171h159z" />
    <glyph glyph-name="fi" unicode="fi" horiz-adv-x="949" 
d="M503 908v-184h-160v-724h-204v724h-88v184h88v171q0 174 82 246q64 56 159 56q56 0 120 -16v-184q-54 14 -81 14q-76 0 -76 -116v-171h160zM629 908h204v-908h-204v908zM731 1344q54 0 94 -38q38 -38 38 -92q0 -55 -38 -93q-40 -38 -94 -38q-55 0 -93 39q-39 38 -39 93
q0 53 39 91q40 38 93 38z" />
    <glyph glyph-name="fl" unicode="fl" horiz-adv-x="952" 
d="M503 908v-184h-160v-724h-204v724h-88v184h88v171q0 174 82 246q64 56 159 56q56 0 120 -16v-184q-54 14 -81 14q-76 0 -76 -116v-171h160zM835 1365v-1365h-204v1365h204z" />
    <glyph glyph-name="ffi" unicode="ffi" horiz-adv-x="1459" 
d="M503 908v-184h-160v-724h-204v724h-88v184h88v151q0 173 82 245q64 56 159 56q54 0 120 -15v-185q-53 14 -81 14q-76 0 -76 -115v-151h160zM1015 908v-184h-159v-724h-204v724h-88v184h88v171q0 174 81 246q65 56 160 56q56 0 119 -16v-184q-54 14 -80 14q-76 0 -76 -116
v-171h159zM1139 908h204v-908h-204v908zM1241 1344q54 0 94 -38q38 -38 38 -92q0 -55 -38 -93q-40 -38 -94 -38q-55 0 -93 39q-39 38 -39 93q0 53 39 91q40 38 93 38z" />
    <glyph glyph-name="ffl" unicode="ffl" horiz-adv-x="1462" 
d="M503 908v-184h-160v-724h-204v724h-88v184h88v151q0 173 82 245q64 56 159 56q54 0 120 -15v-185q-53 14 -81 14q-76 0 -76 -115v-151h160zM1015 908v-184h-159v-724h-204v724h-88v184h88v171q0 174 81 246q65 56 160 56q56 0 119 -16v-184q-54 14 -80 14q-76 0 -76 -116
v-171h159zM1345 1365v-1365h-204v1365h204z" />
    <glyph glyph-name=".notdef" horiz-adv-x="485" 
d="M436 0h-387v1365h387v-1365zM98 49h289v1267h-289v-1267z" />
    <glyph glyph-name="glyph1" horiz-adv-x="0" 
 />
    <glyph glyph-name="glyph2" horiz-adv-x="485" 
 />
    <glyph glyph-name="space" unicode=" " horiz-adv-x="485" 
 />
    <glyph glyph-name="exclam" unicode="!" horiz-adv-x="603" 
d="M302 234q55 0 93 -38t38 -91q0 -54 -38 -92t-94 -38q-55 0 -92 39q-38 38 -38 93q0 53 39 90q37 37 92 37zM398 335h-192l-19 1030h230z" />
    <glyph glyph-name="quotedbl" unicode="&#x22;" horiz-adv-x="662" 
d="M286 1393l-26 -581h-159l-26 581h211zM587 1393l-27 -581h-158l-27 581h212z" />
    <glyph glyph-name="numbersign" unicode="#" horiz-adv-x="1205" 
d="M161 8l77 376h-149l33 161h149l55 271h-149l33 161h149l84 415l169 -40l-77 -375h256l84 415l169 -36l-77 -379h149l-32 -161h-149l-56 -271h149l-32 -161h-149l-85 -415l-169 39l77 376h-255l-85 -415zM448 545h255l55 271h-255z" />
    <glyph glyph-name="dollar" unicode="$" horiz-adv-x="1182" 
d="M498 -212v189q-146 23 -245 122q-89 90 -130 265l207 55q3 -17 8 -33q23 -90 59 -133q67 -82 177 -82q108 0 177 77q58 64 58 151q0 54 -29 94q-42 54 -180 108l-124 48q-295 114 -295 358q0 137 86 240q86 101 231 134v189h209v-188q97 -23 163 -76t133 -161l-172 -109
q-49 74 -83 104q-61 55 -150 55q-100 0 -158 -66q-48 -55 -48 -124q0 -109 173 -177l129 -50q208 -80 279 -194q51 -81 51 -184q0 -142 -86 -254t-231 -156v-202h-209z" />
    <glyph glyph-name="percent" unicode="%" horiz-adv-x="1839" 
d="M1421 826q329 0 329 -422q0 -421 -327 -421q-323 0 -323 427q0 176 61 279q80 137 260 137zM1425 688q-171 0 -171 -276q0 -291 170 -291q172 0 172 283q0 284 -171 284zM470 38l784 1355l116 -67l-784 -1355zM410 1382q329 0 329 -421t-327 -421q-323 0 -323 426
q0 176 61 279q80 137 260 137zM414 1244q-171 0 -171 -276q0 -290 170 -290q172 0 172 283t-171 283z" />
    <glyph glyph-name="ampersand" unicode="&#x26;" horiz-adv-x="1340" 
d="M671 757l279 -331q30 56 80 196l191 -52l-21 -66q-45 -138 -109 -244l219 -260h-253l-92 110q-165 -138 -371 -138q-147 0 -266 67q-93 52 -148 148q-50 88 -50 184q0 114 64 205q64 93 216 202l-2 3q-141 167 -141 301q0 139 102 232q86 79 217 79q148 0 236 -100
q77 -88 77 -200q0 -93 -49 -166q-48 -71 -179 -170zM559 889q97 79 126 118q30 41 30 92q0 55 -37 90.5t-94 35.5q-61 0 -98 -43q-35 -41 -35 -93q0 -37 23 -80q23 -44 85 -120zM836 265l-314 379q-102 -79 -145 -140q-42 -58 -42 -124q0 -90 72 -156q71 -63 186 -63
q136 0 243 104z" />
    <glyph glyph-name="quotesingle" unicode="'" horiz-adv-x="362" 
d="M286 1393l-26 -581h-159l-26 581h211z" />
    <glyph glyph-name="parenleft" unicode="(" horiz-adv-x="637" 
d="M338 1519l183 -85q-157 -399 -157 -870t157 -867l-183 -86q-35 77 -47 107q-45 114 -77 283q-57 293 -57 571q0 268 48 516q46 243 133 431z" />
    <glyph glyph-name="parenright" unicode=")" horiz-adv-x="637" 
d="M298 -389l-182 86q157 401 157 867q0 468 -157 870l182 85q58 -122 92 -249q90 -332 90 -698q0 -358 -82 -686q-31 -126 -100 -275z" />
    <glyph glyph-name="asterisk" unicode="*" horiz-adv-x="991" 
d="M123 1181l59 182l228 -84l-10 242h191l-10 -242l228 84l59 -182l-234 -65l151 -190l-155 -112l-135 201l-134 -201l-155 112l151 190z" />
    <glyph glyph-name="plus" unicode="+" horiz-adv-x="1139" 
d="M69 730h407v410h188v-410h406v-91v-91h-406v-409h-188v409h-407v91v91z" />
    <glyph glyph-name="comma" unicode="," horiz-adv-x="509" 
d="M35 -287l188 522l187 -68l-228 -513z" />
    <glyph glyph-name="hyphen" unicode="-" horiz-adv-x="550" 
d="M61 379v186h427v-186h-427z" />
    <glyph glyph-name="period" unicode="." horiz-adv-x="497" 
d="M248 234q55 0 93 -38t38 -91q0 -54 -38 -92t-93 -38t-93 38t-38 94q0 53 39 90q37 37 92 37z" />
    <glyph glyph-name="slash" unicode="/" horiz-adv-x="1131" 
d="M99 65l773 1331l160 -96l-772 -1331z" />
    <glyph glyph-name="zero" unicode="0" horiz-adv-x="1180" 
d="M584 1393q527 0 527 -711q0 -710 -520 -710q-523 0 -523 720q0 304 103 482q58 101 152 154q116 65 261 65zM589 1195q-123 0 -199 -84q-48 -54 -76 -168q-30 -115 -30 -248q0 -258 77 -398q70 -127 229 -127q305 0 305 520q0 229 -76 378q-30 58 -92 93q-59 34 -138 34z
" />
    <glyph glyph-name="one" unicode="1" horiz-adv-x="648" 
d="M499 1365v-1365h-212v1115l-187 -107l-100 172l324 185h175z" />
    <glyph glyph-name="two" unicode="2" horiz-adv-x="1002" 
d="M962 0h-874v174l492 547q143 160 143 289q0 84 -57 136q-53 48 -152 48q-118 0 -172 -66q-39 -46 -69 -152l-195 54q31 136 100 218q123 145 341 145q205 0 319 -127q94 -103 94 -261q0 -195 -142 -352l-410 -456h582v-197z" />
    <glyph glyph-name="three" unicode="3" horiz-adv-x="986" 
d="M21 337l-2 10l207 54q29 -112 69 -161q57 -68 169 -68q118 0 185 75q57 63 57 155q0 101 -65 161q-57 54 -184 54h-90v194h90q124 0 176 61q46 55 46 131q0 90 -60 144q-55 49 -146 49q-74 0 -124 -32q-52 -35 -106 -118l-177 97q56 96 116 148q118 102 290 102
q202 0 319 -130q96 -107 96 -255q0 -169 -129 -280q160 -129 160 -326t-136 -315q-130 -115 -320 -115q-205 0 -331 137q-44 48 -65 94q-22 47 -45 134z" />
    <glyph glyph-name="four" unicode="4" horiz-adv-x="1064" 
d="M627 1400l173 -107l-508 -809h341v325h211v-325h162v-194h-162v-290h-211v290h-585v189z" />
    <glyph glyph-name="five" unicode="5" horiz-adv-x="1085" 
d="M937 1365v-195h-464l-54 -264q31 16 105 16q220 0 361 -156q118 -130 118 -312q0 -215 -158 -358q-136 -124 -334 -124q-144 0 -246 65q-106 65 -197 208l169 117q46 -80 77 -112q77 -80 200 -80q127 0 208 90q69 78 69 188q0 128 -90 211q-77 69 -184 69
q-116 0 -197 -88l-164 35l141 690h640z" />
    <glyph glyph-name="six" unicode="6" horiz-adv-x="1117" 
d="M639 1400l165 -122l-274 -384q16 6 40 6q130 0 244 -66q102 -58 161 -159q59 -103 59 -225q0 -128 -65 -241q-64 -111 -175 -175q-110 -62 -237 -62q-216 0 -359 158q-122 134 -122 318q0 164 107 315zM556 707q-122 0 -202 -87q-67 -73 -67 -179q0 -126 88 -205
q73 -67 181 -67q118 0 198 89q69 78 69 189q0 109 -71 180q-80 80 -196 80z" />
    <glyph glyph-name="seven" unicode="7" horiz-adv-x="927" 
d="M256 -36l-184 97l598 1109h-650v195h900v-157z" />
    <glyph glyph-name="eight" unicode="8" horiz-adv-x="1050" 
d="M247 727q-136 123 -136 279q0 168 128 284q115 103 286 103q197 0 315 -132q99 -109 99 -255q0 -154 -137 -279q57 -43 97 -90q83 -101 83 -242q0 -188 -135 -308q-130 -115 -322 -115q-136 0 -252 65q-95 55 -151 150q-54 93 -54 208q0 159 110 272q30 31 69 60z
M521 623q-117 0 -185 -74q-58 -64 -58 -154q0 -104 73 -170q67 -60 174 -60q122 0 189 76q58 64 58 155q0 101 -72 167q-64 60 -179 60zM526 1207q-106 0 -167 -69q-50 -56 -50 -133q0 -89 63 -146q60 -54 156 -54q103 0 165 68q49 55 49 135q0 86 -65 145q-59 54 -151 54z
" />
    <glyph glyph-name="nine" unicode="9" horiz-adv-x="1122" 
d="M477 -36l-164 122l275 385q-17 -4 -45 -4q-129 0 -241 66q-103 60 -160 159q-59 101 -59 224q0 127 65 240q64 111 176 175q109 62 236 62q216 0 359 -158q122 -136 122 -319q0 -164 -108 -314zM561 1196q-118 0 -198 -89q-69 -78 -69 -190q0 -115 83 -189
q77 -68 184 -68q123 0 203 87q66 73 66 177q0 124 -88 205q-73 67 -181 67z" />
    <glyph glyph-name="colon" unicode=":" horiz-adv-x="497" 
d="M248 234q55 0 93 -38t38 -91q0 -54 -38 -92t-93 -38t-93 38t-38 94q0 53 39 90q37 37 92 37zM248 878q55 0 93 -37q38 -38 38 -92q0 -53 -38 -91q-40 -38 -94 -38t-92 38t-38 93q0 53 39 90q37 37 92 37z" />
    <glyph glyph-name="semicolon" unicode=";" horiz-adv-x="502" 
d="M35 -287l188 522l187 -68l-228 -513zM286 878q55 0 93 -37q38 -38 38 -92q0 -53 -38 -91q-40 -38 -94 -38t-92 38t-38 93q0 53 39 90q37 37 92 37z" />
    <glyph glyph-name="less" unicode="&#x3c;" horiz-adv-x="1166" 
d="M112 774l942 442v-214l-684 -312l684 -314v-213l-942 443v168z" />
    <glyph glyph-name="equal" unicode="=" horiz-adv-x="1139" 
d="M128 885h883v-183h-883v183zM128 578h883v-183h-883v183z" />
    <glyph glyph-name="greater" unicode="&#x3e;" horiz-adv-x="1166" 
d="M1054 605l-942 -442v214l684 313l-684 313v213l942 -443v-168z" />
    <glyph glyph-name="question" unicode="?" horiz-adv-x="882" 
d="M534 335h-209v141q0 99 25 150q25 53 100 116l86 72q116 99 116 206q0 78 -54 128q-50 46 -142 46q-63 0 -105.5 -20t-85.5 -70q-28 -35 -55 -78l-155 127q129 240 393 240q214 0 323 -123q91 -103 91 -250q0 -94 -30 -156q-42 -86 -143 -181l-97 -90q-44 -42 -51 -57
t-7 -76v-125zM430 234q56 0 93 -37q38 -38 38 -92t-38 -92t-94 -38q-55 0 -92 39q-38 38 -38 93q0 53 39 90q38 37 92 37z" />
    <glyph glyph-name="at" unicode="@" horiz-adv-x="1839" 
d="M1034 1081h263l-87 -683h20q141 0 218 86q39 44 62.5 121t23.5 163q0 165 -76 302q-130 238 -468 238q-221 0 -392 -96q-129 -72 -207 -208q-87 -153 -87 -340q0 -265 165 -430q176 -176 519 -176q202 0 453 78l55 -147q-243 -85 -512 -85q-299 0 -497 114
q-159 92 -244 246q-100 181 -100 398q0 231 109 421q98 172 261 263q209 116 471 116q229 0 392 -94q146 -84 227 -229q92 -167 92 -366q0 -219 -105 -355q-70 -93 -167 -133q-99 -41 -246 -41h-275q-83 0 -158.5 31t-125.5 85q-89 98 -89 260q0 133 65 248q123 213 440 213
zM918 398h127l68 529h-98q-165 0 -245 -90q-75 -85 -75 -211q0 -116 66 -175q59 -53 157 -53z" />
    <glyph glyph-name="A" unicode="A" horiz-adv-x="1292" 
d="M938 352h-586l-129 -352h-223l515 1365h262l515 -1365h-224zM644 1145l-219 -595h440z" />
    <glyph glyph-name="B" unicode="B" horiz-adv-x="1078" 
d="M521 0h-371v1365h306q197 0 303 -61q78 -46 128 -130q51 -87 51 -185q0 -149 -127 -263q65 -34 106 -84q87 -108 87 -249q0 -151 -100 -255q-69 -74 -158 -106t-225 -32zM360 1173v-383h119q114 0 164 28q92 53 92 166q0 85 -56 139q-53 50 -200 50h-119zM360 607v-412
h150q126 0 184 34q100 55 100 172q0 52 -25.5 98.5t-67.5 70.5q-64 37 -209 37h-132z" />
    <glyph glyph-name="C" unicode="C" horiz-adv-x="1372" 
d="M1311 1151l-149 -144q-69 72 -126 112q-110 74 -250 74q-226 0 -368 -162q-130 -146 -130 -349q0 -233 166 -383q140 -127 331 -127q163 0 294 105q34 29 89 85l149 -145q-92 -92 -170 -142q-160 -103 -359 -103q-196 0 -363 96q-163 95 -257 259q-96 165 -96 355
q0 188 95 354q96 169 261 263q163 94 358 94q152 0 276 -57q126 -59 249 -185z" />
    <glyph glyph-name="D" unicode="D" horiz-adv-x="1267" 
d="M150 0v1365h303q251 0 429 -103q148 -86 225 -222q88 -155 88 -356q0 -284 -164 -463q-204 -221 -578 -221h-303zM459 1167h-96v-969h96q176 0 301 71q221 128 221 415q0 284 -221 412q-125 71 -301 71z" />
    <glyph glyph-name="E" unicode="E" horiz-adv-x="984" 
d="M892 1365v-196h-529v-378h470v-198h-470v-395h549v-198h-762v1365h742z" />
    <glyph glyph-name="F" unicode="F" horiz-adv-x="907" 
d="M846 1365v-196h-483v-378h441v-198h-441v-593h-213v1365h696z" />
    <glyph glyph-name="G" unicode="G" horiz-adv-x="1488" 
d="M803 537v198h609v-103q0 -206 -90 -371q-73 -132 -208 -208q-144 -81 -323 -81q-200 0 -365 96q-164 94 -258 258q-96 166 -96 356q0 188 95 354q96 169 261 263q163 94 357 94q245 0 429 -151q24 -20 96 -89l-148 -144q-74 75 -128 112q-108 72 -248 72
q-224 0 -368 -162q-130 -146 -130 -350q0 -232 166 -382q140 -127 334 -127q208 0 322 146q63 81 82 219h-389z" />
    <glyph glyph-name="H" unicode="H" horiz-adv-x="1332" 
d="M150 0v1365h213v-574h606v574h213v-1365h-213v593h-606v-593h-213z" />
    <glyph glyph-name="I" unicode="I" horiz-adv-x="513" 
d="M150 1365h213v-1365h-213v1365z" />
    <glyph glyph-name="J" unicode="J" horiz-adv-x="851" 
d="M488 1365h213v-946q0 -104 -12 -164q-12 -62 -46 -119q-40 -70 -115 -115q-82 -49 -185 -49q-97 0 -176 39q-81 39 -174 129l132 154q116 -122 215 -122q62 0 101 43q47 52 47 204v946z" />
    <glyph glyph-name="K" unicode="K" horiz-adv-x="1196" 
d="M1192 1365l-529 -574l529 -791h-250l-423 635l-156 -170v-465h-213v1365h213v-615l565 615h264z" />
    <glyph glyph-name="L" unicode="L" horiz-adv-x="884" 
d="M150 1365h213v-1168h510v-197h-723v1365z" />
    <glyph glyph-name="M" unicode="M" horiz-adv-x="1648" 
d="M363 0h-213v1365h208l466 -830l466 830h207v-1365h-213v964l-376 -671h-169l-376 671v-964z" />
    <glyph glyph-name="N" unicode="N" horiz-adv-x="1450" 
d="M363 0h-213v1365h187l751 -1004v1004h212v-1365h-187l-750 1004v-1004z" />
    <glyph glyph-name="O" unicode="O" horiz-adv-x="1562" 
d="M780 1393q190 0 350 -94q166 -97 263 -262q96 -165 96 -355t-97 -356q-94 -163 -261 -259q-166 -95 -348 -95q-270 0 -473 182q-238 211 -238 537q0 185 96 346q101 168 263 262q163 94 349 94zM777 1193q-212 0 -358 -164q-131 -146 -131 -355q0 -167 100 -300
q77 -104 195 -158q97 -44 197 -44q124 0 240 66t185 184q68 119 68 260q0 230 -168 385q-138 126 -328 126z" />
    <glyph glyph-name="P" unicode="P" horiz-adv-x="966" 
d="M150 0v1365h303q189 0 290 -58q88 -49 138 -139q58 -100 58 -220q0 -168 -104 -287q-65 -71 -152 -102t-230 -31h-90v-528h-213zM363 1171v-450h107q149 0 206 66q54 61 54 161q0 138 -97 192q-55 31 -163 31h-107z" />
    <glyph glyph-name="Q" unicode="Q" horiz-adv-x="1557" 
d="M1277 179l126 -125l-146 -144l-147 146q-160 -84 -331 -84q-185 0 -349 95q-167 96 -261 259q-97 166 -97 356q0 188 96 355q98 167 263 262q163 94 349 94q187 0 350 -94q165 -95 263 -262q96 -167 96 -356q0 -290 -212 -502zM956 208l-97 96l145 144l126 -124
q143 152 143 356q0 235 -167 387q-139 126 -326 126q-215 0 -361 -164q-131 -146 -131 -348q0 -231 168 -381q143 -128 321 -128q84 0 179 36z" />
    <glyph glyph-name="R" unicode="R" horiz-adv-x="1121" 
d="M757 583l326 -583h-239l-295 532q-49 -4 -96 -4h-90v-528h-213v1365h303q206 0 317 -63q90 -52 144 -144q58 -98 58 -216q0 -117 -57 -212t-158 -147zM363 1171v-450h107q130 0 194 37q99 56 99 186q0 132 -101 191q-64 36 -192 36h-107z" />
    <glyph glyph-name="S" unicode="S" horiz-adv-x="1054" 
d="M949 1145l-172 -109q-47 72 -84 104q-61 55 -150 55q-101 0 -158 -66q-48 -55 -48 -124q0 -109 173 -177l130 -49q207 -79 279 -195q51 -80 51 -183q0 -188 -141 -314q-128 -115 -312 -115q-149 0 -265 81q-135 95 -184 312l207 54q3 -16 8 -32q22 -88 59 -134
q67 -82 178 -82q108 0 177 77q58 64 58 151q0 56 -29 94q-40 53 -181 108l-124 48q-295 114 -295 357q0 171 124 280q122 107 299 107q193 0 319 -137q38 -40 81 -111z" />
    <glyph glyph-name="T" unicode="T" horiz-adv-x="894" 
d="M894 1365v-196h-340v-1169h-213v1169h-341v196h894z" />
    <glyph glyph-name="U" unicode="U" horiz-adv-x="1307" 
d="M150 484v881h213v-842q0 -88 8 -138q8 -49 28 -84q33 -56 104 -92q70 -37 150 -37q117 0 205 73q51 42 68 98q17 57 17 180v842h213v-881q0 -171 -59 -272q-62 -105 -172 -167q-124 -73 -272 -73q-204 0 -351 129q-82 70 -117 160t-35 223z" />
    <glyph glyph-name="V" unicode="V" horiz-adv-x="1156" 
d="M454 0l-454 1365h222l356 -1076l357 1076h221l-454 -1365h-248z" />
    <glyph glyph-name="W" unicode="W" horiz-adv-x="1797" 
d="M0 1365h222l288 -1009l298 1009h181l298 -1009l289 1009h221l-409 -1365h-102h-99l-288 969l-289 -969h-98h-102z" />
    <glyph glyph-name="X" unicode="X" horiz-adv-x="1137" 
d="M862 1365h235l-410 -651l450 -714h-242l-328 527l-329 -527h-238l449 711l-409 654h238l292 -468z" />
    <glyph glyph-name="Y" unicode="Y" horiz-adv-x="1083" 
d="M862 1365h235l-449 -798v-567h-213v567l-449 798h236l320 -586z" />
    <glyph glyph-name="Z" unicode="Z" horiz-adv-x="1046" 
d="M993 1365v-171l-692 -996h707v-198h-974v171l703 999h-644v195h900z" />
    <glyph glyph-name="bracketleft" unicode="[" horiz-adv-x="625" 
d="M546 1306h-183v-1481h183v-191h-389v1863h389v-191z" />
    <glyph glyph-name="backslash" unicode="\" horiz-adv-x="1131" 
d="M99 1300l160 96l773 -1331l-161 -96z" />
    <glyph glyph-name="bracketright" unicode="]" horiz-adv-x="625" 
d="M262 -175v1481h-183v191h389v-1863h-389v191h183z" />
    <glyph glyph-name="asciicircum" unicode="^" horiz-adv-x="1117" 
d="M679 1404l401 -693h-247l-276 468l-276 -468h-245l401 693h242z" />
    <glyph glyph-name="underscore" unicode="_" horiz-adv-x="1051" 
d="M-14 -294v186h1079v-186h-1079z" />
    <glyph glyph-name="grave" unicode="`" horiz-adv-x="975" 
d="M482 1022l-295 297l195 104l235 -324z" />
    <glyph glyph-name="a" unicode="a" horiz-adv-x="1117" 
d="M1001 908v-908h-204v79q-139 -107 -280 -107q-113 0 -219 61q-113 65 -176 176q-65 113 -65 246q0 219 159 361q135 120 301 120q140 0 280 -107v79h204zM529 751q-114 0 -194 -86q-72 -78 -72 -210q0 -151 92 -232q75 -66 178 -66q119 0 195 84q72 79 72 216
q0 150 -91 229q-74 65 -180 65z" />
    <glyph glyph-name="b" unicode="b" horiz-adv-x="1117" 
d="M319 0h-204v1365h204v-536q140 107 280 107q113 0 219 -61q112 -64 177 -175q64 -112 64 -245q0 -221 -159 -363q-135 -120 -301 -120q-141 0 -280 107v-79zM583 751q-116 0 -193 -83q-72 -80 -72 -213q0 -151 92 -234q71 -64 175 -64q117 0 195 85q73 79 73 217
q0 137 -82 216q-77 76 -188 76z" />
    <glyph glyph-name="c" unicode="c" horiz-adv-x="947" 
d="M910 759l-137 -133q-68 74 -116 99q-50 26 -119 26q-126 0 -203 -86q-72 -78 -72 -210q0 -150 91 -231q74 -67 184 -67q72 0 126 30q54 29 115 102l137 -133q-69 -75 -125 -111q-112 -73 -254 -73q-219 0 -358 156q-122 137 -122 327q0 217 156 360q133 121 324 121
q108 0 195.5 -41.5t177.5 -135.5z" />
    <glyph glyph-name="d" unicode="d" horiz-adv-x="1117" 
d="M1001 1365v-1365h-204v79q-139 -107 -280 -107q-113 0 -219 61q-113 65 -176 176q-65 113 -65 246q0 219 159 361q135 120 301 120q140 0 280 -107v536h204zM529 751q-115 0 -193 -85q-73 -79 -73 -211q0 -151 92 -232q76 -66 178 -66q117 0 192 83q73 79 73 217
q0 149 -91 230q-71 64 -178 64z" />
    <glyph glyph-name="e" unicode="e" horiz-adv-x="1012" 
d="M953 376h-686q15 -72 53 -124q71 -95 203 -95q71 0 132 31t97 86l18 29l176 -73q-153 -258 -424 -258q-210 0 -343 151q-122 140 -122 332q0 225 156 367q125 115 296 115q194 0 323 -144q67 -75 98 -185q24 -84 24 -174q0 -29 -1 -58zM267 534h484q-23 88 -65 140
q-64 82 -175 82q-93 0 -157.5 -58.5t-86.5 -163.5z" />
    <glyph glyph-name="f" unicode="f" horiz-adv-x="530" 
d="M503 908v-184h-160v-724h-204v724h-88v184h88v171q0 174 82 246q64 56 159 56q56 0 120 -16v-184q-54 14 -81 14q-76 0 -76 -116v-171h160z" />
    <glyph glyph-name="g" unicode="g" horiz-adv-x="1117" 
d="M797 908h204v-925q0 -237 -148 -369q-135 -120 -336 -120q-210 0 -353 131q-23 22 -84 92l133 133q17 -18 24 -27q60 -70 97 -94q77 -50 178 -50q141 0 216 84q69 78 69 220v96q-122 -107 -271 -107q-122 0 -228 61q-112 64 -176 176q-65 113 -65 246q0 220 159 361
q135 120 311 120q145 0 270 -107v79zM529 751q-115 0 -194 -85q-72 -80 -72 -211q0 -151 92 -232q75 -66 178 -66q116 0 193 83q72 80 72 217q0 149 -91 230q-71 64 -178 64z" />
    <glyph glyph-name="h" unicode="h" horiz-adv-x="1043" 
d="M115 0v1365h204v-523q95 94 231 94q148 0 254 -94q65 -58 94 -140.5t29 -212.5v-489h-204v473q0 133 -33 195q-44 80 -159 80q-57 0 -106 -24.5t-72 -64.5q-34 -61 -34 -205v-454h-204z" />
    <glyph glyph-name="i" unicode="i" horiz-adv-x="436" 
d="M116 908h204v-908h-204v908zM218 1344q54 0 94 -38q38 -38 38 -92q0 -55 -38 -93q-40 -38 -94 -38q-56 0 -93 39q-39 38 -39 93q0 53 39 91q40 38 93 38z" />
    <glyph glyph-name="j" unicode="j" horiz-adv-x="456" 
d="M238 1344q54 0 94 -38q38 -38 38 -92q0 -55 -38 -93q-40 -38 -95 -38t-93 39q-38 38 -38 94q0 52 39 90q40 38 93 38zM-20 -475v191q63 -19 95 -19q28 0 41 16q20 23 20 94v1101h204v-1101q0 -174 -82 -246q-64 -56 -155 -56q-55 0 -123 20z" />
    <glyph glyph-name="k" unicode="k" horiz-adv-x="975" 
d="M952 908l-384 -377l416 -531h-252l-303 394l-110 -108v-286h-204v1365h204v-819l365 362h268z" />
    <glyph glyph-name="l" unicode="l" horiz-adv-x="439" 
d="M321 1365v-1365h-204v1365h204z" />
    <glyph glyph-name="m" unicode="m" horiz-adv-x="1583" 
d="M795 813q113 123 282 123q161 0 267 -96q67 -62 95 -141q28 -80 28 -210v-489h-204v473q0 139 -33 200q-40 75 -142 75q-51 0 -95 -23t-65 -61q-34 -61 -34 -210v-454h-204v473q0 139 -33 200q-41 75 -143 75q-52 0 -96 -23t-65 -61q-34 -62 -34 -210v-454h-204v908h204
v-66q91 94 217 94q150 0 259 -123z" />
    <glyph glyph-name="n" unicode="n" horiz-adv-x="1043" 
d="M115 0v908h204v-66q97 94 231 94q148 0 254 -94q65 -58 94 -140.5t29 -212.5v-489h-204v473q0 133 -33 195q-44 80 -159 80q-57 0 -106 -24.5t-72 -64.5q-34 -61 -34 -205v-454h-204z" />
    <glyph glyph-name="o" unicode="o" horiz-adv-x="1070" 
d="M542 936q208 0 347 -156q123 -136 123 -325q0 -221 -159 -364q-134 -119 -318 -119q-214 0 -354 155q-124 136 -124 327q0 185 114 317q144 165 371 165zM530 751q-115 0 -195 -86q-72 -78 -72 -210q0 -149 92 -232q75 -66 179 -66q122 0 200 86q72 79 72 214
q0 146 -91 227q-74 67 -185 67z" />
    <glyph glyph-name="p" unicode="p" horiz-adv-x="1117" 
d="M115 -478v1386h204v-79q139 107 280 107q113 0 219 -61q113 -65 176 -176q65 -113 65 -246q0 -219 -159 -361q-135 -120 -301 -120q-140 0 -280 107v-557h-204zM583 751q-115 0 -192 -83q-73 -79 -73 -216q0 -150 91 -231q71 -64 176 -64q73 0 138 38q130 79 130 258
q0 151 -92 232q-75 66 -178 66z" />
    <glyph glyph-name="q" unicode="q" horiz-adv-x="1117" 
d="M797 908h204v-1386h-204v557q-140 -107 -280 -107q-113 0 -219 61q-112 64 -177 175q-64 112 -64 245q0 221 159 363q135 120 301 120q141 0 280 -107v79zM533 751q-117 0 -197 -86q-73 -79 -73 -210q0 -181 130 -260q64 -38 144 -38q114 0 189 83q72 80 72 216
q0 148 -92 231q-71 64 -173 64z" />
    <glyph glyph-name="r" unicode="r" horiz-adv-x="619" 
d="M115 0v908h204v-73q60 48 97 62q38 15 99 15q35 0 75 -4v-183q-66 2 -71 2q-123 0 -166 -81q-34 -64 -34 -209v-437h-204z" />
    <glyph glyph-name="s" unicode="s" horiz-adv-x="777" 
d="M47 237l169 69q42 -85 80 -117q38 -33 95 -33q66 0 97 39q28 32 28 73q0 27 -15 48q-17 24 -116 61l-93 36q-197 77 -197 244q0 122 90 200q91 79 219 79q197 0 302 -198l-160 -81q-37 55 -68.5 76.5t-76.5 21.5q-49 0 -80 -25.5t-31 -66.5q0 -27 14 -47q16 -20 115 -59
l84 -32q114 -44 165.5 -103t51.5 -146q0 -133 -100 -221q-94 -83 -231 -83q-124 0 -207.5 65t-134.5 200z" />
    <glyph glyph-name="t" unicode="t" horiz-adv-x="532" 
d="M332 908h144v-184h-144v-438q0 -58 14.5 -83.5t46.5 -25.5q31 0 96 18v-191q-69 -20 -124 -20q-107 0 -171 72q-66 74 -66 230v438h-97v184h97v201l204 81v-282z" />
    <glyph glyph-name="u" unicode="u" horiz-adv-x="1043" 
d="M927 908v-908h-204v66q-97 -94 -231 -94q-148 0 -254 94q-66 58 -94.5 140.5t-28.5 212.5v489h204v-473q0 -135 33 -195q44 -80 160 -80q57 0 106 24.5t71 64.5q34 61 34 205v454h204z" />
    <glyph glyph-name="v" unicode="v" horiz-adv-x="943" 
d="M378 0l-390 908h221l263 -625l263 625h221l-391 -908h-187z" />
    <glyph glyph-name="w" unicode="w" horiz-adv-x="1360" 
d="M-12 908h219l196 -578l196 578h163l196 -578l196 578h219l-334 -908h-164l-195 571l-195 -571h-163z" />
    <glyph glyph-name="x" unicode="x" horiz-adv-x="954" 
d="M694 908h238l-334 -437l360 -471h-241l-239 316l-239 -316h-242l361 470l-335 438h241l215 -284z" />
    <glyph glyph-name="y" unicode="y" horiz-adv-x="948" 
d="M346 -478h-214l228 521l-372 865h221l261 -617l270 617h220z" />
    <glyph glyph-name="z" unicode="z" horiz-adv-x="849" 
d="M809 908v-156l-496 -568h515v-184h-783v155l497 570h-468v183h735z" />
    <glyph glyph-name="braceleft" unicode="{" horiz-adv-x="634" 
d="M556 -181v-184q-82 -2 -83 -2q-139 0 -209 69q-72 70 -72 240v389q0 80 -21 110q-23 30 -92 48v164q68 18 91 47q22 28 22 101v387q0 170 72 240q70 69 207 69q5 0 15.5 -0.5t31 -1t38.5 -0.5v-183h-50q-71 2 -89 -18q-19 -19 -19 -91v-410q0 -85 -21 -136.5t-71 -91.5
q38 -30 54 -57q38 -62 38 -177v-404q0 -71 20 -91q20 -18 96 -18q17 0 42 1z" />
    <glyph glyph-name="bar" unicode="|" horiz-adv-x="1054" 
d="M425 -360v1851h204v-1851h-204z" />
    <glyph glyph-name="braceright" unicode="}" horiz-adv-x="634" 
d="M79 -365v184q25 -1 43 -1q76 0 96 18q19 19 19 91v404q0 89 21 142t71 92q-37 29 -54 56q-38 62 -38 172v410q0 71 -19 90t-88 19h-15h-36v183q18 0 38.5 0.5t31 1t15.5 0.5q136 0 207 -69q72 -70 72 -240v-387q0 -72 22 -100q23 -29 91 -48v-164q-70 -18 -91 -48
q-22 -29 -22 -110v-389q0 -170 -72 -240q-71 -69 -209 -69q-1 0 -83 2z" />
    <glyph glyph-name="asciitilde" unicode="~" horiz-adv-x="1407" 
d="M309 1154l-132 86q71 141 130 201q32 32 82.5 51.5t100.5 19.5q93 0 242 -73q130 -62 188 -62q52 0 88 30q35 31 87 118l135 -79q-62 -125 -123 -185q-36 -37 -92 -59q-57 -24 -105 -24q-56 0 -107 17q-61 20 -199 83q-78 35 -128 35q-44 0 -81.5 -35.5t-85.5 -123.5z
" />
    <glyph glyph-name="nbspace" unicode="&#xa0;" horiz-adv-x="485" 
 />
    <glyph glyph-name="exclamdown" unicode="&#xa1;" horiz-adv-x="603" 
d="M302 1013q53 0 93 -38q38 -38 38 -92q0 -53 -38 -91q-40 -38 -94 -38q-55 0 -92 39q-38 38 -38 93q0 52 39 90q37 37 92 37zM187 -377l19 1030h192l19 -1030h-230z" />
    <glyph glyph-name="cent" unicode="&#xa2;" horiz-adv-x="1135" 
d="M491 0v213q-109 27 -191 94q-81 66 -127 163q-47 102 -47 213q0 172 100 300q101 128 265 168v214h209v-211q152 -31 279 -167l-136 -133q-67 74 -117 99q-50 26 -119 26q-125 0 -203 -86q-72 -78 -72 -210q0 -150 91 -231q74 -67 184 -67q72 0 126 30q55 29 116 102
l136 -133q-132 -144 -285 -175v-209h-209z" />
    <glyph glyph-name="sterling" unicode="&#xa3;" horiz-adv-x="1153" 
d="M461 781h413v-191h-372q21 -97 21 -190q0 -57 -17 -102t-60 -102h619v-196h-925v184l20 15q88 70 119 116q30 45 30 108q0 61 -23 167h-146v191h105q-16 89 -16 168q0 225 132 338q122 106 294 106q247 0 382 -248l-170 -106q-50 85 -100 120.5t-120 35.5q-93 0 -151 -63
q-56 -59 -56 -174q0 -72 21 -177z" />
    <glyph glyph-name="currency" unicode="&#xa4;" horiz-adv-x="1483" 
d="M289 1257l177 -180q127 88 276 88q148 0 275 -88l177 180l115 -112l-180 -183q85 -130 85 -278q0 -154 -84 -279l179 -182l-113 -115l-178 181q-127 -88 -276 -88q-146 0 -277 88l-178 -181l-113 115l180 182q-85 125 -85 279q0 142 85 278l-180 183zM737 989
q-121 0 -202 -89q-75 -81 -75 -216q0 -154 95 -238q78 -69 187 -69q126 0 207 89q75 82 75 220q0 150 -94 234q-78 69 -193 69z" />
    <glyph glyph-name="yen" unicode="&#xa5;" horiz-adv-x="1288" 
d="M538 460h-321v177h282l-51 89h-231v177h132l-260 462h236l320 -586l320 586h235l-260 -462h132v-177h-232l-50 -89h282v-177h-321v-460h-213v460z" />
    <glyph glyph-name="brokenbar" unicode="&#xa6;" horiz-adv-x="1054" 
d="M425 795v696h204v-696h-204zM425 -360v696h204v-696h-204z" />
    <glyph glyph-name="section" unicode="&#xa7;" horiz-adv-x="1146" 
d="M912 111q81 -93 81 -226q0 -177 -123 -288q-115 -103 -309 -103q-226 0 -368 163q-42 49 -97 149l175 110q64 -113 113 -157q73 -67 184 -67q104 0 163 65q48 54 48 128q0 66 -49 112.5t-166 92.5l-126 48q-298 115 -298 363q0 151 114 270q-90 95 -90 232q0 171 126 282
q122 108 300 108q192 0 318 -139q36 -39 81 -112l-175 -110q-46 72 -82 107q-61 56 -149 56q-100 0 -158 -67q-49 -56 -49 -128q0 -109 176 -177l131 -51q209 -79 283 -196q51 -83 51 -187q0 -163 -105 -278zM735 236q64 73 64 152q0 57 -30 96q-41 53 -184 109l-140 54
l-15 6q-77 -68 -77 -152q0 -115 174 -181l131 -50q39 -16 77 -34z" />
    <glyph glyph-name="dieresis" unicode="&#xa8;" horiz-adv-x="975" 
d="M676 1344q53 0 93 -38q38 -38 38 -92t-38 -92q-40 -38 -94 -38q-55 0 -93 39q-38 38 -38 93q0 54 39 91q38 37 93 37zM299 1344q54 0 94 -38q38 -38 38 -92t-38 -92q-40 -38 -93 -38q-56 0 -94 38t-38 94q0 52 39 90q40 38 92 38z" />
    <glyph glyph-name="copyright" unicode="&#xa9;" horiz-adv-x="1727" 
d="M1267 988l-122 -117q-36 38 -65 64q-73 64 -181 64q-138 0 -226 -100q-81 -91 -81 -217q0 -146 103 -237q86 -79 204 -79q73 0 123 26q47 24 128 105l121 -118l-9 -8l-15 -15q-84 -81 -165.5 -117.5t-180.5 -36.5q-219 0 -361 159q-123 138 -123 321q0 128 64 240
q66 112 177 177q110 64 241 64q170 0 292 -104q17 -13 76 -71zM876 1458q199 0 375 -104q180 -105 284 -284t104 -387q0 -207 -104 -388q-103 -179 -284 -283q-179 -104 -387 -104q-206 0 -387 104q-179 102 -284 283q-104 182 -104 394q0 335 257 569q220 200 530 200z
M854 1313q-162 0 -305 -85q-147 -86 -230 -230q-85 -145 -85 -315t85 -315q84 -146 230 -230q145 -85 315 -85q169 0 315 85q147 84 231 230q84 147 84 320q0 272 -209 463q-178 162 -431 162z" />
    <glyph glyph-name="ordfeminine" unicode="&#xaa;" horiz-adv-x="721" 
d="M647 1376v-545h-147v40q-70 -58 -152 -58q-129 0 -219 97q-73 79 -73 190q0 130 97 217q86 77 195 77q82 0 152 -57v39h147zM354 1263q-65 0 -107 -45q-43 -46 -43 -116q0 -80 48 -120q41 -37 102 -37q67 0 108 44.5t41 116.5q0 70 -41.5 113.5t-107.5 43.5z" />
    <glyph glyph-name="guillemotleft" unicode="&#xab;" horiz-adv-x="956" 
d="M618 455l247 -305l-136 -108l-335 412l335 421l136 -107zM286 455l246 -305l-136 -108l-335 412l335 421l136 -107z" />
    <glyph glyph-name="logicalnot" unicode="&#xac;" horiz-adv-x="1393" 
d="M1270 730v-591h-199v405h-948v186h1147z" />
    <glyph glyph-name="uni00AD" unicode="&#xad;" horiz-adv-x="550" 
d="M61 379v186h427v-186h-427z" />
    <glyph glyph-name="registered" unicode="&#xae;" horiz-adv-x="1727" 
d="M1033 608l221 -386h-192l-196 346q-24 -1 -105 -1v-345h-171v921h239q135 0 208 -42q61 -35 99 -99q40 -67 40 -148q0 -82 -37.5 -146.5t-105.5 -99.5zM840 983h-79v-257h79q100 0 136 40q30 34 30 88q0 66 -40.5 97.5t-125.5 31.5zM874 1458q201 0 377 -104
q182 -107 284 -284q104 -178 104 -386t-104 -389q-104 -182 -284 -284q-178 -103 -387 -103t-387 103q-180 104 -284 284q-104 181 -104 385q0 206 104 390q130 234 394 336q131 52 287 52zM854 1313q-162 0 -304 -85q-147 -85 -231 -230q-84 -146 -84 -315t84 -315
t231 -230q145 -85 314 -85t315 85q148 86 231 230q84 147 84 320q0 272 -209 463q-178 162 -431 162z" />
    <glyph glyph-name="overscore" unicode="&#xaf;" horiz-adv-x="975" 
d="M181 1118v183h613v-183h-613z" />
    <glyph glyph-name="degree" unicode="&#xb0;" horiz-adv-x="689" 
d="M418 1519q123 0 211 -97q74 -80 74 -192q0 -132 -96 -217q-83 -74 -194 -74q-129 0 -216 96q-74 83 -74 197q0 125 96 212q82 75 199 75zM412 1366q-56 0 -96 -40t-40 -96t41 -97t96 -41q56 0 97 41q40 40 40 98q0 56 -40 96q-40 39 -98 39z" />
    <glyph glyph-name="plusminus" unicode="&#xb1;" horiz-adv-x="1139" 
d="M69 856h407v410h188v-410h406v-182h-406v-409h-188v409h-407v182zM69 182h1001v-182h-1001v182z" />
    <glyph glyph-name="twosuperior" unicode="&#xb2;" 
d="M675 831h-548v117l298 318q82 88 82 158q0 44 -30.5 69t-83.5 25q-58 0 -84 -25q-27 -25 -51 -103l-140 37q54 230 277 230q133 0 205 -79q57 -64 57 -156q0 -117 -89 -212l-226 -241h333v-138z" />
    <glyph glyph-name="threesuperior" unicode="&#xb3;" 
d="M380 1186h-66v136h66q121 0 121 98q0 45 -30.5 72t-80.5 27q-43 0 -71 -18.5t-63 -71.5l-128 67q51 86 112.5 123.5t148.5 37.5q131 0 204 -82q58 -64 58 -152q0 -95 -71 -160q89 -74 89 -188q0 -116 -82 -188q-83 -72 -204 -72q-221 0 -278 227l-2 10l147 37
q19 -76 49 -106q29 -29 86 -29q59 0 95.5 33.5t36.5 87.5q0 111 -137 111z" />
    <glyph glyph-name="acute" unicode="&#xb4;" horiz-adv-x="975" 
d="M594 1423l194 -104l-295 -297l-135 77z" />
    <glyph glyph-name="mu" unicode="&#xb5;" horiz-adv-x="1043" 
d="M927 908v-908h-204v61q-95 -89 -209 -89q-109 0 -195 89v-539h-204v1386h204v-477q0 -131 33 -191q44 -80 160 -80q57 0 106 24.5t71 64.5q34 61 34 205v454h204z" />
    <glyph glyph-name="paragraph" unicode="&#xb6;" horiz-adv-x="1317" 
d="M582 -478v902h-8q-118 0 -221 61q-105 62 -166 167q-64 110 -64 242q0 215 155 355q130 116 308 116h643v-176h-131v-1667h-184v1667h-148v-1667h-184z" />
    <glyph glyph-name="middot" unicode="&#xb7;" horiz-adv-x="497" 
d="M248 813q55 0 93 -37q38 -38 38 -92t-38 -92q-40 -38 -94 -38q-55 0 -92 39q-38 38 -38 93q0 52 39 90q37 37 92 37z" />
    <glyph glyph-name="cedilla" unicode="&#xb8;" horiz-adv-x="975" 
d="M307 -376l200 314l187 -81l-241 -306z" />
    <glyph glyph-name="onesuperior" unicode="&#xb9;" 
d="M505 1640v-809h-152v632l-104 -57l-73 120l208 114h121z" />
    <glyph glyph-name="ordmasculine" unicode="&#xba;" horiz-adv-x="708" 
d="M359 1393q132 0 220 -97q74 -80 74 -192q0 -128 -95 -214q-85 -76 -204 -76q-137 0 -225 97q-74 82 -74 195q0 126 96 211q82 76 208 76zM352 1261q-66 0 -107.5 -44t-41.5 -113q0 -78 49 -121q41 -37 102 -37q67 0 109 44t42 116q0 69 -42.5 112t-110.5 43z" />
    <glyph glyph-name="guillemotright" unicode="&#xbb;" horiz-adv-x="956" 
d="M559 42l-136 108l246 305l-246 313l136 107l335 -421zM226 42l-136 108l247 305l-247 313l137 107l334 -421z" />
    <glyph glyph-name="onequarter" unicode="&#xbc;" horiz-adv-x="1707" 
d="M320 38l784 1355l116 -67l-784 -1355zM904 167v124l356 544l125 -75l-300 -457h170v187h151v-187h97v-136h-97v-167h-151v167h-351zM438 1365v-808h-152v631l-104 -57l-73 120l208 114h121z" />
    <glyph glyph-name="onehalf" unicode="&#xbd;" horiz-adv-x="1707" 
d="M319 38l784 1355l116 -67l-784 -1355zM437 1365v-808h-152v631l-104 -57l-73 120l208 114h121zM1557 0h-548v117l298 318q82 88 82 158q0 44 -30.5 69t-82.5 25q-57 0 -85 -26q-27 -25 -51 -102l-140 37q53 230 278 230q134 0 204 -79q57 -65 57 -156q0 -118 -88 -212
l-226 -241h332v-138z" />
    <glyph glyph-name="threequarters" unicode="&#xbe;" horiz-adv-x="1707" 
d="M445 38l784 1355l116 -67l-784 -1355zM370 911h-66v136h66q121 0 121 98q0 45 -30.5 72t-80.5 27q-43 0 -71 -18.5t-63 -71.5l-128 67q53 86 114 123.5t148 37.5q130 0 203 -82q58 -64 58 -152q0 -96 -71 -161q89 -74 89 -188q0 -115 -82 -187q-83 -72 -203 -72
q-223 0 -279 227l-2 9l147 38q20 -77 48.5 -106t85.5 -29q60 0 96.5 33.5t36.5 86.5q0 112 -137 112zM983 167v124l357 544l125 -75l-300 -457h170v187h151v-187h97v-136h-97v-167h-151v167h-352z" />
    <glyph glyph-name="questiondown" unicode="&#xbf;" horiz-adv-x="882" 
d="M383 653h209v-141q0 -98 -24 -150q-25 -52 -101 -116l-86 -72q-116 -98 -116 -206q0 -78 54 -128q50 -46 142 -46q63 0 105.5 20t84.5 70q26 31 56 78l155 -127q-130 -240 -393 -240q-213 0 -323 123q-91 103 -91 250q0 94 30 156q42 86 143 181l96 90q45 42 52 58
q7 14 7 75v125zM488 1013q55 0 93 -38q37 -38 37 -94q0 -51 -38 -89q-40 -38 -93 -38q-54 0 -92 38q-39 38 -39 91q0 55 39 93q37 37 93 37z" />
    <glyph glyph-name="Agrave" unicode="&#xc0;" horiz-adv-x="1292" 
d="M938 352h-586l-129 -352h-223l515 1365h262l515 -1365h-224zM644 1145l-219 -595h440zM639 1431l-296 297l195 105l236 -324z" />
    <glyph glyph-name="Aacute" unicode="&#xc1;" horiz-adv-x="1292" 
d="M938 352h-586l-129 -352h-223l515 1365h262l515 -1365h-224zM644 1145l-219 -595h440zM748 1833l195 -105l-295 -297l-135 78z" />
    <glyph glyph-name="Acircumflex" unicode="&#xc2;" horiz-adv-x="1292" 
d="M938 352h-586l-129 -352h-223l515 1365h262l515 -1365h-224zM644 1145l-219 -595h440zM829 1432l-183 180l-184 -180l-153 77l267 292h140l266 -292z" />
    <glyph glyph-name="Atilde" unicode="&#xc3;" horiz-adv-x="1292" 
d="M938 352h-586l-129 -352h-223l515 1365h262l515 -1365h-224zM644 1145l-219 -595h440zM784 1754l169 -39q-18 -221 -188 -221q-76 0 -151 42q-47 26 -74 27q-22 1 -36 -78l-166 39q11 90 46 145q49 76 146 76q68 0 153 -46q44 -23 72 -23q21 0 29 78z" />
    <glyph glyph-name="Adieresis" unicode="&#xc4;" horiz-adv-x="1292" 
d="M938 352h-586l-129 -352h-223l515 1365h262l515 -1365h-224zM644 1145l-219 -595h440zM835 1749q53 0 93 -38q38 -38 38 -92t-38 -92q-40 -38 -94 -38q-56 0 -93 39q-38 38 -38 93q0 53 39 91q38 37 93 37zM457 1749q54 0 94 -38q38 -38 38 -92t-38 -92q-40 -38 -95 -38
q-54 0 -92 39q-38 38 -38 93q0 53 39 90q40 38 92 38z" />
    <glyph glyph-name="Aring" unicode="&#xc5;" horiz-adv-x="1292" 
d="M938 352h-586l-129 -352h-223l515 1365h262l515 -1365h-224zM644 1145l-219 -595h440zM645 1825q95 0 158 -69q53 -59 53 -136q0 -92 -68 -152q-60 -54 -142 -54q-87 0 -148 60q-62 62 -62 149q0 86 69 149q59 53 140 53zM645 1725q-44 0 -74.5 -31t-30.5 -76
q0 -41 32 -73q31 -31 74 -31q44 0 75 31t31 75t-31 74.5t-76 30.5z" />
    <glyph glyph-name="AE" unicode="&#xc6;" horiz-adv-x="1719" 
d="M884 0v352h-468l-180 -352h-237l711 1365h917v-196h-530v-378h471v-198h-471v-395h550v-198h-763zM518 550h366v619h-49z" />
    <glyph glyph-name="Ccedilla" unicode="&#xc7;" horiz-adv-x="1372" 
d="M1311 1151l-149 -144q-69 72 -126 112q-110 74 -250 74q-226 0 -368 -162q-130 -146 -130 -349q0 -233 166 -383q140 -127 331 -127q163 0 294 105q34 29 89 85l149 -145q-92 -92 -170 -142q-160 -103 -359 -103q-196 0 -363 96q-163 95 -257 259q-96 165 -96 355
q0 188 95 354q96 169 261 263q163 94 358 94q152 0 276 -57q126 -59 249 -185zM508 -376l200 314l187 -81l-242 -306z" />
    <glyph glyph-name="Egrave" unicode="&#xc8;" horiz-adv-x="984" 
d="M892 1365v-196h-529v-378h470v-198h-470v-395h549v-198h-762v1365h742zM541 1431l-295 297l195 105l235 -324z" />
    <glyph glyph-name="Eacute" unicode="&#xc9;" horiz-adv-x="984" 
d="M892 1365v-196h-529v-378h470v-198h-470v-395h549v-198h-762v1365h742zM623 1833l195 -105l-296 -297l-135 78z" />
    <glyph glyph-name="Ecircumflex" unicode="&#xca;" horiz-adv-x="984" 
d="M892 1365v-196h-529v-378h470v-198h-470v-395h549v-198h-762v1365h742zM716 1432l-184 180l-184 -180l-153 77l267 292h140l266 -292z" />
    <glyph glyph-name="Edieresis" unicode="&#xcb;" horiz-adv-x="984" 
d="M892 1365v-196h-529v-378h470v-198h-470v-395h549v-198h-762v1365h742zM717 1749q54 0 94 -38q38 -38 38 -92t-38 -92q-40 -38 -93 -38q-56 0 -94 38.5t-38 93.5q0 53 39 90q40 38 92 38zM341 1749q54 0 94 -38q38 -38 38 -92t-38 -92q-40 -38 -93 -38q-56 0 -94 38.5
t-38 93.5q0 53 39 90q38 38 92 38z" />
    <glyph glyph-name="Igrave" unicode="&#xcc;" horiz-adv-x="513" 
d="M150 1365h213v-1365h-213v1365zM246 1431l-295 297l195 105l235 -324z" />
    <glyph glyph-name="Iacute" unicode="&#xcd;" horiz-adv-x="513" 
d="M150 1365h213v-1365h-213v1365zM367 1833l194 -105l-295 -297l-135 78z" />
    <glyph glyph-name="Icircumflex" unicode="&#xce;" horiz-adv-x="513" 
d="M150 1365h213v-1365h-213v1365zM440 1432l-183 180l-184 -180l-153 77l267 292h139l267 -292z" />
    <glyph glyph-name="Idieresis" unicode="&#xcf;" horiz-adv-x="513" 
d="M151 1365h213v-1365h-213v1365zM406 1749q53 0 93 -38q38 -38 38 -92t-38 -92q-40 -38 -94 -38q-55 0 -93 39q-38 38 -38 93q0 53 39 90q40 38 93 38zM108 1749q54 0 94 -38q38 -38 38 -92t-38 -92q-40 -38 -94 -38q-56 0 -93 39q-38 38 -38 93q0 53 39 91q38 37 92 37z
" />
    <glyph glyph-name="Eth" unicode="&#xd0;" horiz-adv-x="1293" 
d="M175 642h-131v189h131v534h303q252 0 430 -103q148 -86 225 -222q88 -154 88 -355q0 -284 -164 -463q-204 -222 -579 -222h-303v642zM388 1167v-336h305v-189h-305v-444h96q177 0 302 71q221 128 221 415q0 284 -221 412q-125 71 -302 71h-96z" />
    <glyph glyph-name="Ntilde" unicode="&#xd1;" horiz-adv-x="1450" 
d="M363 0h-213v1365h187l751 -1004v1004h212v-1365h-187l-750 1004v-1004zM869 1754l169 -39q-17 -221 -188 -221q-76 0 -151 42q-47 26 -75 27q-21 2 -35 -78l-166 39q23 221 192 221q68 0 153 -46q44 -23 72 -23q22 0 29 78z" />
    <glyph glyph-name="Ograve" unicode="&#xd2;" horiz-adv-x="1562" 
d="M780 1393q190 0 350 -94q166 -97 263 -262q96 -165 96 -355t-97 -356q-94 -163 -261 -259q-166 -95 -348 -95q-270 0 -473 182q-238 211 -238 537q0 185 96 346q101 168 263 262q163 94 349 94zM777 1193q-212 0 -358 -164q-131 -146 -131 -355q0 -167 100 -300
q77 -104 195 -158q97 -44 197 -44q124 0 240 66t185 184q68 119 68 260q0 230 -168 385q-138 126 -328 126zM776 1431l-296 297l195 105l236 -324z" />
    <glyph glyph-name="Oacute" unicode="&#xd3;" horiz-adv-x="1562" 
d="M780 1393q190 0 350 -94q166 -97 263 -262q96 -165 96 -355t-97 -356q-94 -163 -261 -259q-166 -95 -348 -95q-270 0 -473 182q-238 211 -238 537q0 185 96 346q101 168 263 262q163 94 349 94zM777 1193q-212 0 -358 -164q-131 -146 -131 -355q0 -167 100 -300
q77 -104 195 -158q97 -44 197 -44q124 0 240 66t185 184q68 119 68 260q0 230 -168 385q-138 126 -328 126zM885 1833l195 -105l-295 -297l-135 78z" />
    <glyph glyph-name="Ocircumflex" unicode="&#xd4;" horiz-adv-x="1562" 
d="M780 1393q190 0 350 -94q166 -97 263 -262q96 -165 96 -355t-97 -356q-94 -163 -261 -259q-166 -95 -348 -95q-270 0 -473 182q-238 211 -238 537q0 185 96 346q101 168 263 262q163 94 349 94zM777 1193q-212 0 -358 -164q-131 -146 -131 -355q0 -167 100 -300
q77 -104 195 -158q97 -44 197 -44q124 0 240 66t185 184q68 119 68 260q0 230 -168 385q-138 126 -328 126zM964 1432l-184 180l-183 -180l-153 77l267 292h139l267 -292z" />
    <glyph glyph-name="Otilde" unicode="&#xd5;" horiz-adv-x="1562" 
d="M780 1393q190 0 350 -94q166 -97 263 -262q96 -165 96 -355t-97 -356q-94 -163 -261 -259q-166 -95 -348 -95q-270 0 -473 182q-238 211 -238 537q0 185 96 346q101 168 263 262q163 94 349 94zM777 1193q-212 0 -358 -164q-131 -146 -131 -355q0 -167 100 -300
q77 -104 195 -158q97 -44 197 -44q124 0 240 66t185 184q68 119 68 260q0 230 -168 385q-138 126 -328 126zM918 1754l170 -39q-17 -221 -188 -221q-76 0 -151 42q-49 27 -75 27q-13 0 -19.5 -14.5t-15.5 -63.5l-166 39q9 89 45 145q49 76 146 76q69 0 154 -46
q44 -23 72 -23q20 0 28 78z" />
    <glyph glyph-name="Odieresis" unicode="&#xd6;" horiz-adv-x="1562" 
d="M780 1393q190 0 350 -94q166 -97 263 -262q96 -165 96 -355t-97 -356q-94 -163 -261 -259q-166 -95 -348 -95q-270 0 -473 182q-238 211 -238 537q0 185 96 346q101 168 263 262q163 94 349 94zM777 1193q-212 0 -358 -164q-131 -146 -131 -355q0 -167 100 -300
q77 -104 195 -158q97 -44 197 -44q124 0 240 66t185 184q68 119 68 260q0 230 -168 385q-138 126 -328 126zM969 1749q53 0 93 -38q38 -38 38 -92t-38 -92q-40 -38 -94 -38q-56 0 -93 39q-38 38 -38 93q0 53 39 90q40 38 93 38zM592 1749q54 0 94 -38q38 -38 38 -92t-38 -92
q-40 -38 -93 -38q-55 0 -93.5 38.5t-38.5 93.5q0 53 39 91q37 37 92 37z" />
    <glyph glyph-name="multiply" unicode="&#xd7;" horiz-adv-x="1139" 
d="M150 350l289 289l-289 289l130 130l289 -289l289 289l130 -130l-289 -289l289 -289l-130 -130l-289 289l-289 -289z" />
    <glyph glyph-name="Oslash" unicode="&#xd8;" horiz-adv-x="1577" 
d="M97 108l136 136q-153 192 -153 437q0 189 96 356q95 165 263 262q163 94 350 94q246 0 440 -157l134 134l117 -113l-137 -136q154 -193 154 -438q0 -191 -97 -357q-95 -165 -261 -259q-166 -95 -351 -95q-245 0 -441 157l-134 -134zM383 392l701 699q-136 102 -292 102
q-220 0 -365 -163q-131 -148 -131 -354q0 -148 87 -284zM1194 973l-700 -698q133 -103 293 -103q126 0 241 66q116 66 185 184q68 119 68 264q0 150 -87 287z" />
    <glyph glyph-name="Ugrave" unicode="&#xd9;" horiz-adv-x="1307" 
d="M150 484v881h213v-842q0 -88 8 -138q8 -49 28 -84q33 -56 104 -92q70 -37 150 -37q117 0 205 73q51 42 68 98q17 57 17 180v842h213v-881q0 -171 -59 -272q-62 -105 -172 -167q-124 -73 -272 -73q-204 0 -351 129q-82 70 -117 160t-35 223zM663 1431l-296 297l195 105
l236 -324z" />
    <glyph glyph-name="Uacute" unicode="&#xda;" horiz-adv-x="1307" 
d="M150 484v881h213v-842q0 -88 8 -138q8 -49 28 -84q33 -56 104 -92q70 -37 150 -37q117 0 205 73q51 42 68 98q17 57 17 180v842h213v-881q0 -171 -59 -272q-62 -105 -172 -167q-124 -73 -272 -73q-204 0 -351 129q-82 70 -117 160t-35 223zM744 1833l195 -105l-295 -297
l-135 78z" />
    <glyph glyph-name="Ucircumflex" unicode="&#xdb;" horiz-adv-x="1307" 
d="M150 484v881h213v-842q0 -88 8 -138q8 -49 28 -84q33 -56 104 -92q70 -37 150 -37q117 0 205 73q51 42 68 98q17 57 17 180v842h213v-881q0 -171 -59 -272q-62 -105 -172 -167q-124 -73 -272 -73q-204 0 -351 129q-82 70 -117 160t-35 223zM837 1432l-184 180l-184 -180
l-152 77l267 292h139l267 -292z" />
    <glyph glyph-name="Udieresis" unicode="&#xdc;" horiz-adv-x="1307" 
d="M150 484v881h213v-842q0 -88 8 -138q8 -49 28 -84q33 -56 104 -92q70 -37 150 -37q117 0 205 73q51 42 68 98q17 57 17 180v842h213v-881q0 -171 -59 -272q-62 -105 -172 -167q-124 -73 -272 -73q-204 0 -351 129q-82 70 -117 160t-35 223zM842 1749q53 0 93 -38
q38 -38 38 -92t-38 -92q-40 -38 -94 -38q-55 0 -93 39q-38 38 -38 93q0 53 39 90q40 38 93 38zM465 1749q54 0 94 -38q38 -38 38 -92t-38 -92q-40 -38 -95 -38q-54 0 -92 39q-38 38 -38 93q0 53 39 90q40 38 92 38z" />
    <glyph glyph-name="Yacute" unicode="&#xdd;" horiz-adv-x="1083" 
d="M862 1365h235l-449 -798v-567h-213v567l-449 798h236l320 -586zM632 1833l195 -105l-296 -297l-135 78z" />
    <glyph glyph-name="Thorn" unicode="&#xde;" horiz-adv-x="966" 
d="M363 1365v-192h90q189 0 290 -58q88 -49 138 -139q58 -100 58 -220q0 -168 -104 -287q-65 -71 -152 -102t-230 -31h-90v-336h-213v1365h213zM363 979v-450h107q150 0 206 66q54 63 54 161q0 138 -97 192q-55 31 -163 31h-107z" />
    <glyph glyph-name="germandbls" unicode="&#xdf;" horiz-adv-x="1071" 
d="M319 0h-204v1008q0 226 185 334q88 51 194 51q191 0 300 -121q95 -106 95 -261t-99 -253q63 -38 94 -69q49 -49 78 -124.5t29 -155.5q0 -179 -128 -298q-121 -111 -332 -111h-121v193h127q127 0 192 75q56 64 56 149q0 96 -67 160q-58 56 -185 56h-31v187h31q76 0 113 43
q43 50 43 142q0 109 -60 161q-50 44 -125 44q-87 0 -138 -58q-47 -55 -47 -144v-1008z" />
    <glyph glyph-name="agrave" unicode="&#xe0;" horiz-adv-x="1117" 
d="M1001 908v-908h-204v79q-139 -107 -280 -107q-113 0 -219 61q-113 65 -176 176q-65 113 -65 246q0 219 159 361q135 120 301 120q140 0 280 -107v79h204zM529 751q-114 0 -194 -86q-72 -78 -72 -210q0 -151 92 -232q75 -66 178 -66q119 0 195 84q72 79 72 216
q0 150 -91 229q-74 65 -180 65zM524 1022l-295 297l195 104l236 -324z" />
    <glyph glyph-name="aacute" unicode="&#xe1;" horiz-adv-x="1117" 
d="M1001 908v-908h-204v79q-139 -107 -280 -107q-113 0 -219 61q-113 65 -176 176q-65 113 -65 246q0 219 159 361q135 120 301 120q140 0 280 -107v79h204zM529 751q-114 0 -194 -86q-72 -78 -72 -210q0 -151 92 -232q75 -66 178 -66q119 0 195 84q72 79 72 216
q0 150 -91 229q-74 65 -180 65zM647 1423l195 -104l-295 -297l-135 77z" />
    <glyph glyph-name="acircumflex" unicode="&#xe2;" horiz-adv-x="1117" 
d="M1001 908v-908h-204v79q-139 -107 -280 -107q-113 0 -219 61q-113 65 -176 176q-65 113 -65 246q0 219 159 361q135 120 301 120q140 0 280 -107v79h204zM529 751q-114 0 -194 -86q-72 -78 -72 -210q0 -151 92 -232q75 -66 178 -66q119 0 195 84q72 79 72 216
q0 150 -91 229q-74 65 -180 65zM713 1023l-184 180l-184 -180l-152 76l267 293h139l267 -293z" />
    <glyph glyph-name="atilde" unicode="&#xe3;" horiz-adv-x="1117" 
d="M1001 908v-908h-204v79q-139 -107 -280 -107q-113 0 -219 61q-113 65 -176 176q-65 113 -65 246q0 219 159 361q135 120 301 120q140 0 280 -107v79h204zM529 751q-114 0 -194 -86q-72 -78 -72 -210q0 -151 92 -232q75 -66 178 -66q119 0 195 84q72 79 72 216
q0 150 -91 229q-74 65 -180 65zM667 1344l169 -39q-18 -221 -188 -221q-76 0 -151 42q-47 26 -74 27q-11 1 -19.5 -18.5t-15.5 -59.5l-166 39q9 89 45 145q49 76 146 76q68 0 153 -46q44 -23 72 -23q22 0 29 78z" />
    <glyph glyph-name="adieresis" unicode="&#xe4;" horiz-adv-x="1117" 
d="M1001 908v-908h-204v79q-139 -107 -280 -107q-113 0 -219 61q-113 65 -176 176q-65 113 -65 246q0 219 159 361q135 120 301 120q140 0 280 -107v79h204zM529 751q-114 0 -194 -86q-72 -78 -72 -210q0 -151 92 -232q75 -66 178 -66q119 0 195 84q72 79 72 216
q0 150 -91 229q-74 65 -180 65zM735 1344q53 0 93 -38q38 -38 38 -92t-38 -92q-40 -38 -94 -38q-56 0 -93 39q-38 38 -38 93q0 52 39 90q40 38 93 38zM357 1344q54 0 94 -38q38 -38 38 -92t-38 -92q-40 -38 -93 -38q-56 0 -94 38t-38 94q0 52 39 90q38 38 92 38z" />
    <glyph glyph-name="aring" unicode="&#xe5;" horiz-adv-x="1117" 
d="M1001 908v-908h-204v79q-139 -107 -280 -107q-113 0 -219 61q-113 65 -176 176q-65 113 -65 246q0 219 159 361q135 120 301 120q140 0 280 -107v79h204zM529 751q-114 0 -194 -86q-72 -78 -72 -210q0 -151 92 -232q75 -66 178 -66q119 0 195 84q72 79 72 216
q0 150 -91 229q-74 65 -180 65zM552 1416q95 0 158 -69q53 -59 53 -137q0 -90 -68 -152q-60 -54 -144 -54q-94 0 -155 69q-53 59 -53 140q0 86 69 149q59 54 140 54zM552 1316q-43 0 -74 -31.5t-31 -75.5q0 -43 31.5 -74t74.5 -31q44 0 75 31t31 75t-31 75t-76 31z" />
    <glyph glyph-name="ae" unicode="&#xe6;" horiz-adv-x="1674" 
d="M1432 303l175 -73q-151 -258 -426 -258q-197 0 -332 144q-102 -144 -361 -144q-168 0 -283 65q-148 85 -148 252q0 165 141 247q100 58 259 58h250q-36 162 -232 162q-147 0 -283 -104l-104 133q104 83 196 117t212 34t211 -39t135 -110q137 149 328 149q198 0 322 -141
q124 -140 124 -366q0 -29 -1 -53h-686q15 -74 52 -124q71 -95 203 -95q71 0 132.5 31t96.5 86zM713 303v133h-228q-224 0 -224 -144q0 -139 227 -139q225 0 225 150zM929 534h483q-19 83 -64 139q-66 82 -176 82q-92 0 -157.5 -59t-85.5 -162z" />
    <glyph glyph-name="ccedilla" unicode="&#xe7;" horiz-adv-x="947" 
d="M910 759l-137 -133q-68 74 -116 99q-50 26 -119 26q-126 0 -203 -86q-72 -78 -72 -210q0 -150 91 -231q74 -67 184 -67q72 0 126 30q54 29 115 102l137 -133q-69 -75 -125 -111q-112 -73 -254 -73q-219 0 -358 156q-122 137 -122 327q0 217 156 360q133 121 324 121
q108 0 195.5 -41.5t177.5 -135.5zM261 -376l200 314l187 -81l-241 -306z" />
    <glyph glyph-name="egrave" unicode="&#xe8;" horiz-adv-x="1012" 
d="M953 376h-686q15 -72 53 -124q71 -95 203 -95q71 0 132 31t97 86l18 29l176 -73q-153 -258 -424 -258q-210 0 -343 151q-122 140 -122 332q0 225 156 367q125 115 296 115q194 0 323 -144q67 -75 98 -185q24 -84 24 -174q0 -29 -1 -58zM267 534h484q-23 88 -65 140
q-64 82 -175 82q-93 0 -157.5 -58.5t-86.5 -163.5zM512 1022l-296 297l195 104l236 -324z" />
    <glyph glyph-name="eacute" unicode="&#xe9;" horiz-adv-x="1012" 
d="M953 376h-686q15 -72 53 -124q71 -95 203 -95q71 0 132 31t97 86l18 29l176 -73q-153 -258 -424 -258q-210 0 -343 151q-122 140 -122 332q0 225 156 367q125 115 296 115q194 0 323 -144q67 -75 98 -185q24 -84 24 -174q0 -29 -1 -58zM267 534h484q-23 88 -65 140
q-64 82 -175 82q-93 0 -157.5 -58.5t-86.5 -163.5zM601 1423l195 -104l-296 -297l-135 77z" />
    <glyph glyph-name="ecircumflex" unicode="&#xea;" horiz-adv-x="1012" 
d="M953 376h-686q15 -72 53 -124q71 -95 203 -95q71 0 132 31t97 86l18 29l176 -73q-153 -258 -424 -258q-210 0 -343 151q-122 140 -122 332q0 225 156 367q125 115 296 115q194 0 323 -144q67 -75 98 -185q24 -84 24 -174q0 -29 -1 -58zM267 534h484q-23 88 -65 140
q-64 82 -175 82q-93 0 -157.5 -58.5t-86.5 -163.5zM689 1023l-184 180l-184 -180l-152 76l267 293h139l267 -293z" />
    <glyph glyph-name="edieresis" unicode="&#xeb;" horiz-adv-x="1012" 
d="M953 376h-686q15 -72 53 -124q71 -95 203 -95q71 0 132 31t97 86l18 29l176 -73q-153 -258 -424 -258q-210 0 -343 151q-122 140 -122 332q0 225 156 367q125 115 296 115q194 0 323 -144q67 -75 98 -185q24 -84 24 -174q0 -29 -1 -58zM267 534h484q-23 88 -65 140
q-64 82 -175 82q-93 0 -157.5 -58.5t-86.5 -163.5zM694 1344q53 0 93 -38q38 -38 38 -92t-38 -92q-40 -38 -93 -38q-56 0 -94 38t-38 94q0 52 39 90q40 38 93 38zM317 1344q54 0 94 -38q38 -38 38 -92t-38 -92q-40 -38 -93 -38q-56 0 -94 38t-38 94q0 52 39 90q40 38 92 38z
" />
    <glyph glyph-name="igrave" unicode="&#xec;" horiz-adv-x="436" 
d="M116 908h204v-908h-204v908zM201 1022l-295 297l195 104l235 -324z" />
    <glyph glyph-name="iacute" unicode="&#xed;" horiz-adv-x="436" 
d="M116 908h204v-908h-204v908zM336 1423l194 -104l-295 -297l-135 77z" />
    <glyph glyph-name="icircumflex" unicode="&#xee;" horiz-adv-x="436" 
d="M116 908h204v-908h-204v908zM402 1023l-183 180l-184 -180l-153 76l267 293h139l267 -293z" />
    <glyph glyph-name="idieresis" unicode="&#xef;" horiz-adv-x="436" 
d="M116 908h204v-908h-204v908zM367 1344q53 0 93 -38q38 -38 38 -92t-38 -92q-40 -38 -94 -38q-56 0 -93 39q-38 38 -38 93q0 52 39 90q40 38 93 38zM69 1344q54 0 94 -38q38 -38 38 -92t-38 -92q-40 -38 -93 -38q-56 0 -94 38t-38 94q0 52 39 90q40 38 92 38z" />
    <glyph glyph-name="eth" unicode="&#xf0;" horiz-adv-x="1070" 
d="M754 881q-8 13 -10 18q-60 122 -105 184q-48 67 -110 120l-216 -111l-129 118l189 97q-117 59 -237 93l87 129q181 -48 327 -132l224 112l121 -116l-204 -106q126 -129 207 -289q53 -108 84 -244q31 -134 31 -269q0 -253 -158 -393q-137 -120 -320 -120q-214 0 -354 155
q-124 136 -124 327q0 219 157 361q133 121 319 121q120 0 221 -55zM530 751q-115 0 -195 -86q-72 -78 -72 -210q0 -149 92 -232q75 -66 179 -66q122 0 200 86q72 79 72 214q0 146 -91 227q-74 67 -185 67z" />
    <glyph glyph-name="ntilde" unicode="&#xf1;" horiz-adv-x="1043" 
d="M115 0v908h204v-66q97 94 231 94q148 0 254 -94q65 -58 94 -140.5t29 -212.5v-489h-204v473q0 133 -33 195q-44 80 -159 80q-57 0 -106 -24.5t-72 -64.5q-34 -61 -34 -205v-454h-204zM662 1344l170 -39q-17 -221 -188 -221q-76 0 -151 42q-49 27 -75 27
q-13 0 -19.5 -14.5t-15.5 -63.5l-166 39q9 90 46 145q49 76 146 76q68 0 153 -46q44 -23 72 -23q20 0 28 78z" />
    <glyph glyph-name="ograve" unicode="&#xf2;" horiz-adv-x="1070" 
d="M543 936q207 0 346 -156q123 -136 123 -325q0 -221 -159 -364q-134 -119 -318 -119q-214 0 -354 155q-124 136 -124 331q0 215 157 357q133 121 329 121zM530 751q-115 0 -195 -86q-72 -78 -72 -210q0 -149 92 -232q75 -66 179 -66q122 0 200 86q72 79 72 214
q0 146 -91 227q-74 67 -185 67zM530 1022l-295 297l195 104l235 -324z" />
    <glyph glyph-name="oacute" unicode="&#xf3;" horiz-adv-x="1070" 
d="M543 936q207 0 346 -156q123 -136 123 -325q0 -221 -159 -364q-134 -119 -318 -119q-214 0 -354 155q-124 136 -124 331q0 215 157 357q133 121 329 121zM530 751q-115 0 -195 -86q-72 -78 -72 -210q0 -149 92 -232q75 -66 179 -66q122 0 200 86q72 79 72 214
q0 146 -91 227q-74 67 -185 67zM640 1423l195 -104l-296 -297l-135 77z" />
    <glyph glyph-name="ocircumflex" unicode="&#xf4;" horiz-adv-x="1070" 
d="M542 936q208 0 347 -156q123 -136 123 -325q0 -221 -159 -364q-134 -119 -318 -119q-214 0 -354 155q-124 136 -124 331q0 215 157 357q133 121 328 121zM532 751q-74 0 -139 -38q-130 -79 -130 -258q0 -150 92 -231q74 -67 179 -67q122 0 200 86q72 79 72 216
q0 144 -91 225q-74 67 -183 67zM718 1023l-183 180l-184 -180l-153 76l267 293h139l267 -293z" />
    <glyph glyph-name="otilde" unicode="&#xf5;" horiz-adv-x="1070" 
d="M543 936q207 0 346 -156q123 -136 123 -325q0 -221 -159 -364q-134 -119 -318 -119q-214 0 -354 155q-124 136 -124 331q0 215 157 357q133 121 329 121zM530 751q-115 0 -195 -86q-72 -78 -72 -210q0 -149 92 -232q75 -66 179 -66q122 0 200 86q72 79 72 214
q0 146 -91 227q-74 67 -185 67zM672 1344l170 -39q-17 -221 -188 -221q-76 0 -151 42q-47 26 -75 27q-21 2 -35 -78l-166 39q9 89 45 145q49 76 146 76q68 0 154 -46q44 -23 72 -23q20 0 28 78z" />
    <glyph glyph-name="odieresis" unicode="&#xf6;" horiz-adv-x="1070" 
d="M543 936q207 0 346 -156q123 -136 123 -325q0 -221 -159 -364q-134 -119 -318 -119q-214 0 -354 155q-124 136 -124 331q0 215 157 357q133 121 329 121zM530 751q-115 0 -195 -86q-72 -78 -72 -210q0 -149 92 -232q75 -66 179 -66q122 0 200 86q72 79 72 214
q0 146 -91 227q-74 67 -185 67zM721 1344q53 0 93 -38q38 -38 38 -92t-38 -92q-40 -38 -93 -38q-55 0 -93 39q-39 37 -39 93q0 52 39 90q40 38 93 38zM344 1344q54 0 94 -38q38 -38 38 -92t-38 -92q-40 -38 -95 -38t-92 39q-38 38 -38 93q0 54 39 91q38 37 92 37z" />
    <glyph glyph-name="divide" unicode="&#xf7;" horiz-adv-x="1139" 
d="M103 730h933v-183h-933v183zM571 1134q55 0 95 -40t40 -96q0 -57 -40 -97t-97 -40q-55 0 -96 41q-40 40 -40 96t41 97q40 39 97 39zM571 418q55 0 95 -40t40 -96q0 -57 -40 -97t-97 -40q-55 0 -96 41q-40 40 -40 96t41 97q40 39 97 39z" />
    <glyph glyph-name="oslash" unicode="&#xf8;" horiz-adv-x="1097" 
d="M174 -5l-103 100l85 82q-85 127 -85 275q0 222 159 365q134 119 320 119q166 0 293 -100l80 77l103 -100l-84 -81q84 -123 84 -277q0 -221 -159 -364q-134 -119 -321 -119q-159 0 -292 100zM794 591l-401 -387q67 -47 155 -47q123 0 199 85q73 79 73 215q0 74 -26 134z
M303 317l402 387q-68 47 -155 47q-124 0 -201 -86q-72 -79 -72 -211q0 -70 26 -137z" />
    <glyph glyph-name="ugrave" unicode="&#xf9;" horiz-adv-x="1043" 
d="M927 908v-908h-204v66q-97 -94 -231 -94q-148 0 -254 94q-66 58 -94.5 140.5t-28.5 212.5v489h204v-473q0 -135 33 -195q44 -80 160 -80q57 0 106 24.5t71 64.5q34 61 34 205v454h204zM520 1022l-295 297l195 104l235 -324z" />
    <glyph glyph-name="uacute" unicode="&#xfa;" horiz-adv-x="1043" 
d="M927 908v-908h-204v66q-97 -94 -231 -94q-148 0 -254 94q-66 58 -94.5 140.5t-28.5 212.5v489h204v-473q0 -135 33 -195q44 -80 160 -80q57 0 106 24.5t71 64.5q34 61 34 205v454h204zM616 1423l195 -104l-295 -297l-135 77z" />
    <glyph glyph-name="ucircumflex" unicode="&#xfb;" horiz-adv-x="1043" 
d="M927 908v-908h-204v66q-97 -94 -231 -94q-148 0 -254 94q-66 58 -94.5 140.5t-28.5 212.5v489h204v-473q0 -135 33 -195q44 -80 160 -80q57 0 106 24.5t71 64.5q34 61 34 205v454h204zM705 1023l-184 180l-183 -180l-153 76l267 293h139l267 -293z" />
    <glyph glyph-name="udieresis" unicode="&#xfc;" horiz-adv-x="1043" 
d="M927 908v-908h-204v66q-97 -94 -231 -94q-148 0 -254 94q-66 58 -94.5 140.5t-28.5 212.5v489h204v-473q0 -135 33 -195q44 -80 160 -80q57 0 106 24.5t71 64.5q34 61 34 205v454h204zM710 1344q53 0 93 -38q38 -38 38 -92t-38 -92q-40 -38 -94 -38q-55 0 -93 39
q-38 38 -38 93q0 54 39 91q38 37 93 37zM333 1344q54 0 94 -38q38 -38 38 -92t-38 -92q-40 -38 -93 -38q-56 0 -94 38t-38 94q0 52 39 90q40 38 92 38z" />
    <glyph glyph-name="yacute" unicode="&#xfd;" horiz-adv-x="948" 
d="M574 1423l195 -104l-295 -297l-135 77zM346 -478h-214l228 521l-372 865h221l261 -617l270 617h220z" />
    <glyph glyph-name="thorn" unicode="&#xfe;" horiz-adv-x="1119" 
d="M117 -478v1843h204v-536q139 107 280 107q113 0 219 -61q113 -65 176 -176q65 -113 65 -246q0 -219 -159 -361q-135 -120 -301 -120q-140 0 -280 107v-557h-204zM585 751q-115 0 -192 -83q-73 -79 -73 -216q0 -150 91 -231q71 -64 176 -64q73 0 138 38q130 79 130 258
q0 151 -92 232q-75 66 -178 66z" />
    <glyph glyph-name="ydieresis" unicode="&#xff;" horiz-adv-x="948" 
d="M663 1344q53 0 93 -38q38 -38 38 -92t-38 -92q-40 -38 -94 -38q-56 0 -93 39q-38 38 -38 93q0 52 39 90q40 38 93 38zM285 1344q54 0 94 -38q38 -38 38 -92t-38 -92q-40 -38 -93 -38q-56 0 -94 38t-38 94q0 52 39 90q38 38 92 38zM346 -478h-214l228 521l-372 865h221
l261 -617l270 617h220z" />
    <glyph glyph-name="Amacron" unicode="&#x100;" horiz-adv-x="1292" 
d="M938 352h-586l-129 -352h-223l515 1365h262l515 -1365h-224zM644 1145l-219 -595h440zM340 1528v183h612v-183h-612z" />
    <glyph glyph-name="amacron" unicode="&#x101;" horiz-adv-x="1117" 
d="M1001 908v-908h-204v79q-139 -107 -280 -107q-113 0 -219 61q-113 65 -176 176q-65 113 -65 246q0 219 159 361q135 120 301 120q140 0 280 -107v79h204zM529 751q-114 0 -194 -86q-72 -78 -72 -210q0 -151 92 -232q75 -66 178 -66q119 0 195 84q72 79 72 216
q0 150 -91 229q-74 65 -180 65zM247 1118v183h613v-183h-613z" />
    <glyph glyph-name="Abreve" unicode="&#x102;" horiz-adv-x="1292" 
d="M938 352h-586l-129 -352h-223l515 1365h262l515 -1365h-224zM644 1145l-219 -595h440zM348 1758l177 15q3 -74 13 -94q31 -67 104 -67t106 71q10 18 19 89l177 -14q-12 -104 -38 -154q-84 -166 -263 -166q-133 0 -218 93q-45 49 -59 94q-17 45 -18 133z" />
    <glyph glyph-name="abreve" unicode="&#x103;" horiz-adv-x="1117" 
d="M1001 908v-908h-204v79q-139 -107 -280 -107q-113 0 -219 61q-113 65 -176 176q-65 113 -65 246q0 219 159 361q135 120 301 120q140 0 280 -107v79h204zM529 751q-114 0 -194 -86q-72 -78 -72 -210q0 -151 92 -232q75 -66 178 -66q119 0 195 84q72 79 72 216
q0 150 -91 229q-74 65 -180 65zM235 1349l177 14q5 -75 14 -94q31 -67 103 -67t107 71q9 19 18 90l177 -15q-12 -106 -37 -154q-85 -166 -264 -166q-132 0 -218 93q-45 49 -59 94q-16 45 -18 134z" />
    <glyph glyph-name="Aogonek" unicode="&#x104;" horiz-adv-x="1292" 
d="M0 0l515 1365h262l515 -1365q-2 -2 -5.5 -6.5t-4.5 -6.5q-64 -79 -64 -121q0 -29 36 -29t96 22l60 -152q-102 -39 -173 -39q-99 0 -159 67q-46 49 -46 120q0 68 55 145h-19l-130 352h-586l-129 -352h-223zM644 1145l-219 -595h440z" />
    <glyph glyph-name="aogonek" unicode="&#x105;" horiz-adv-x="1117" 
d="M797 0v79q-139 -107 -280 -107q-113 0 -219 61q-113 65 -176 176q-65 113 -65 246q0 219 159 361q135 120 301 120q140 0 280 -107v79h204v-908q-9 -10 -12 -16q-61 -76 -61 -118q0 -29 36 -29q35 0 95 22l60 -152q-102 -39 -172 -39q-99 0 -159 67q-46 50 -46 120
q0 68 55 145zM529 751q-114 0 -194 -86q-72 -78 -72 -210q0 -151 92 -232q75 -66 178 -66q119 0 195 84q72 79 72 216q0 150 -91 229q-74 65 -180 65z" />
    <glyph glyph-name="Cacute" unicode="&#x106;" horiz-adv-x="1372" 
d="M1311 1151l-149 -144q-69 72 -126 112q-110 74 -250 74q-226 0 -368 -162q-130 -146 -130 -349q0 -233 166 -383q140 -127 331 -127q163 0 294 105q34 29 89 85l149 -145q-92 -92 -170 -142q-160 -103 -359 -103q-196 0 -363 96q-163 95 -257 259q-96 165 -96 355
q0 188 95 354q96 169 261 263q163 94 358 94q152 0 276 -57q126 -59 249 -185zM903 1833l195 -105l-296 -297l-135 78z" />
    <glyph glyph-name="cacute" unicode="&#x107;" horiz-adv-x="947" 
d="M910 759l-137 -133q-68 74 -116 99q-50 26 -119 26q-126 0 -203 -86q-72 -78 -72 -210q0 -150 91 -231q74 -67 184 -67q72 0 126 30q54 29 115 102l137 -133q-69 -75 -125 -111q-112 -73 -254 -73q-219 0 -358 156q-122 137 -122 327q0 217 156 360q133 121 324 121
q108 0 195.5 -41.5t177.5 -135.5zM615 1423l195 -104l-296 -297l-135 77z" />
    <glyph glyph-name="Ccircumflex" unicode="&#x108;" horiz-adv-x="1372" 
d="M1311 1151l-149 -144q-69 72 -126 112q-110 74 -250 74q-226 0 -368 -162q-130 -146 -130 -349q0 -233 166 -383q140 -127 331 -127q163 0 294 105q34 29 89 85l149 -145q-92 -92 -170 -142q-160 -103 -359 -103q-196 0 -363 96q-163 95 -257 259q-96 165 -96 355
q0 188 95 354q96 169 261 263q163 94 358 94q152 0 276 -57q126 -59 249 -185zM947 1432l-183 180l-184 -180l-153 77l267 292h140l266 -292z" />
    <glyph glyph-name="ccircumflex" unicode="&#x109;" horiz-adv-x="947" 
d="M910 759l-137 -133q-68 74 -116 99q-50 26 -119 26q-126 0 -203 -86q-72 -78 -72 -210q0 -150 91 -231q74 -67 184 -67q72 0 126 30q54 29 115 102l137 -133q-69 -75 -125 -111q-112 -73 -254 -73q-219 0 -358 156q-122 137 -122 327q0 217 156 360q133 121 324 121
q108 0 195.5 -41.5t177.5 -135.5zM698 1023l-184 180l-184 -180l-153 76l267 293h140l267 -293z" />
    <glyph glyph-name="Cdotaccent" unicode="&#x10a;" horiz-adv-x="1372" 
d="M1311 1151l-149 -144q-69 72 -126 112q-110 74 -250 74q-226 0 -368 -162q-130 -146 -130 -349q0 -233 166 -383q140 -127 331 -127q163 0 294 105q34 29 89 85l149 -145q-92 -92 -170 -142q-160 -103 -359 -103q-196 0 -363 96q-163 95 -257 259q-96 165 -96 355
q0 188 95 354q96 169 261 263q163 94 358 94q152 0 276 -57q126 -59 249 -185zM781 1749q54 0 94 -38q38 -38 38 -92t-38 -92q-40 -38 -93 -38q-56 0 -94 38.5t-38 93.5q0 53 39 90q38 38 92 38z" />
    <glyph glyph-name="cdotaccent" unicode="&#x10b;" horiz-adv-x="947" 
d="M910 759l-137 -133q-68 74 -116 99q-50 26 -119 26q-126 0 -203 -86q-72 -78 -72 -210q0 -150 91 -231q74 -67 184 -67q72 0 126 30q54 29 115 102l137 -133q-69 -75 -125 -111q-112 -73 -254 -73q-219 0 -358 156q-122 137 -122 327q0 217 156 360q133 121 324 121
q108 0 195.5 -41.5t177.5 -135.5zM521 1344q54 0 94 -38q38 -38 38 -92t-38 -92q-40 -38 -93 -38q-56 0 -94 38t-38 94q0 52 39 90q40 38 92 38z" />
    <glyph glyph-name="Ccaron" unicode="&#x10c;" horiz-adv-x="1372" 
d="M1311 1151l-149 -144q-69 72 -126 112q-110 74 -250 74q-226 0 -368 -162q-130 -146 -130 -349q0 -233 166 -383q140 -127 331 -127q163 0 294 105q34 29 89 85l149 -145q-92 -92 -170 -142q-160 -103 -359 -103q-196 0 -363 96q-163 95 -257 259q-96 165 -96 355
q0 188 95 354q96 169 261 263q163 94 358 94q152 0 276 -57q126 -59 249 -185zM580 1819l184 -180l183 180l153 -77l-266 -292h-140l-267 292z" />
    <glyph glyph-name="ccaron" unicode="&#x10d;" horiz-adv-x="947" 
d="M910 759l-137 -133q-68 74 -116 99q-50 26 -119 26q-126 0 -203 -86q-72 -78 -72 -210q0 -150 91 -231q74 -67 184 -67q72 0 126 30q54 29 115 102l137 -133q-69 -75 -125 -111q-112 -73 -254 -73q-219 0 -358 156q-122 137 -122 327q0 217 156 360q133 121 324 121
q108 0 195.5 -41.5t177.5 -135.5zM330 1409l184 -180l184 180l153 -77l-267 -292h-140l-267 292z" />
    <glyph glyph-name="Dcaron" unicode="&#x10e;" horiz-adv-x="1267" 
d="M150 0v1365h303q251 0 429 -103q148 -86 225 -222q88 -155 88 -356q0 -284 -164 -463q-204 -221 -578 -221h-303zM459 1167h-96v-969h96q176 0 301 71q221 128 221 415q0 284 -221 412q-125 71 -301 71zM412 1819l184 -180l183 180l153 -77l-267 -292h-139l-267 292z" />
    <glyph glyph-name="dcaron" unicode="&#x10f;" horiz-adv-x="1360" 
d="M1001 1365v-1365h-204v79q-139 -107 -280 -107q-113 0 -219 61q-113 65 -176 176q-65 113 -65 246q0 219 159 361q135 120 301 120q140 0 280 -107v536h204zM529 751q-115 0 -193 -85q-73 -79 -73 -211q0 -151 92 -232q76 -66 178 -66q117 0 192 83q73 79 73 217
q0 149 -91 230q-71 64 -178 64zM1228 1002l-149 47l110 373l195 -59z" />
    <glyph glyph-name="Dcroat" unicode="&#x110;" horiz-adv-x="1293" 
d="M175 642h-131v189h131v534h303q252 0 430 -103q148 -86 225 -222q88 -154 88 -355q0 -284 -164 -463q-204 -222 -579 -222h-303v642zM388 1167v-336h305v-189h-305v-444h96q177 0 302 71q221 128 221 415q0 284 -221 412q-125 71 -302 71h-96z" />
    <glyph glyph-name="dslash" unicode="&#x111;" horiz-adv-x="1118" 
d="M562 1224h235v141h204v-141h119v-184h-119v-1040h-204v79q-140 -107 -280 -107q-113 0 -219 61q-113 65 -176 176q-65 113 -65 246q0 219 159 361q135 120 301 120q140 0 280 -107v211h-235v184zM528 751q-114 0 -193 -85q-72 -80 -72 -211q0 -151 92 -232
q75 -66 178 -66q117 0 192 83q73 79 73 217q0 149 -91 230q-71 64 -179 64z" />
    <glyph glyph-name="Emacron" unicode="&#x112;" horiz-adv-x="984" 
d="M892 1365v-196h-529v-378h470v-198h-470v-395h549v-198h-762v1365h742zM226 1528v183h612v-183h-612z" />
    <glyph glyph-name="emacron" unicode="&#x113;" horiz-adv-x="1012" 
d="M953 376h-686q15 -72 53 -124q71 -95 203 -95q71 0 132 31t97 86l18 29l176 -73q-153 -258 -424 -258q-210 0 -343 151q-122 140 -122 332q0 225 156 367q125 115 296 115q194 0 323 -144q67 -75 98 -185q24 -84 24 -174q0 -29 -1 -58zM267 534h484q-23 88 -65 140
q-64 82 -175 82q-93 0 -157.5 -58.5t-86.5 -163.5zM199 1118v183h612v-183h-612z" />
    <glyph glyph-name="Ebreve" unicode="&#x114;" horiz-adv-x="984" 
d="M892 1365v-196h-529v-378h470v-198h-470v-395h549v-198h-762v1365h742zM233 1758l177 15q5 -75 14 -94q31 -67 103 -67t107 71q9 19 18 89l177 -14q-12 -106 -37 -154q-85 -166 -264 -166q-132 0 -218 93q-45 49 -59 94q-17 45 -18 133z" />
    <glyph glyph-name="ebreve" unicode="&#x115;" horiz-adv-x="1012" 
d="M953 376h-686q15 -72 53 -124q71 -95 203 -95q71 0 132 31t97 86l18 29l176 -73q-153 -258 -424 -258q-210 0 -343 151q-122 140 -122 332q0 225 156 367q125 115 296 115q194 0 323 -144q67 -75 98 -185q24 -84 24 -174q0 -29 -1 -58zM267 534h484q-23 88 -65 140
q-64 82 -175 82q-93 0 -157.5 -58.5t-86.5 -163.5zM210 1349l177 14q0 -5 0.5 -11t1 -10t0.5 -7q2 -51 18 -76q32 -56 97 -56q74 0 107 71q8 20 18 89l177 -15q-12 -106 -37 -154q-85 -166 -264 -166q-133 0 -218 93q-45 49 -59 94q-16 45 -18 134z" />
    <glyph glyph-name="Edotaccent" unicode="&#x116;" horiz-adv-x="984" 
d="M892 1365v-196h-529v-378h470v-198h-470v-395h549v-198h-762v1365h742zM530 1749q54 0 94 -38q38 -38 38 -92t-38 -92q-40 -38 -95 -38t-92 39q-38 38 -38 93q0 53 39 90q40 38 92 38z" />
    <glyph glyph-name="edotaccent" unicode="&#x117;" horiz-adv-x="1012" 
d="M953 376h-686q15 -72 53 -124q71 -95 203 -95q71 0 132 31t97 86l18 29l176 -73q-153 -258 -424 -258q-210 0 -343 151q-122 140 -122 332q0 225 156 367q125 115 296 115q194 0 323 -144q67 -75 98 -185q24 -84 24 -174q0 -29 -1 -58zM267 534h484q-23 88 -65 140
q-64 82 -175 82q-93 0 -157.5 -58.5t-86.5 -163.5zM504 1344q54 0 94 -38q38 -38 38 -92t-38 -92q-40 -38 -93 -38q-55 0 -93.5 38t-38.5 94q0 52 39 90q40 38 92 38z" />
    <glyph glyph-name="Eogonek" unicode="&#x118;" horiz-adv-x="984" 
d="M363 198h549v-198q-5 -7 -13 -16q-61 -73 -61 -118q0 -29 36 -29t96 22l60 -152q-102 -39 -173 -39q-99 0 -159 67q-46 50 -46 120q0 66 55 145h-557v1365h742v-196h-529v-378h470v-198h-470v-395z" />
    <glyph glyph-name="eogonek" unicode="&#x119;" horiz-adv-x="1012" 
d="M770 304l176 -74q-131 -219 -346 -251q-57 -74 -57 -113q0 -29 36 -29t96 22l60 -152q-102 -39 -173 -39q-98 0 -159 67q-46 50 -46 120q0 65 46 132q-98 24 -175 88q-78 65 -123 162q-48 102 -48 218q0 225 156 367q125 115 296 115q194 0 323 -144q67 -75 98 -185
q24 -84 24 -174q0 -29 -1 -58h-686q15 -72 53 -124q71 -95 203 -95q71 0 132 31t97 86zM267 534h484q-23 88 -65 140q-64 82 -175 82q-93 0 -157.5 -58.5t-86.5 -163.5z" />
    <glyph glyph-name="Ecaron" unicode="&#x11a;" horiz-adv-x="984" 
d="M892 1365v-196h-529v-378h470v-198h-470v-395h549v-198h-762v1365h742zM348 1819l184 -180l184 180l152 -77l-266 -292h-140l-267 292z" />
    <glyph glyph-name="ecaron" unicode="&#x11b;" horiz-adv-x="1012" 
d="M953 376h-686q15 -72 53 -124q71 -95 203 -95q71 0 132 31t97 86l18 29l176 -73q-153 -258 -424 -258q-210 0 -343 151q-122 140 -122 332q0 225 156 367q125 115 296 115q194 0 323 -144q67 -75 98 -185q24 -84 24 -174q0 -29 -1 -58zM267 534h484q-23 88 -65 140
q-64 82 -175 82q-93 0 -157.5 -58.5t-86.5 -163.5zM321 1409l184 -180l184 180l153 -77l-267 -292h-139l-267 292z" />
    <glyph glyph-name="Gcircumflex" unicode="&#x11c;" horiz-adv-x="1488" 
d="M803 537v198h609v-103q0 -206 -90 -371q-73 -132 -208 -208q-144 -81 -323 -81q-200 0 -365 96q-164 94 -258 258q-96 166 -96 356q0 188 95 354q96 169 261 263q163 94 357 94q245 0 429 -151q24 -20 96 -89l-148 -144q-74 75 -128 112q-108 72 -248 72
q-224 0 -368 -162q-130 -146 -130 -350q0 -232 166 -382q140 -127 334 -127q208 0 322 146q63 81 82 219h-389zM939 1432l-184 180l-184 -180l-152 77l267 292h139l267 -292z" />
    <glyph glyph-name="gcircumflex" unicode="&#x11d;" horiz-adv-x="1117" 
d="M797 908h204v-925q0 -237 -148 -369q-135 -120 -336 -120q-210 0 -353 131q-23 22 -84 92l133 133q17 -18 24 -27q60 -70 97 -94q77 -50 178 -50q141 0 216 84q69 78 69 220v96q-122 -107 -271 -107q-122 0 -228 61q-112 64 -176 176q-65 113 -65 246q0 220 159 361
q135 120 311 120q145 0 270 -107v79zM529 751q-115 0 -194 -85q-72 -80 -72 -211q0 -151 92 -232q75 -66 178 -66q116 0 193 83q72 80 72 217q0 149 -91 230q-71 64 -178 64zM713 1023l-184 180l-184 -180l-153 76l268 293h139l267 -293z" />
    <glyph glyph-name="Gbreve" unicode="&#x11e;" horiz-adv-x="1488" 
d="M803 537v198h609v-103q0 -206 -90 -371q-73 -132 -208 -208q-144 -81 -323 -81q-200 0 -365 96q-164 94 -258 258q-96 166 -96 356q0 188 95 354q96 169 261 263q163 94 357 94q245 0 429 -151q24 -20 96 -89l-148 -144q-74 75 -128 112q-108 72 -248 72
q-224 0 -368 -162q-130 -146 -130 -350q0 -232 166 -382q140 -127 334 -127q208 0 322 146q63 81 82 219h-389zM496 1758l176 15q2 -26 2 -29q2 -51 18 -76q33 -56 97 -56q74 0 107 71q9 19 18 89l177 -14q-12 -106 -37 -154q-84 -166 -264 -166q-132 0 -217 93
q-45 48 -60 94q-15 42 -17 133z" />
    <glyph glyph-name="gbreve" unicode="&#x11f;" horiz-adv-x="1117" 
d="M797 908h204v-925q0 -237 -148 -369q-135 -120 -336 -120q-210 0 -353 131q-23 22 -84 92l133 133q17 -18 24 -27q60 -70 97 -94q77 -50 178 -50q141 0 216 84q69 78 69 220v96q-122 -107 -271 -107q-122 0 -228 61q-112 64 -176 176q-65 113 -65 246q0 220 159 361
q135 120 311 120q145 0 270 -107v79zM529 751q-115 0 -194 -85q-72 -80 -72 -211q0 -151 92 -232q75 -66 178 -66q116 0 193 83q72 80 72 217q0 149 -91 230q-71 64 -178 64zM236 1349l177 14q1 -13 1 -28q3 -51 18 -76q33 -56 97 -56q74 0 107 71q9 19 18 89l177 -15
q-10 -102 -37 -154q-84 -166 -264 -166q-132 0 -217 93q-45 48 -60 94q-16 47 -17 134z" />
    <glyph glyph-name="Gdotaccent" unicode="&#x120;" horiz-adv-x="1488" 
d="M803 537v198h609v-103q0 -206 -90 -371q-73 -132 -208 -208q-144 -81 -323 -81q-200 0 -365 96q-164 94 -258 258q-96 166 -96 356q0 188 95 354q96 169 261 263q163 94 357 94q245 0 429 -151q24 -20 96 -89l-148 -144q-74 75 -128 112q-108 72 -248 72
q-224 0 -368 -162q-130 -146 -130 -350q0 -232 166 -382q140 -127 334 -127q208 0 322 146q63 81 82 219h-389zM789 1749q54 0 94 -38q38 -38 38 -92t-38 -92q-40 -38 -95 -38q-54 0 -92 39q-38 38 -38 93q0 53 39 90q40 38 92 38z" />
    <glyph glyph-name="gdotaccent" unicode="&#x121;" horiz-adv-x="1117" 
d="M797 908h204v-925q0 -237 -148 -369q-135 -120 -336 -120q-210 0 -353 131q-23 22 -84 92l133 133q17 -18 24 -27q60 -70 97 -94q77 -50 178 -50q141 0 216 84q69 78 69 220v96q-122 -107 -271 -107q-122 0 -228 61q-112 64 -176 176q-65 113 -65 246q0 220 159 361
q135 120 311 120q145 0 270 -107v79zM529 751q-115 0 -194 -85q-72 -80 -72 -211q0 -151 92 -232q75 -66 178 -66q116 0 193 83q72 80 72 217q0 149 -91 230q-71 64 -178 64zM529 1344q54 0 94 -38q38 -38 38 -92t-38 -92q-40 -38 -93 -38q-56 0 -94 38t-38 94q0 52 39 90
q40 38 92 38z" />
    <glyph glyph-name="Gcommaaccent" unicode="&#x122;" horiz-adv-x="1488" 
d="M803 537v198h609v-103q0 -206 -90 -371q-73 -132 -208 -208q-144 -81 -323 -81q-200 0 -365 96q-164 94 -258 258q-96 166 -96 356q0 188 95 354q96 169 261 263q163 94 357 94q245 0 429 -151q24 -20 96 -89l-148 -144q-74 75 -128 112q-108 72 -248 72
q-224 0 -368 -162q-130 -146 -130 -350q0 -232 166 -382q140 -127 334 -127q208 0 322 146q63 81 82 219h-389zM741 -483l-150 47l110 374l195 -60z" />
    <glyph glyph-name="gcommaaccent" unicode="&#x123;" horiz-adv-x="1117" 
d="M797 908h204v-925q0 -237 -148 -369q-135 -120 -336 -120q-210 0 -353 131q-23 22 -84 92l133 133q17 -18 24 -27q60 -70 97 -94q77 -50 178 -50q141 0 216 84q69 78 69 220v96q-122 -107 -271 -107q-122 0 -228 61q-112 64 -176 176q-65 113 -65 246q0 220 159 361
q135 120 311 120q145 0 270 -107v79zM529 751q-115 0 -194 -85q-72 -80 -72 -211q0 -151 92 -232q75 -66 178 -66q116 0 193 83q72 80 72 217q0 149 -91 230q-71 64 -178 64zM584 1422l150 -48l-110 -373l-195 59z" />
    <glyph glyph-name="Hcircumflex" unicode="&#x124;" horiz-adv-x="1332" 
d="M150 0v1365h213v-574h606v574h213v-1365h-213v593h-606v-593h-213zM850 1432l-184 180l-184 -180l-153 77l267 292h140l267 -292z" />
    <glyph glyph-name="hcircumflex" unicode="&#x125;" horiz-adv-x="1043" 
d="M115 0v1365h204v-523q95 94 231 94q148 0 254 -94q65 -58 94 -140.5t29 -212.5v-489h-204v473q0 133 -33 195q-44 80 -159 80q-57 0 -106 -24.5t-72 -64.5q-34 -61 -34 -205v-454h-204zM712 1432l-184 180l-184 -180l-153 77l267 292h140l266 -292z" />
    <glyph glyph-name="Hbar" unicode="&#x126;" horiz-adv-x="1330" 
d="M1299 1040h-118v-1040h-212v593h-608v-593h-212v1040h-118v184h118v141h212v-141h608v141h212v-141h118v-184zM969 791v249h-608v-249h608z" />
    <glyph glyph-name="hbar" unicode="&#x127;" horiz-adv-x="1040" 
d="M556 1040h-240v-198q100 94 231 94q149 0 255 -94q66 -58 94.5 -140t28.5 -213v-489h-204v473q0 133 -33 195q-44 80 -159 80q-59 0 -107 -24.5t-72 -64.5q-34 -61 -34 -205v-454h-204v1040h-119v184h119v141h204v-141h240v-184z" />
    <glyph glyph-name="Itilde" unicode="&#x128;" horiz-adv-x="513" 
d="M150 1365h212v-1365h-212v1365zM394 1754l170 -39q-17 -221 -188 -221q-76 0 -151 42q-49 27 -75 27q-14 0 -20 -14t-15 -64l-166 39q9 89 45 145q49 76 146 76q68 0 154 -46q44 -23 72 -23q20 0 28 78z" />
    <glyph glyph-name="itilde" unicode="&#x129;" horiz-adv-x="436" 
d="M116 908h204v-908h-204v908zM356 1344l170 -39q-17 -221 -188 -221q-76 0 -151 42q-49 27 -75 27q-13 0 -19.5 -14.5t-15.5 -63.5l-166 39q9 89 45 145q49 76 146 76q68 0 154 -46q44 -23 72 -23q20 0 28 78z" />
    <glyph glyph-name="Imacron" unicode="&#x12a;" horiz-adv-x="513" 
d="M150 1365h213v-1365h-213v1365zM-50 1528v183h613v-183h-613z" />
    <glyph glyph-name="imacron" unicode="&#x12b;" horiz-adv-x="436" 
d="M116 908h204v-908h-204v908zM-88 1118v183h613v-183h-613z" />
    <glyph glyph-name="Ibreve" unicode="&#x12c;" horiz-adv-x="513" 
d="M151 1365h213v-1365h-213v1365zM-41 1758l177 15q3 -74 13 -94q31 -67 104 -67t106 71q10 18 19 89l177 -14q-12 -104 -38 -154q-84 -166 -263 -166q-132 0 -218 93q-44 48 -60 94q-16 47 -17 133z" />
    <glyph glyph-name="ibreve" unicode="&#x12d;" horiz-adv-x="436" 
d="M117 908h204v-908h-204v908zM-79 1349l177 14q3 -75 13 -93q31 -67 104 -67t106 71q10 18 19 89l177 -15q-12 -104 -38 -154q-84 -166 -263 -166q-133 0 -218 93q-44 48 -60 94q-16 47 -17 134z" />
    <glyph glyph-name="Iogonek" unicode="&#x12e;" horiz-adv-x="513" 
d="M150 0v1365h212v-1365q-2 -2 -5.5 -6.5t-4.5 -6.5q-63 -81 -63 -121q0 -29 36 -29q37 0 95 21l60 -152q-102 -38 -172 -38q-99 0 -159 66q-46 52 -46 121q0 66 55 145h-8z" />
    <glyph glyph-name="iogonek" unicode="&#x12f;" horiz-adv-x="436" 
d="M320 908v-908q-4 -6 -9 -11q-65 -82 -65 -123q0 -29 37 -29q36 0 95 22l60 -152q-102 -39 -172 -39q-99 0 -160 67q-46 50 -46 120q0 65 56 145v908h204zM218 1344q54 0 94 -38q38 -38 38 -92q0 -55 -38 -93q-40 -38 -95 -38t-93 39q-38 38 -38 94q0 52 39 90
q40 38 93 38z" />
    <glyph glyph-name="Idot" unicode="&#x130;" horiz-adv-x="513" 
d="M150 1365h212v-1365h-212v1365zM256 1749q54 0 94 -38q38 -38 38 -92t-38 -92q-40 -38 -93 -38q-55 0 -93.5 38.5t-38.5 93.5q0 53 39 91q37 37 92 37z" />
    <glyph glyph-name="dotlessi" unicode="&#x131;" horiz-adv-x="436" 
d="M116 908h204v-908h-204v908z" />
    <glyph glyph-name="IJ" unicode="&#x132;" horiz-adv-x="1347" 
d="M150 1365h213v-1365h-213v1365zM984 1365h213v-946q0 -104 -12 -164q-14 -62 -46 -119q-40 -72 -115 -115q-82 -49 -185 -49q-97 0 -176 39q-81 37 -174 129l132 154q116 -122 215 -122q62 0 101 43q47 52 47 204v946z" />
    <glyph glyph-name="ij" unicode="&#x133;" horiz-adv-x="886" 
d="M116 908h204v-908h-204v908zM218 1344q54 0 94 -38q38 -38 38 -92q0 -55 -38 -93q-40 -38 -94 -38q-56 0 -93 39q-39 38 -39 93q0 53 39 91q40 38 93 38zM667 1344q54 0 94 -38q38 -38 38 -92q0 -55 -38 -93q-40 -38 -95 -38q-56 0 -93 39q-38 38 -38 94q0 52 39 90
q40 38 93 38zM409 -475v191q63 -19 96 -19q26 0 41 16q20 23 20 94v1101h204v-1101q0 -174 -82 -246q-64 -56 -155 -56q-56 0 -124 20z" />
    <glyph glyph-name="Jcircumflex" unicode="&#x134;" horiz-adv-x="851" 
d="M488 1365h213v-946q0 -104 -12 -164q-12 -62 -46 -119q-40 -70 -115 -115q-82 -49 -185 -49q-97 0 -176 39q-81 39 -174 129l132 154q116 -122 215 -122q62 0 101 43q47 52 47 204v946zM704 1432l-184 180l-184 -180l-153 77l267 292h140l267 -292z" />
    <glyph glyph-name="jcircumflex" unicode="&#x135;" horiz-adv-x="456" 
d="M-20 -475v191q63 -19 95 -19q28 0 41 16q20 23 20 94v1101h204v-1101q0 -174 -82 -246q-64 -56 -155 -56q-54 0 -123 20zM396 1023l-183 180l-184 -180l-153 76l267 293h139l267 -293z" />
    <glyph glyph-name="Kcommaaccent" unicode="&#x136;" horiz-adv-x="1196" 
d="M624 -483l-149 47l110 374l195 -60zM1192 1365l-529 -574l529 -791h-250l-423 635l-156 -170v-465h-213v1365h213v-615l565 615h264z" />
    <glyph glyph-name="kcommaaccent" unicode="&#x137;" horiz-adv-x="975" 
d="M952 908l-384 -377l416 -531h-252l-303 394l-110 -108v-286h-204v1365h204v-819l365 362h268zM481 -483l-150 47l110 374l195 -60z" />
    <glyph glyph-name="kgreenlandic" unicode="&#x138;" horiz-adv-x="975" 
d="M952 908l-384 -377l416 -531h-252l-303 394l-110 -108v-286h-204v908h204v-362l365 362h268z" />
    <glyph glyph-name="Lacute" unicode="&#x139;" horiz-adv-x="873" 
d="M150 1365h213v-1168h510v-197h-723v1365zM370 1833l194 -105l-295 -297l-135 78z" />
    <glyph glyph-name="lacute" unicode="&#x13a;" horiz-adv-x="439" 
d="M321 1365v-1365h-204v1365h204zM337 1857l194 -105l-295 -297l-135 77z" />
    <glyph glyph-name="Lcommaaccent" unicode="&#x13b;" horiz-adv-x="884" 
d="M150 1365h213v-1168h510v-197h-723v1365zM523 -483l-150 47l110 374l196 -60z" />
    <glyph glyph-name="lcommaaccent" unicode="&#x13c;" horiz-adv-x="439" 
d="M321 1365v-1365h-204v1365h204zM183 -483l-150 47l110 374l196 -60z" />
    <glyph glyph-name="Lcaron" unicode="&#x13d;" horiz-adv-x="884" 
d="M150 1365h213v-1168h510v-197h-723v1365zM663 986l-150 47l110 373l195 -59z" />
    <glyph glyph-name="lcaron" unicode="&#x13e;" horiz-adv-x="680" 
d="M321 1365v-1365h-204v1365h204zM549 1002l-150 47l110 373l195 -59z" />
    <glyph glyph-name="Ldot" unicode="&#x13f;" horiz-adv-x="884" 
d="M679 813q56 0 93 -37q38 -38 38 -92t-38 -92q-40 -38 -94 -38t-92 38t-38 94q0 52 39 90q37 37 92 37zM150 1365h213v-1168h510v-197h-723v1365z" />
    <glyph glyph-name="ldot" unicode="&#x140;" horiz-adv-x="728" 
d="M321 1365v-1365h-204v1365h204zM583 813q56 0 93 -37q38 -38 38 -92t-38 -92q-40 -38 -94 -38t-92 39q-38 38 -38 93q0 52 39 90q37 37 92 37z" />
    <glyph glyph-name="Lslash" unicode="&#x141;" horiz-adv-x="910" 
d="M44 657l131 88v620h213v-493l225 150v-220l-225 -150v-455h510v-197h-723v525l-131 -88v220z" />
    <glyph glyph-name="lslash" unicode="&#x142;" horiz-adv-x="533" 
d="M369 0h-204v540l-127 -85v223l127 85v602h204v-465l127 84v-222l-127 -85v-677z" />
    <glyph glyph-name="Nacute" unicode="&#x143;" horiz-adv-x="1450" 
d="M363 0h-213v1365h187l751 -1004v1004h212v-1365h-187l-750 1004v-1004zM850 1833l195 -105l-295 -297l-135 78z" />
    <glyph glyph-name="nacute" unicode="&#x144;" horiz-adv-x="1043" 
d="M115 0v908h204v-66q97 94 231 94q148 0 254 -94q65 -58 94 -140.5t29 -212.5v-489h-204v473q0 133 -33 195q-44 80 -159 80q-57 0 -106 -24.5t-72 -64.5q-34 -61 -34 -205v-454h-204zM650 1423l195 -104l-296 -297l-135 77z" />
    <glyph glyph-name="Ncommaaccent" unicode="&#x145;" horiz-adv-x="1450" 
d="M363 0h-213v1365h187l751 -1004v1004h212v-1365h-187l-750 1004v-1004zM724 -483l-150 47l111 374l194 -60z" />
    <glyph glyph-name="ncommaaccent" unicode="&#x146;" horiz-adv-x="1043" 
d="M115 0v908h204v-66q97 94 231 94q148 0 254 -94q65 -58 94 -140.5t29 -212.5v-489h-204v473q0 133 -33 195q-44 80 -159 80q-57 0 -106 -24.5t-72 -64.5q-34 -61 -34 -205v-454h-204zM520 -483l-150 47l111 374l195 -60z" />
    <glyph glyph-name="Ncaron" unicode="&#x147;" horiz-adv-x="1450" 
d="M363 0h-213v1365h187l751 -1004v1004h212v-1365h-187l-750 1004v-1004zM575 1819l184 -180l184 180l153 -77l-267 -292h-139l-267 292z" />
    <glyph glyph-name="ncaron" unicode="&#x148;" horiz-adv-x="1043" 
d="M115 0v908h204v-66q97 94 231 94q148 0 254 -94q65 -58 94 -140.5t29 -212.5v-489h-204v473q0 133 -33 195q-44 80 -159 80q-57 0 -106 -24.5t-72 -64.5q-34 -61 -34 -205v-454h-204zM348 1409l183 -180l184 180l153 -77l-267 -292h-139l-267 292z" />
    <glyph glyph-name="napostrophe" unicode="&#x149;" horiz-adv-x="1227" 
d="M299 0v908h204v-66q100 94 231 94q149 0 255 -94q66 -58 94.5 -140t28.5 -213v-489h-204v473q0 133 -33 195q-44 80 -160 80q-57 0 -106 -24.5t-72 -64.5q-34 -61 -34 -205v-454h-204zM-14 856l187 521l186 -68l-228 -510z" />
    <glyph glyph-name="Eng" unicode="&#x14a;" horiz-adv-x="1450" 
d="M1088 1365h212v-1371q0 -118 -42 -197q-25 -49 -78 -78t-117 -29q-54 0 -123 20v191q63 -19 95 -19q28 0 41 16q20 23 20 94v31l-733 981v-1004h-213v1365h187l751 -1004v1004z" />
    <glyph glyph-name="eng" unicode="&#x14b;" horiz-adv-x="1043" 
d="M319 0h-204v908h204v-66q97 94 231 94q148 0 254 -94q65 -58 94 -140.5t29 -212.5v-514q0 -156 -82 -229q-64 -56 -155 -56q-54 0 -123 20v191q63 -19 96 -19q60 0 60 108v483q0 133 -33 195q-44 80 -159 80q-57 0 -106 -24.5t-72 -64.5q-34 -61 -34 -205v-454z" />
    <glyph glyph-name="Omacron" unicode="&#x14c;" horiz-adv-x="1562" 
d="M780 1393q190 0 350 -94q166 -97 263 -262q96 -165 96 -355t-97 -356q-94 -163 -261 -259q-166 -95 -348 -95q-270 0 -473 182q-238 211 -238 537q0 185 96 346q101 168 263 262q163 94 349 94zM777 1193q-212 0 -358 -164q-131 -146 -131 -355q0 -167 100 -300
q77 -104 195 -158q97 -44 197 -44q124 0 240 66t185 184q68 119 68 260q0 230 -168 385q-138 126 -328 126zM474 1528v183h613v-183h-613z" />
    <glyph glyph-name="omacron" unicode="&#x14d;" horiz-adv-x="1070" 
d="M542 936q208 0 347 -156q123 -136 123 -325q0 -221 -159 -364q-134 -119 -318 -119q-214 0 -354 155q-124 136 -124 327q0 185 114 317q144 165 371 165zM530 751q-115 0 -195 -86q-72 -78 -72 -210q0 -149 92 -232q75 -66 179 -66q122 0 200 86q72 79 72 214
q0 146 -91 227q-74 67 -185 67zM228 1118v183h613v-183h-613z" />
    <glyph glyph-name="Obreve" unicode="&#x14e;" horiz-adv-x="1562" 
d="M780 1393q190 0 350 -94q166 -97 263 -262q96 -165 96 -355t-97 -356q-94 -163 -261 -259q-166 -95 -348 -95q-270 0 -473 182q-238 211 -238 537q0 185 96 346q101 168 263 262q163 94 349 94zM777 1193q-212 0 -358 -164q-131 -146 -131 -355q0 -167 100 -300
q77 -104 195 -158q97 -44 197 -44q124 0 240 66t185 184q68 119 68 260q0 230 -168 385q-138 126 -328 126zM483 1758l177 15q1 -13 1 -29q2 -51 18 -76q33 -56 97 -56q74 0 107 71q9 20 18 89l177 -14q-12 -106 -37 -154q-84 -166 -264 -166q-131 0 -217 93q-45 48 -60 94
q-16 47 -17 133z" />
    <glyph glyph-name="obreve" unicode="&#x14f;" horiz-adv-x="1070" 
d="M542 936q208 0 347 -156q123 -136 123 -325q0 -221 -159 -364q-134 -119 -318 -119q-214 0 -354 155q-124 136 -124 327q0 185 114 317q144 165 371 165zM530 751q-115 0 -195 -86q-72 -78 -72 -210q0 -149 92 -232q75 -66 179 -66q122 0 200 86q72 79 72 214
q0 146 -91 227q-74 67 -185 67zM237 1349l177 14q1 -13 1 -28q3 -51 18 -76q33 -56 97 -56q74 0 107 71q8 18 19 89l176 -15q-10 -102 -37 -154q-84 -166 -263 -166q-132 0 -218 93q-45 49 -59 94q-16 45 -18 134z" />
    <glyph glyph-name="Ohungarumlaut" unicode="&#x150;" horiz-adv-x="1562" 
d="M780 1393q190 0 350 -94q166 -97 263 -262q96 -165 96 -355t-97 -356q-94 -163 -261 -259q-166 -95 -348 -95q-270 0 -473 182q-238 211 -238 537q0 185 96 346q101 168 263 262q163 94 349 94zM777 1193q-212 0 -358 -164q-131 -146 -131 -355q0 -167 100 -300
q77 -104 195 -158q97 -44 197 -44q124 0 240 66t185 184q68 119 68 260q0 230 -168 385q-138 126 -328 126zM752 1833l180 -101l-300 -301l-115 78zM1050 1833l176 -105l-296 -297l-119 74z" />
    <glyph glyph-name="ohungarumlaut" unicode="&#x151;" horiz-adv-x="1074" 
d="M543 936q207 0 346 -156q123 -136 123 -325q0 -221 -159 -364q-134 -119 -318 -119q-214 0 -354 155q-124 136 -124 331q0 215 157 357q133 121 329 121zM530 751q-115 0 -195 -86q-72 -78 -72 -210q0 -149 92 -232q75 -66 179 -66q122 0 200 86q72 79 72 214
q0 146 -91 227q-74 67 -185 67zM527 1424l180 -102l-300 -301l-115 79zM825 1424l176 -106l-295 -297l-120 74z" />
    <glyph glyph-name="OE" unicode="&#x152;" horiz-adv-x="2108" 
d="M1273 1187v178h742v-196h-529v-378h470v-198h-470v-395h549v-198h-762v179q-213 -207 -489 -207q-188 0 -355 95q-165 96 -260 260q-97 166 -97 355q0 190 96 355q99 169 263 262q164 94 353 94q277 0 489 -206zM777 1193q-213 0 -358 -163q-131 -146 -131 -356
q0 -166 100 -299q79 -104 195 -158q97 -44 197 -44q124 0 240 66q118 67 185 184q68 119 68 259q0 232 -168 385q-138 126 -328 126z" />
    <glyph glyph-name="oe" unicode="&#x153;" horiz-adv-x="1761" 
d="M1519 302l176 -73q-155 -258 -426 -258q-228 0 -362 179q-141 -178 -371 -178q-215 0 -355 155q-124 136 -124 327q0 219 157 361q133 121 322 121q230 0 371 -178q141 178 350 178q196 0 325 -145q57 -64 89 -159t32 -198q0 -24 -1 -59h-686q17 -75 53 -124
q69 -95 203 -95q72 0 134 31.5t95 85.5q16 26 18 29zM530 751q-115 0 -195 -86q-72 -78 -72 -210q0 -149 92 -232q75 -66 179 -66q122 0 200 86q72 79 72 214q0 148 -91 227q-74 67 -185 67zM1016 533h484q-21 85 -65 140q-64 82 -175 82q-93 0 -157.5 -58.5t-86.5 -163.5z
" />
    <glyph glyph-name="Racute" unicode="&#x154;" horiz-adv-x="1121" 
d="M625 1833l194 -105l-295 -297l-135 78zM757 583l326 -583h-239l-295 532q-49 -4 -96 -4h-90v-528h-213v1365h303q206 0 317 -63q90 -52 144 -144q58 -98 58 -216q0 -117 -57 -212t-158 -147zM363 1171v-450h107q130 0 194 37q99 56 99 186q0 132 -101 191q-64 36 -192 36
h-107z" />
    <glyph glyph-name="racute" unicode="&#x155;" horiz-adv-x="619" 
d="M115 0v908h204v-73q60 48 97 62q38 15 99 15q35 0 75 -4v-183q-66 2 -71 2q-123 0 -166 -81q-34 -64 -34 -209v-437h-204zM403 1423l194 -104l-295 -297l-135 77z" />
    <glyph glyph-name="Rcommaaccent" unicode="&#x156;" horiz-adv-x="1121" 
d="M566 -483l-149 47l110 374l195 -60zM757 583l326 -583h-239l-295 532q-49 -4 -96 -4h-90v-528h-213v1365h303q206 0 317 -63q90 -52 144 -144q58 -98 58 -216q0 -117 -57 -212t-158 -147zM363 1171v-450h107q130 0 194 37q99 56 99 186q0 132 -101 191q-64 36 -192 36
h-107z" />
    <glyph glyph-name="rcommaaccent" unicode="&#x157;" horiz-adv-x="620" 
d="M115 0v908h204v-73q56 45 97 62q38 15 99 15q35 0 75 -4v-183q-66 2 -71 2q-124 0 -166 -81q-34 -64 -34 -209v-437h-204zM174 -483l-150 47l110 374l196 -60z" />
    <glyph glyph-name="Rcaron" unicode="&#x158;" horiz-adv-x="1121" 
d="M346 1819l184 -180l184 180l153 -77l-267 -292h-140l-267 292zM757 583l326 -583h-239l-295 532q-49 -4 -96 -4h-90v-528h-213v1365h303q206 0 317 -63q90 -52 144 -144q58 -98 58 -216q0 -117 -57 -212t-158 -147zM363 1171v-450h107q130 0 194 37q99 56 99 186
q0 132 -101 191q-64 36 -192 36h-107z" />
    <glyph glyph-name="rcaron" unicode="&#x159;" horiz-adv-x="615" 
d="M115 0v908h204v-73q60 48 97 62q38 15 99 15q35 0 75 -4v-183q-66 2 -71 2q-123 0 -166 -81q-34 -64 -34 -209v-437h-204zM169 1409l184 -180l183 180l153 -77l-267 -292h-139l-267 292z" />
    <glyph glyph-name="Sacute" unicode="&#x15a;" horiz-adv-x="1054" 
d="M949 1145l-172 -109q-47 72 -84 104q-61 55 -150 55q-101 0 -158 -66q-48 -55 -48 -124q0 -109 173 -177l130 -49q207 -79 279 -195q51 -80 51 -183q0 -188 -141 -314q-128 -115 -312 -115q-149 0 -265 81q-135 95 -184 312l207 54q3 -16 8 -32q22 -88 59 -134
q67 -82 178 -82q108 0 177 77q58 64 58 151q0 56 -29 94q-40 53 -181 108l-124 48q-295 114 -295 357q0 171 124 280q122 107 299 107q193 0 319 -137q38 -40 81 -111zM654 1833l195 -105l-296 -297l-135 78z" />
    <glyph glyph-name="sacute" unicode="&#x15b;" horiz-adv-x="777" 
d="M47 237l169 69q42 -85 80 -117q38 -33 95 -33q66 0 97 39q28 32 28 73q0 27 -15 48q-17 24 -116 61l-93 36q-197 77 -197 244q0 122 90 200q91 79 219 79q197 0 302 -198l-160 -81q-37 55 -68.5 76.5t-76.5 21.5q-49 0 -80 -25.5t-31 -66.5q0 -27 14 -47q16 -20 115 -59
l84 -32q114 -44 165.5 -103t51.5 -146q0 -133 -100 -221q-94 -83 -231 -83q-124 0 -207.5 65t-134.5 200zM494 1423l195 -104l-295 -297l-136 77z" />
    <glyph glyph-name="Scircumflex" unicode="&#x15c;" horiz-adv-x="1054" 
d="M949 1145l-172 -109q-47 72 -84 104q-61 55 -150 55q-101 0 -158 -66q-48 -55 -48 -124q0 -109 173 -177l130 -49q207 -79 279 -195q51 -80 51 -183q0 -188 -141 -314q-128 -115 -312 -115q-149 0 -265 81q-135 95 -184 312l207 54q3 -16 8 -32q22 -88 59 -134
q67 -82 178 -82q108 0 177 77q58 64 58 151q0 56 -29 94q-40 53 -181 108l-124 48q-295 114 -295 357q0 171 124 280q122 107 299 107q193 0 319 -137q38 -40 81 -111zM705 1432l-184 180l-183 -180l-153 77l267 292h139l267 -292z" />
    <glyph glyph-name="scircumflex" unicode="&#x15d;" horiz-adv-x="791" 
d="M47 237l169 69q42 -85 80 -117q38 -33 95 -33q66 0 97 39q28 32 28 73q0 27 -15 48q-17 24 -116 61l-93 36q-197 77 -197 244q0 122 90 200q91 79 219 79q197 0 302 -198l-160 -81q-37 55 -68.5 76.5t-76.5 21.5q-49 0 -80 -25.5t-31 -66.5q0 -27 14 -47q16 -20 115 -59
l84 -32q114 -44 165.5 -103t51.5 -146q0 -133 -100 -221q-94 -83 -231 -83q-124 0 -207.5 65t-134.5 200zM573 1023l-184 180l-184 -180l-153 76l268 293h139l267 -293z" />
    <glyph glyph-name="Scedilla" unicode="&#x15e;" horiz-adv-x="1054" 
d="M949 1145l-172 -109q-47 72 -84 104q-61 55 -150 55q-101 0 -158 -66q-48 -55 -48 -124q0 -109 173 -177l130 -49q207 -79 279 -195q51 -80 51 -183q0 -188 -141 -314q-128 -115 -312 -115q-149 0 -265 81q-135 95 -184 312l207 54q3 -16 8 -32q22 -88 59 -134
q67 -82 178 -82q108 0 177 77q58 64 58 151q0 56 -29 94q-40 53 -181 108l-124 48q-295 114 -295 357q0 171 124 280q122 107 299 107q193 0 319 -137q38 -40 81 -111zM330 -376l199 314l188 -81l-242 -306z" />
    <glyph glyph-name="scedilla" unicode="&#x15f;" horiz-adv-x="777" 
d="M47 237l169 69q42 -85 80 -117q38 -33 95 -33q66 0 97 39q28 32 28 73q0 27 -15 48q-17 24 -116 61l-93 36q-197 77 -197 244q0 122 90 200q91 79 219 79q197 0 302 -198l-160 -81q-37 55 -68.5 76.5t-76.5 21.5q-49 0 -80 -25.5t-31 -66.5q0 -27 14 -47q16 -20 115 -59
l84 -32q114 -44 165.5 -103t51.5 -146q0 -133 -100 -221q-94 -83 -231 -83q-124 0 -207.5 65t-134.5 200zM180 -376l200 314l187 -81l-241 -306z" />
    <glyph glyph-name="Scaron" unicode="&#x160;" horiz-adv-x="1054" 
d="M949 1145l-172 -109q-47 72 -84 104q-61 55 -150 55q-101 0 -158 -66q-48 -55 -48 -124q0 -109 173 -177l130 -49q207 -79 279 -195q51 -80 51 -183q0 -188 -141 -314q-128 -115 -312 -115q-149 0 -265 81q-135 95 -184 312l207 54q3 -16 8 -32q22 -88 59 -134
q67 -82 178 -82q108 0 177 77q58 64 58 151q0 56 -29 94q-40 53 -181 108l-124 48q-295 114 -295 357q0 171 124 280q122 107 299 107q193 0 319 -137q38 -40 81 -111zM338 1819l183 -180l184 180l153 -77l-267 -292h-139l-267 292z" />
    <glyph glyph-name="scaron" unicode="&#x161;" horiz-adv-x="791" 
d="M47 237l169 69q42 -85 80 -117q38 -33 95 -33q66 0 97 39q28 32 28 73q0 27 -15 48q-17 24 -116 61l-93 36q-197 77 -197 244q0 122 90 200q91 79 219 79q197 0 302 -198l-160 -81q-37 55 -68.5 76.5t-76.5 21.5q-49 0 -80 -25.5t-31 -66.5q0 -27 14 -47q16 -20 115 -59
l84 -32q114 -44 165.5 -103t51.5 -146q0 -133 -100 -221q-94 -83 -231 -83q-124 0 -207.5 65t-134.5 200zM205 1409l184 -180l184 180l153 -77l-267 -292h-139l-268 292z" />
    <glyph glyph-name="Tcommaaccent" unicode="&#x162;" horiz-adv-x="894" 
d="M894 1365v-196h-340v-1169h-213v1169h-341v196h894zM414 -483l-150 47l110 374l195 -60z" />
    <glyph glyph-name="tcommaaccent" unicode="&#x163;" horiz-adv-x="532" 
d="M332 908h144v-184h-144v-438q0 -58 14.5 -83.5t46.5 -25.5q31 0 96 18v-191q-69 -20 -124 -20q-107 0 -171 72q-66 74 -66 230v438h-97v184h97v201l204 81v-282zM259 -483l-150 47l111 374l195 -60z" />
    <glyph glyph-name="Tcaron" unicode="&#x164;" horiz-adv-x="894" 
d="M894 1365v-196h-340v-1169h-213v1169h-341v196h894zM263 1819l184 -180l183 180l153 -77l-266 -292h-140l-267 292z" />
    <glyph glyph-name="tcaron" unicode="&#x165;" horiz-adv-x="691" 
d="M332 908h144v-184h-144v-438q0 -58 14.5 -83.5t46.5 -25.5q31 0 96 18v-191q-69 -20 -124 -20q-107 0 -171 72q-66 74 -66 230v438h-97v184h97v201l204 81v-282zM560 1002l-150 47l111 373l195 -59z" />
    <glyph glyph-name="Tbar" unicode="&#x166;" horiz-adv-x="894" 
d="M762 908v-188h-208v-720h-213v720h-209v188h209v261h-341v196h894v-196h-340v-261h208z" />
    <glyph glyph-name="tbar" unicode="&#x167;" horiz-adv-x="532" 
d="M489 195v-191q-69 -20 -124 -20q-107 0 -171 72q-66 74 -66 230v184h-97v182h97v74h-97v182h97v201l204 81v-282h144v-182h-144v-74h144v-182h-144v-184q0 -59 14.5 -84.5t46.5 -25.5q35 0 96 19z" />
    <glyph glyph-name="Utilde" unicode="&#x168;" horiz-adv-x="1307" 
d="M150 484v881h213v-842q0 -88 8 -138q8 -49 28 -84q33 -56 104 -92q70 -37 150 -37q117 0 205 73q51 42 68 98q17 57 17 180v842h213v-881q0 -171 -59 -272q-62 -105 -172 -167q-124 -73 -272 -73q-204 0 -351 129q-82 70 -117 160t-35 223zM791 1754l169 -39
q-17 -221 -187 -221q-76 0 -151 42q-46 26 -75 27q-21 2 -35 -78l-166 39q9 89 45 145q49 76 146 76q68 0 154 -46q44 -23 71 -23q21 0 29 78z" />
    <glyph glyph-name="utilde" unicode="&#x169;" horiz-adv-x="1043" 
d="M927 908v-908h-204v66q-97 -94 -231 -94q-148 0 -254 94q-66 58 -94.5 140.5t-28.5 212.5v489h204v-473q0 -135 33 -195q44 -80 160 -80q57 0 106 24.5t71 64.5q34 61 34 205v454h204zM659 1344l170 -39q-18 -221 -188 -221q-76 0 -151 42q-46 26 -75 27q-21 2 -35 -78
l-166 39q9 89 45 145q49 76 146 76q68 0 154 -46q44 -23 71 -23q22 0 29 78z" />
    <glyph glyph-name="Umacron" unicode="&#x16a;" horiz-adv-x="1307" 
d="M150 484v881h213v-842q0 -88 8 -138q8 -49 28 -84q33 -56 104 -92q70 -37 150 -37q117 0 205 73q51 42 68 98q17 57 17 180v842h213v-881q0 -171 -59 -272q-62 -105 -172 -167q-124 -73 -272 -73q-204 0 -351 129q-82 70 -117 160t-35 223zM347 1528v183h612v-183h-612z
" />
    <glyph glyph-name="umacron" unicode="&#x16b;" horiz-adv-x="1043" 
d="M927 908v-908h-204v66q-97 -94 -231 -94q-148 0 -254 94q-66 58 -94.5 140.5t-28.5 212.5v489h204v-473q0 -135 33 -195q44 -80 160 -80q57 0 106 24.5t71 64.5q34 61 34 205v454h204zM215 1118v183h612v-183h-612z" />
    <glyph glyph-name="Ubreve" unicode="&#x16c;" horiz-adv-x="1307" 
d="M150 484v881h213v-842q0 -88 8 -138q8 -49 28 -84q33 -56 104 -92q70 -37 150 -37q117 0 205 73q51 42 68 98q17 57 17 180v842h213v-881q0 -171 -59 -272q-62 -105 -172 -167q-124 -73 -272 -73q-204 0 -351 129q-82 70 -117 160t-35 223zM355 1758l177 15q5 -75 14 -94
q31 -67 103 -67t107 71q9 19 18 89l177 -14q-12 -106 -37 -154q-85 -166 -264 -166q-133 0 -218 93q-45 49 -59 94q-17 45 -18 133z" />
    <glyph glyph-name="ubreve" unicode="&#x16d;" horiz-adv-x="1043" 
d="M927 908v-908h-204v66q-97 -94 -231 -94q-148 0 -254 94q-66 58 -94.5 140.5t-28.5 212.5v489h204v-473q0 -135 33 -195q44 -80 160 -80q57 0 106 24.5t71 64.5q34 61 34 205v454h204zM224 1349l176 14q5 -76 14 -93q31 -67 103 -67q74 0 107 71q9 19 18 89l177 -15
q-12 -106 -37 -154q-85 -166 -264 -166q-132 0 -218 93q-45 49 -59 94q-16 47 -17 134z" />
    <glyph glyph-name="Uring" unicode="&#x16e;" horiz-adv-x="1307" 
d="M150 484v881h213v-842q0 -88 8 -138q8 -49 28 -84q33 -56 104 -92q70 -37 150 -37q117 0 205 73q51 42 68 98q17 57 17 180v842h213v-881q0 -171 -59 -272q-62 -105 -172 -167q-124 -73 -272 -73q-204 0 -351 129q-82 70 -117 160t-35 223zM652 1825q95 0 158 -69
q53 -59 53 -136q0 -90 -68 -152q-60 -54 -142 -54q-86 0 -148 60q-62 62 -62 149q0 86 69 149q59 53 140 53zM652 1725q-44 0 -74.5 -31t-30.5 -76q0 -41 32 -73q31 -31 74 -31q44 0 75 31t31 75t-31 74.5t-76 30.5z" />
    <glyph glyph-name="uring" unicode="&#x16f;" horiz-adv-x="1043" 
d="M927 908v-908h-204v66q-97 -94 -231 -94q-148 0 -254 94q-66 58 -94.5 140.5t-28.5 212.5v489h204v-473q0 -135 33 -195q44 -80 160 -80q57 0 106 24.5t71 64.5q34 61 34 205v454h204zM520 1416q95 0 158 -69q53 -59 53 -137q0 -90 -68 -152q-60 -54 -142 -54
q-87 0 -148 60q-62 62 -62 149q0 86 69 149q58 54 140 54zM520 1316q-43 0 -74 -31.5t-31 -75.5q0 -43 31.5 -74t74.5 -31q44 0 75 31t31 75t-31 75t-76 31z" />
    <glyph glyph-name="Uhungarumlaut" unicode="&#x170;" horiz-adv-x="1307" 
d="M150 484v881h213v-842q0 -88 8 -138q8 -49 28 -84q33 -56 104 -92q70 -37 150 -37q117 0 205 73q51 42 68 98q17 57 17 180v842h213v-881q0 -171 -59 -272q-62 -105 -172 -167q-124 -73 -272 -73q-204 0 -351 129q-82 70 -117 160t-35 223zM605 1833l180 -101l-300 -301
l-116 78zM903 1833l176 -105l-296 -297l-119 74z" />
    <glyph glyph-name="uhungarumlaut" unicode="&#x171;" horiz-adv-x="1043" 
d="M927 908v-908h-204v66q-97 -94 -231 -94q-148 0 -254 94q-66 58 -94.5 140.5t-28.5 212.5v489h204v-473q0 -135 33 -195q44 -80 160 -80q57 0 106 24.5t71 64.5q34 61 34 205v454h204zM483 1424l180 -102l-300 -301l-115 79zM781 1424l176 -106l-296 -297l-119 74z" />
    <glyph glyph-name="Uogonek" unicode="&#x172;" horiz-adv-x="1307" 
d="M943 1365h213v-881q0 -128 -29 -209q-41 -109 -134.5 -185t-224.5 -106q-61 -76 -61 -118q0 -29 36 -29q37 0 95 21l60 -152q-102 -38 -172 -38q-99 0 -159 66q-46 52 -46 120q0 57 41 125q-199 35 -305.5 165t-106.5 340v881h213v-842q0 -88 8 -138q8 -49 28 -84
q33 -57 104 -93t150 -36q119 0 205 73q51 42 68 98q17 57 17 180v842z" />
    <glyph glyph-name="uogonek" unicode="&#x173;" horiz-adv-x="1043" 
d="M927 908v-908q-9 -10 -12 -16q-61 -74 -61 -118q0 -29 36 -29q35 0 95 22l60 -152q-101 -39 -172 -39q-99 0 -159 67q-46 50 -46 120q0 68 55 145v66q-97 -94 -231 -94q-148 0 -254 94q-66 58 -94.5 140.5t-28.5 212.5v489h204v-473q0 -135 33 -195q44 -80 159 -80
q57 0 106 24.5t72 64.5q34 61 34 205v454h204z" />
    <glyph glyph-name="Wcircumflex" unicode="&#x174;" horiz-adv-x="1797" 
d="M0 1365h222l288 -1009l298 1009h181l298 -1009l289 1009h221l-409 -1365h-102h-99l-288 969l-289 -969h-98h-102zM1082 1432l-183 180l-184 -180l-153 77l267 292h139l267 -292z" />
    <glyph glyph-name="wcircumflex" unicode="&#x175;" horiz-adv-x="1360" 
d="M864 1023l-184 180l-183 -180l-153 76l267 293h139l267 -293zM-12 908h219l196 -578l196 578h163l196 -578l196 578h219l-334 -908h-164l-195 571l-195 -571h-163z" />
    <glyph glyph-name="Ycircumflex" unicode="&#x176;" horiz-adv-x="1083" 
d="M862 1365h235l-449 -798v-567h-213v567l-449 798h236l320 -586zM725 1432l-184 180l-183 -180l-153 77l267 292h139l267 -292z" />
    <glyph glyph-name="ycircumflex" unicode="&#x177;" horiz-adv-x="948" 
d="M660 1023l-184 180l-184 -180l-153 76l267 293h140l267 -293zM346 -478h-214l228 521l-372 865h221l261 -617l270 617h220z" />
    <glyph glyph-name="Ydieresis" unicode="&#x178;" horiz-adv-x="1083" 
d="M862 1365h235l-449 -798v-567h-213v567l-449 798h236l320 -586zM729 1749q54 0 94 -38q38 -38 38 -92t-38 -92q-40 -38 -94 -38q-55 0 -93 38t-38 94q0 53 39 90q38 38 92 38zM353 1749q54 0 94 -38q38 -38 38 -92t-38 -92q-40 -38 -94 -38q-55 0 -93 38t-38 94
q0 53 39 91q37 37 92 37z" />
    <glyph glyph-name="Zacute" unicode="&#x179;" horiz-adv-x="1046" 
d="M993 1365v-171l-692 -996h707v-198h-974v171l703 999h-644v195h900zM612 1833l195 -105l-296 -297l-135 78z" />
    <glyph glyph-name="zacute" unicode="&#x17a;" horiz-adv-x="849" 
d="M528 1423l194 -104l-295 -297l-135 77zM809 908v-156l-496 -568h515v-184h-783v155l497 570h-468v183h735z" />
    <glyph glyph-name="Zdotaccent" unicode="&#x17b;" horiz-adv-x="1046" 
d="M993 1365v-171l-692 -996h707v-198h-974v171l703 999h-644v195h900zM554 1749q54 0 94 -38q38 -38 38 -92t-38 -92q-40 -38 -93 -38q-55 0 -93.5 38.5t-38.5 93.5q0 53 39 91q37 37 92 37z" />
    <glyph glyph-name="zdotaccent" unicode="&#x17c;" horiz-adv-x="849" 
d="M435 1344q54 0 94 -38q38 -38 38 -92t-38 -92q-40 -38 -94 -38q-55 0 -93 38t-38 94q0 52 39 90q38 38 92 38zM809 908v-156l-496 -568h515v-184h-783v155l497 570h-468v183h735z" />
    <glyph glyph-name="Zcaron" unicode="&#x17d;" horiz-adv-x="1046" 
d="M993 1365v-171l-692 -996h707v-198h-974v171l703 999h-644v195h900zM371 1819l184 -180l183 180l153 -77l-267 -292h-139l-267 292z" />
    <glyph glyph-name="zcaron" unicode="&#x17e;" horiz-adv-x="849" 
d="M253 1409l183 -180l184 180l153 -77l-267 -292h-139l-267 292zM809 908v-156l-496 -568h515v-184h-783v155l497 570h-468v183h735z" />
    <glyph glyph-name="longs" unicode="&#x17f;" horiz-adv-x="482" 
d="M496 1365v-184q-54 14 -81 14q-76 0 -76 -116v-1079h-204v724h-88v184h88v171q0 174 82 246q64 56 159 56q56 0 120 -16z" />
    <glyph glyph-name="florin" unicode="&#x192;" horiz-adv-x="983" 
d="M3 -384l40 193q66 -19 88 -19q67 0 93 120l167 814h-90l38 184h90l5 23l30 148q38 179 135 249q74 55 165 55q48 0 129 -23l-39 -192q-69 18 -88 18q-69 0 -93 -120l-33 -158h164l-38 -184h-164l-170 -827q-36 -177 -134 -249q-74 -55 -165 -55q-47 0 -130 23z" />
    <glyph glyph-name="Ohorn" unicode="&#x1a0;" horiz-adv-x="1576" 
d="M1271 1192q91 43 91 119q0 45 -22 79q-21 32 -87 86l153 77q138 -99 138 -241q0 -156 -159 -262q104 -179 104 -367q0 -191 -97 -357q-94 -163 -261 -259q-166 -95 -351 -95t-351 95q-166 97 -260 259q-97 166 -97 356q0 188 96 355q95 165 263 262q163 94 350 94
q219 0 401 -128q39 -26 89 -73zM777 1193q-211 0 -358 -164q-131 -146 -131 -355q0 -167 100 -300q77 -104 195 -158q99 -44 198 -44q123 0 239 66q118 67 185 184q68 119 68 259q0 233 -168 386q-138 126 -328 126z" />
    <glyph glyph-name="ohorn" unicode="&#x1a1;" horiz-adv-x="1155" 
d="M990 603q22 -75 22 -150q0 -219 -159 -362q-134 -119 -319 -119q-213 0 -353 155q-124 136 -124 327q0 219 157 361q133 121 321 121q180 0 310 -112q35 -30 61 -63q47 36 47 94q0 44 -23 79q-21 33 -86 85l153 77q138 -99 138 -242q0 -149 -145 -251zM530 751
q-115 0 -195 -86q-72 -78 -72 -210q0 -149 92 -232q75 -66 179 -66q122 0 200 86q72 79 72 214q0 146 -91 227q-74 67 -185 67z" />
    <glyph glyph-name="Uhorn" unicode="&#x1af;" horiz-adv-x="1400" 
d="M1156 1365v-161q67 42 67 108q0 45 -22 79q-21 33 -86 85l153 77q138 -97 138 -243q0 -204 -250 -304v-522q0 -171 -59 -272q-62 -105 -172 -167q-124 -73 -272 -73q-204 0 -351 129q-82 70 -117 160t-35 223v881h213v-842q0 -88 8 -138q8 -49 28 -84q33 -56 104 -92
q70 -37 150 -37q117 0 205 73q51 42 68 98q17 57 17 180v842h213z" />
    <glyph glyph-name="uhorn" unicode="&#x1b0;" horiz-adv-x="1201" 
d="M927 908v-163q70 42 70 110q0 45 -22 79q-21 33 -86 85l153 77q138 -98 138 -244q0 -95 -62 -174t-171 -123q-4 -1 -10 -3.5t-10 -4.5v-547h-204v66q-97 -94 -231 -94q-148 0 -254 94q-66 58 -94.5 140.5t-28.5 212.5v489h204v-473q0 -135 33 -195q44 -80 160 -80
q57 0 106 24.5t71 64.5q34 61 34 205v454h204z" />
    <glyph glyph-name="uni01C4" unicode="&#x1c4;" horiz-adv-x="2313" 
d="M150 0v1365h303q251 0 429 -103q148 -86 225 -222q88 -155 88 -356q0 -284 -164 -463q-204 -221 -578 -221h-303zM459 1167h-96v-969h96q176 0 301 71q221 128 221 415q0 284 -221 412q-125 71 -301 71zM2261 1365v-171l-692 -996h706v-198h-974v171l704 999h-644v195
h900zM1638 1819l184 -180l184 180l153 -77l-267 -292h-140l-267 292z" />
    <glyph glyph-name="uni01C5" unicode="&#x1c5;" horiz-adv-x="2116" 
d="M150 0v1365h303q251 0 429 -103q148 -86 225 -222q88 -155 88 -356q0 -284 -164 -463q-204 -221 -578 -221h-303zM459 1167h-96v-969h96q176 0 301 71q221 128 221 415q0 284 -221 412q-125 71 -301 71zM1520 1409l184 -180l183 180l153 -77l-266 -292h-140l-267 292z
M2076 908v-156l-496 -568h516v-184h-784v155l497 570h-468v183h735z" />
    <glyph glyph-name="uni01C6" unicode="&#x1c6;" horiz-adv-x="1966" 
d="M1001 1365v-1365h-204v79q-139 -107 -280 -107q-113 0 -219 61q-113 65 -176 176q-65 113 -65 246q0 219 159 361q135 120 301 120q140 0 280 -107v536h204zM529 751q-115 0 -193 -85q-73 -79 -73 -211q0 -151 92 -232q76 -66 178 -66q117 0 192 83q73 79 73 217
q0 149 -91 230q-71 64 -178 64zM1369 1409l184 -180l184 180l153 -77l-267 -292h-140l-267 292zM1926 908v-156l-497 -568h516v-184h-783v155l497 570h-469v183h736z" />
    <glyph glyph-name="uni01C7" unicode="&#x1c7;" horiz-adv-x="1736" 
d="M150 1365h213v-1168h510v-197h-723v1365zM1372 1365h213v-946q0 -104 -12 -164q-14 -62 -46 -119q-40 -70 -115 -115q-82 -49 -185 -49q-97 0 -176 39q-81 37 -174 129l132 154q117 -122 215 -122q62 0 101 43q47 52 47 204v946z" />
    <glyph glyph-name="uni01C8" unicode="&#x1c8;" horiz-adv-x="1341" 
d="M150 1365h213v-1168h510v-197h-723v1365zM1122 1344q54 0 94 -38q38 -38 38 -92q0 -55 -38 -93q-40 -38 -95 -38t-93 39q-38 38 -38 94q0 52 39 90q40 38 93 38zM864 -475v191q63 -19 96 -19q25 0 40 16q20 23 20 94v1101h204v-1101q0 -174 -82 -246q-64 -56 -155 -56
q-55 0 -123 20z" />
    <glyph glyph-name="uni01C9" unicode="&#x1c9;" horiz-adv-x="895" 
d="M321 1365v-1365h-204v1365h204zM677 1344q54 0 94 -38q38 -38 38 -92q0 -55 -38 -93q-40 -38 -95 -38q-56 0 -93 39q-38 38 -38 94q0 52 39 90q40 38 93 38zM418 -475v191q63 -19 96 -19q26 0 41 16q20 23 20 94v1101h204v-1101q0 -174 -82 -246q-64 -56 -155 -56
q-56 0 -124 20z" />
    <glyph glyph-name="uni01CA" unicode="&#x1ca;" horiz-adv-x="2302" 
d="M363 0h-213v1365h187l751 -1004v1004h212v-1365h-187l-750 1004v-1004zM1938 1365h213v-946q0 -104 -12 -164q-12 -62 -46 -119q-40 -70 -115 -115q-82 -49 -185 -49q-97 0 -176 39q-79 37 -174 129l132 154q117 -122 215 -122q62 0 102 43q46 50 46 204v946z" />
    <glyph glyph-name="uni01CB" unicode="&#x1cb;" horiz-adv-x="1907" 
d="M363 0h-213v1365h187l751 -1004v1004h212v-1365h-187l-750 1004v-1004zM1688 1344q54 0 94 -38q38 -38 38 -92q0 -55 -38 -93q-40 -38 -95 -38t-93 39q-38 38 -38 94q0 52 39 90q40 38 93 38zM1430 -475v191q63 -19 95 -19q28 0 41 16q20 23 20 94v1101h204v-1101
q0 -174 -82 -246q-64 -56 -155 -56q-55 0 -123 20z" />
    <glyph glyph-name="uni01CC" unicode="&#x1cc;" horiz-adv-x="1499" 
d="M115 0v908h204v-66q97 94 231 94q148 0 254 -94q65 -58 94 -140.5t29 -212.5v-489h-204v473q0 133 -33 195q-44 80 -159 80q-57 0 -106 -24.5t-72 -64.5q-34 -61 -34 -205v-454h-204zM1281 1344q54 0 94 -38q38 -38 38 -92q0 -55 -38 -93q-40 -38 -95 -38q-56 0 -93 39
q-38 38 -38 94q0 52 39 90q40 38 93 38zM1022 -475v191q63 -19 96 -19q26 0 41 16q20 23 20 94v1101h204v-1101q0 -174 -82 -246q-64 -56 -155 -56q-55 0 -124 20z" />
    <glyph glyph-name="uni01CD" unicode="&#x1cd;" horiz-adv-x="1292" 
d="M938 352h-586l-129 -352h-223l515 1365h262l515 -1365h-224zM644 1145l-219 -595h440zM462 1819l184 -180l183 180l153 -77l-266 -292h-140l-267 292z" />
    <glyph glyph-name="uni01CE" unicode="&#x1ce;" horiz-adv-x="1117" 
d="M1001 908v-908h-204v79q-139 -107 -280 -107q-113 0 -219 61q-113 65 -176 176q-65 113 -65 246q0 219 159 361q135 120 301 120q140 0 280 -107v79h204zM529 751q-114 0 -194 -86q-72 -78 -72 -210q0 -151 92 -232q75 -66 178 -66q119 0 195 84q72 79 72 216
q0 150 -91 229q-74 65 -180 65zM345 1409l184 -180l184 180l153 -77l-267 -292h-139l-267 292z" />
    <glyph glyph-name="uni01CF" unicode="&#x1cf;" horiz-adv-x="513" 
d="M150 1365h213v-1365h-213v1365zM73 1819l184 -180l183 180l153 -77l-267 -292h-139l-267 292z" />
    <glyph glyph-name="uni01D0" unicode="&#x1d0;" horiz-adv-x="436" 
d="M116 908h204v-908h-204v908zM35 1409l184 -180l183 180l153 -77l-267 -292h-139l-267 292z" />
    <glyph glyph-name="uni01D1" unicode="&#x1d1;" horiz-adv-x="1562" 
d="M780 1393q190 0 350 -94q166 -97 263 -262q96 -165 96 -355t-97 -356q-94 -163 -261 -259q-166 -95 -348 -95q-270 0 -473 182q-238 211 -238 537q0 185 96 346q101 168 263 262q163 94 349 94zM777 1193q-212 0 -358 -164q-131 -146 -131 -355q0 -167 100 -300
q77 -104 195 -158q97 -44 197 -44q124 0 240 66t185 184q68 119 68 260q0 230 -168 385q-138 126 -328 126zM597 1819l183 -180l184 180l153 -77l-267 -292h-139l-267 292z" />
    <glyph glyph-name="uni01D2" unicode="&#x1d2;" horiz-adv-x="1070" 
d="M542 936q208 0 347 -156q123 -136 123 -325q0 -221 -159 -364q-134 -119 -318 -119q-214 0 -354 155q-124 136 -124 327q0 185 114 317q144 165 371 165zM530 751q-115 0 -195 -86q-72 -78 -72 -210q0 -149 92 -232q75 -66 179 -66q122 0 200 86q72 79 72 214
q0 146 -91 227q-74 67 -185 67zM351 1409l184 -180l183 180l153 -77l-267 -292h-139l-267 292z" />
    <glyph glyph-name="uni01D3" unicode="&#x1d3;" horiz-adv-x="1307" 
d="M150 484v881h213v-842q0 -88 8 -138q8 -49 28 -84q33 -56 104 -92q70 -37 150 -37q117 0 205 73q51 42 68 98q17 57 17 180v842h213v-881q0 -171 -59 -272q-62 -105 -172 -167q-124 -73 -272 -73q-204 0 -351 129q-82 70 -117 160t-35 223zM469 1819l184 -180l184 180
l153 -77l-267 -292h-139l-267 292z" />
    <glyph glyph-name="uni01D4" unicode="&#x1d4;" horiz-adv-x="1043" 
d="M927 908v-908h-204v66q-97 -94 -231 -94q-148 0 -254 94q-66 58 -94.5 140.5t-28.5 212.5v489h204v-473q0 -135 33 -195q44 -80 160 -80q57 0 106 24.5t71 64.5q34 61 34 205v454h204zM338 1409l183 -180l184 180l153 -77l-267 -292h-139l-267 292z" />
    <glyph glyph-name="Gcaron" unicode="&#x1e6;" horiz-adv-x="1488" 
d="M803 537v198h609v-103q0 -206 -90 -371q-73 -132 -208 -208q-144 -81 -323 -81q-200 0 -365 96q-164 94 -258 258q-96 166 -96 356q0 188 95 354q96 169 261 263q163 94 357 94q245 0 429 -151q24 -20 96 -89l-148 -144q-74 75 -128 112q-108 72 -248 72
q-224 0 -368 -162q-130 -146 -130 -350q0 -232 166 -382q140 -127 334 -127q208 0 322 146q63 81 82 219h-389zM606 1819l183 -180l184 180l153 -77l-267 -292h-139l-267 292z" />
    <glyph glyph-name="gcaron" unicode="&#x1e7;" horiz-adv-x="1117" 
d="M797 908h204v-925q0 -237 -148 -369q-135 -120 -336 -120q-210 0 -353 131q-23 22 -84 92l133 133q17 -18 24 -27q60 -70 97 -94q77 -50 178 -50q141 0 216 84q69 78 69 220v96q-122 -107 -271 -107q-122 0 -228 61q-112 64 -176 176q-65 113 -65 246q0 220 159 361
q135 120 311 120q145 0 270 -107v79zM529 751q-115 0 -194 -85q-72 -80 -72 -211q0 -151 92 -232q75 -66 178 -66q116 0 193 83q72 80 72 217q0 149 -91 230q-71 64 -178 64zM346 1409l184 -180l183 180l153 -77l-267 -292h-139l-267 292z" />
    <glyph glyph-name="uni01F4" unicode="&#x1f4;" horiz-adv-x="1488" 
d="M803 537v198h609v-103q0 -206 -90 -371q-73 -132 -208 -208q-144 -81 -323 -81q-200 0 -365 96q-164 94 -258 258q-96 166 -96 356q0 188 95 354q96 169 261 263q163 94 357 94q245 0 429 -151q24 -20 96 -89l-148 -144q-74 75 -128 112q-108 72 -248 72
q-224 0 -368 -162q-130 -146 -130 -350q0 -232 166 -382q140 -127 334 -127q208 0 322 146q63 81 82 219h-389zM894 1833l195 -105l-295 -297l-135 78z" />
    <glyph glyph-name="uni01F5" unicode="&#x1f5;" horiz-adv-x="1117" 
d="M797 908h204v-925q0 -237 -148 -369q-135 -120 -336 -120q-210 0 -353 131q-23 22 -84 92l133 133q17 -18 24 -27q60 -70 97 -94q77 -50 178 -50q141 0 216 84q69 78 69 220v96q-122 -107 -271 -107q-122 0 -228 61q-112 64 -176 176q-65 113 -65 246q0 220 159 361
q135 120 311 120q145 0 270 -107v79zM529 751q-115 0 -194 -85q-72 -80 -72 -211q0 -151 92 -232q75 -66 178 -66q116 0 193 83q72 80 72 217q0 149 -91 230q-71 64 -178 64zM631 1423l195 -104l-296 -297l-135 77z" />
    <glyph glyph-name="Aringacute" unicode="&#x1fa;" horiz-adv-x="1292" 
d="M560 1808l-127 72l236 325l195 -105l-283 -285q30 10 62 10q99 0 160 -69q53 -59 53 -136q0 -92 -68 -152q-62 -54 -142 -54q-96 0 -157 69q-53 59 -53 137q0 60 34.5 112t89.5 76zM645 1725q-44 0 -74.5 -31t-30.5 -76q0 -41 32 -73q31 -31 74 -31q44 0 75 31t31 75
t-31 74.5t-76 30.5zM938 352h-586l-129 -352h-223l515 1365h262l515 -1365h-224zM644 1145l-219 -595h440z" />
    <glyph glyph-name="aringacute" unicode="&#x1fb;" horiz-adv-x="1117" 
d="M1001 908v-908h-204v79q-139 -107 -280 -107q-113 0 -219 61q-113 65 -176 176q-65 113 -65 246q0 219 159 361q135 120 301 120q140 0 280 -107v79h204zM529 751q-114 0 -194 -86q-72 -78 -72 -210q0 -151 92 -232q75 -66 178 -66q119 0 195 84q72 79 72 216
q0 150 -91 229q-74 65 -180 65zM555 1411q95 0 158 -70q53 -58 53 -136q0 -90 -68 -152q-60 -54 -142 -54q-86 0 -148 60q-62 62 -62 149q0 86 69 149q59 54 140 54zM555 1311q-43 0 -74 -31.5t-31 -75.5q0 -43 31.5 -74t74.5 -31q44 0 75 31t31 75t-31 75t-76 31zM579 1833
l195 -105l-295 -297l-135 78z" />
    <glyph glyph-name="AEacute" unicode="&#x1fc;" horiz-adv-x="1719" 
d="M884 0v352h-468l-180 -352h-237l711 1365h917v-196h-530v-378h471v-198h-471v-395h550v-198h-763zM518 550h366v619h-49zM1168 1833l195 -105l-296 -297l-135 78z" />
    <glyph glyph-name="aeacute" unicode="&#x1fd;" horiz-adv-x="1674" 
d="M1432 303l175 -73q-151 -258 -426 -258q-197 0 -332 144q-102 -144 -361 -144q-168 0 -283 65q-148 85 -148 252q0 165 141 247q100 58 259 58h250q-36 162 -232 162q-147 0 -283 -104l-104 133q104 83 196 117t212 34t211 -39t135 -110q137 149 328 149q198 0 322 -141
q124 -140 124 -366q0 -29 -1 -53h-686q15 -74 52 -124q71 -95 203 -95q71 0 132.5 31t96.5 86zM713 303v133h-228q-224 0 -224 -144q0 -139 227 -139q225 0 225 150zM929 534h483q-19 83 -64 139q-66 82 -176 82q-92 0 -157.5 -59t-85.5 -162zM930 1423l195 -104l-295 -297
l-135 77z" />
    <glyph glyph-name="Oslashacute" unicode="&#x1fe;" horiz-adv-x="1577" 
d="M97 108l136 136q-153 192 -153 437q0 189 96 356q95 165 263 262q163 94 350 94q246 0 440 -157l134 134l117 -113l-137 -136q154 -193 154 -438q0 -191 -97 -357q-95 -165 -261 -259q-166 -95 -351 -95q-245 0 -441 157l-134 -134zM383 392l701 699q-136 102 -292 102
q-220 0 -365 -163q-131 -148 -131 -354q0 -148 87 -284zM1194 973l-700 -698q133 -103 293 -103q126 0 241 66q116 66 185 184q68 119 68 264q0 150 -87 287zM893 1833l195 -105l-295 -297l-135 78z" />
    <glyph glyph-name="oslashacute" unicode="&#x1ff;" horiz-adv-x="1097" 
d="M174 -5l-103 100l85 82q-85 127 -85 275q0 222 159 365q134 119 320 119q166 0 293 -100l80 77l103 -100l-84 -81q84 -123 84 -277q0 -221 -159 -364q-134 -119 -321 -119q-159 0 -292 100zM794 591l-401 -387q67 -47 155 -47q123 0 199 85q73 79 73 215q0 74 -26 134z
M303 317l402 387q-68 47 -155 47q-124 0 -201 -86q-72 -79 -72 -211q0 -70 26 -137zM654 1423l195 -104l-296 -297l-135 77z" />
    <glyph glyph-name="uni0200" unicode="&#x200;" horiz-adv-x="1292" 
d="M938 352h-586l-129 -352h-223l515 1365h262l515 -1365h-224zM644 1145l-219 -595h440zM786 1431l-295 297l187 105l235 -324zM499 1431l-295 297l187 105l236 -324z" />
    <glyph glyph-name="uni0201" unicode="&#x201;" horiz-adv-x="1117" 
d="M995 908v-908h-204v79q-139 -107 -280 -107q-113 0 -219 61q-113 65 -176 176q-65 113 -65 246q0 219 159 361q135 120 301 120q140 0 280 -107v79h204zM523 751q-114 0 -194 -86q-72 -78 -72 -210q0 -151 92 -232q75 -66 178 -66q119 0 195 84q72 79 72 216
q0 150 -91 229q-73 65 -180 65zM618 1021l-295 297l187 106l235 -324zM331 1021l-295 297l187 106l236 -324z" />
    <glyph glyph-name="Scommaaccent" unicode="&#x218;" horiz-adv-x="1054" 
d="M949 1145l-172 -109q-47 72 -84 104q-61 55 -150 55q-101 0 -158 -66q-48 -55 -48 -124q0 -109 173 -177l130 -49q207 -79 279 -195q51 -80 51 -183q0 -188 -141 -314q-128 -115 -312 -115q-149 0 -265 81q-135 95 -184 312l207 54q3 -16 8 -32q22 -88 59 -134
q67 -82 178 -82q108 0 177 77q58 64 58 151q0 56 -29 94q-40 53 -181 108l-124 48q-295 114 -295 357q0 171 124 280q122 107 299 107q193 0 319 -137q38 -40 81 -111zM319 -376l200 314l187 -81l-242 -306z" />
    <glyph glyph-name="scommaaccent" unicode="&#x219;" horiz-adv-x="777" 
d="M47 237l169 69q42 -85 80 -117q38 -33 95 -33q66 0 97 39q28 32 28 73q0 27 -15 48q-17 24 -116 61l-93 36q-197 77 -197 244q0 122 90 200q91 79 219 79q197 0 302 -198l-160 -81q-37 55 -68.5 76.5t-76.5 21.5q-49 0 -80 -25.5t-31 -66.5q0 -27 14 -47q16 -20 115 -59
l84 -32q114 -44 165.5 -103t51.5 -146q0 -133 -100 -221q-94 -83 -231 -83q-124 0 -207.5 65t-134.5 200zM386 -483l-150 47l110 374l195 -60z" />
    <glyph glyph-name="uni021A" unicode="&#x21a;" horiz-adv-x="894" 
d="M894 1365v-196h-340v-1169h-213v1169h-341v196h894zM414 -483l-150 47l110 374l195 -60z" />
    <glyph glyph-name="uni021B" unicode="&#x21b;" horiz-adv-x="532" 
d="M332 908h144v-184h-144v-438q0 -58 14.5 -83.5t46.5 -25.5q31 0 96 18v-191q-69 -20 -124 -20q-107 0 -171 72q-66 74 -66 230v438h-97v184h97v201l204 81v-282zM259 -483l-150 47l111 374l195 -60z" />
    <glyph glyph-name="uni0226" unicode="&#x226;" horiz-adv-x="1292" 
d="M938 352h-586l-129 -352h-223l515 1365h262l515 -1365h-224zM644 1145l-219 -595h440zM645 1749q54 0 94 -38q38 -38 38 -92t-38 -92q-40 -38 -95 -38q-54 0 -92 39q-38 38 -38 93q0 53 39 90q40 38 92 38z" />
    <glyph glyph-name="uni0227" unicode="&#x227;" horiz-adv-x="1117" 
d="M1001 908v-908h-204v79q-139 -107 -280 -107q-113 0 -219 61q-113 65 -176 176q-65 113 -65 246q0 219 159 361q135 120 301 120q140 0 280 -107v79h204zM529 751q-114 0 -194 -86q-72 -78 -72 -210q0 -151 92 -232q75 -66 178 -66q119 0 195 84q72 79 72 216
q0 150 -91 229q-74 65 -180 65zM529 1344q54 0 94 -38q38 -38 38 -92t-38 -92q-40 -38 -93 -38q-56 0 -94 38t-38 94q0 52 39 90q40 38 92 38z" />
    <glyph glyph-name="uni0237" unicode="&#x237;" horiz-adv-x="456" 
d="M-20 -475v191q63 -19 95 -19q28 0 41 16q20 23 20 94v1101h204v-1101q0 -174 -82 -246q-64 -56 -155 -56q-55 0 -123 20z" />
    <glyph glyph-name="uni02BB" unicode="&#x2bb;" horiz-adv-x="509" 
d="M454 1410l-188 -520l-185 67l228 511z" />
    <glyph glyph-name="afii57929" unicode="&#x2bc;" horiz-adv-x="580" 
d="M102 947l188 522l187 -68l-228 -513z" />
    <glyph glyph-name="circumflex" unicode="&#x2c6;" horiz-adv-x="975" 
d="M671 1023l-183 180l-184 -180l-153 76l267 293h139l267 -293z" />
    <glyph glyph-name="caron" unicode="&#x2c7;" horiz-adv-x="975" 
d="M304 1409l184 -180l183 180l153 -77l-267 -292h-139l-267 292z" />
    <glyph glyph-name="uni02C9" unicode="&#x2c9;" horiz-adv-x="975" 
d="M181 1118v183h613v-183h-613z" />
    <glyph glyph-name="breve" unicode="&#x2d8;" horiz-adv-x="975" 
d="M190 1349l177 14q1 -13 1 -28q3 -51 18 -76q35 -56 97 -56q74 0 107 71q8 18 19 89l176 -15q-10 -102 -37 -154q-84 -166 -263 -166q-133 0 -218 93q-45 49 -59 94q-16 45 -18 134z" />
    <glyph glyph-name="dotaccent" unicode="&#x2d9;" horiz-adv-x="975" 
d="M487 1344q54 0 94 -38q38 -38 38 -92t-38 -92q-40 -38 -93 -38q-56 0 -94 38t-38 94q0 52 39 90q40 38 92 38z" />
    <glyph glyph-name="ring" unicode="&#x2da;" horiz-adv-x="975" 
d="M486 1416q95 0 158 -69q53 -59 53 -137q0 -90 -68 -152q-60 -54 -142 -54q-88 0 -148 60q-62 62 -62 149q0 86 69 149q59 54 140 54zM486 1316q-43 0 -74 -31.5t-31 -75.5q0 -43 31.5 -74t74.5 -31q44 0 75 31t31 75t-31 75t-76 31z" />
    <glyph glyph-name="ogonek" unicode="&#x2db;" horiz-adv-x="975" 
d="M693 0h204q-74 -94 -74 -134q0 -29 36 -29q37 0 96 22l60 -152q-102 -39 -172 -39q-99 0 -160 67q-46 50 -46 120q0 65 56 145z" />
    <glyph glyph-name="tilde" unicode="&#x2dc;" horiz-adv-x="975" 
d="M625 1344l170 -39q-17 -221 -188 -221q-76 0 -151 42q-50 27 -75 27q-13 0 -19.5 -14.5t-15.5 -63.5l-166 39q9 89 45 145q49 76 146 76q68 0 154 -46q44 -23 72 -23q21 0 28 78z" />
    <glyph glyph-name="hungarumlaut" unicode="&#x2dd;" horiz-adv-x="975" 
d="M452 1424l180 -102l-299 -301l-116 79zM750 1424l176 -106l-295 -297l-119 74z" />
    <glyph glyph-name="uni0309" unicode="&#x309;" horiz-adv-x="975" 
d="M398 1647l-60 152q102 38 177 38q105 0 161 -62q40 -43 40 -103q0 -58 -36 -113l-31 -49q-11 -17 -11 -43v-17h-184q1 50 8 73q6 21 26 50l19 27q22 31 22 43q0 26 -34 26t-97 -22z" />
    <glyph glyph-name="uni0323" unicode="&#x323;" horiz-adv-x="975" 
d="M487 -98q54 0 94 -38q38 -38 38 -93q0 -54 -38 -92q-40 -38 -95 -38t-93 38q-38 40 -38 94q0 53 39 91q40 38 93 38z" />
    <glyph glyph-name="uni037E" unicode="&#x37e;" horiz-adv-x="502" 
d="M35 -287l188 522l187 -68l-228 -513zM286 878q55 0 93 -37q38 -38 38 -92q0 -53 -38 -91q-40 -38 -94 -38t-92 38t-38 93q0 53 39 90q37 37 92 37z" />
    <glyph glyph-name="uni0387" unicode="&#x387;" horiz-adv-x="497" 
d="M248 813q55 0 93 -37q38 -38 38 -92t-38 -92q-40 -38 -94 -38q-55 0 -92 39q-38 38 -38 93q0 52 39 90q37 37 92 37z" />
    <glyph glyph-name="uni1E1E" unicode="&#x1e1e;" horiz-adv-x="907" 
d="M846 1365v-196h-483v-378h441v-198h-441v-593h-213v1365h696zM498 1749q54 0 94 -38q38 -38 38 -92t-38 -92q-40 -38 -95 -38t-92 39q-38 38 -38 93q0 53 39 90q38 38 92 38z" />
    <glyph glyph-name="uni1E1F" unicode="&#x1e1f;" horiz-adv-x="530" 
d="M503 908v-184h-160v-724h-204v724h-88v184h88v171q0 174 82 246q64 56 159 56q56 0 120 -16v-184q-54 14 -81 14q-76 0 -76 -116v-171h160zM328 1743q54 0 94 -38q38 -38 38 -92t-38 -92q-40 -38 -93 -38q-55 0 -93.5 38.5t-38.5 93.5q0 53 39 90q38 38 92 38z" />
    <glyph glyph-name="Wgrave" unicode="&#x1e80;" horiz-adv-x="1797" 
d="M0 1365h222l288 -1009l298 1009h181l298 -1009l289 1009h221l-409 -1365h-102h-99l-288 969l-289 -969h-98h-102zM908 1431l-296 297l195 105l236 -324z" />
    <glyph glyph-name="wgrave" unicode="&#x1e81;" horiz-adv-x="1360" 
d="M-12 908h219l196 -578l196 578h163l196 -578l196 578h219l-334 -908h-164l-195 571l-195 -571h-163zM676 1022l-295 297l194 104l236 -324z" />
    <glyph glyph-name="Wacute" unicode="&#x1e82;" horiz-adv-x="1797" 
d="M0 1365h222l288 -1009l298 1009h181l298 -1009l289 1009h221l-409 -1365h-102h-99l-288 969l-289 -969h-98h-102zM1004 1833l194 -105l-295 -297l-135 78z" />
    <glyph glyph-name="wacute" unicode="&#x1e83;" horiz-adv-x="1364" 
d="M-12 908h219l196 -578l196 578h163l196 -578l196 578h219l-334 -908h-164l-195 571l-195 -571h-163zM724 1423l195 -104l-295 -297l-135 77z" />
    <glyph glyph-name="Wdieresis" unicode="&#x1e84;" horiz-adv-x="1797" 
d="M0 1365h222l288 -1009l298 1009h181l298 -1009l289 1009h221l-409 -1365h-102h-99l-288 969l-289 -969h-98h-102zM1087 1749q53 0 93 -38q38 -38 38 -92t-38 -92q-40 -38 -94 -38q-56 0 -93 39q-38 38 -38 93q0 53 39 90q40 38 93 38zM710 1749q54 0 94 -38
q38 -38 38 -92t-38 -92q-40 -38 -95 -38t-92 39q-38 38 -38 93q0 53 39 90q40 38 92 38z" />
    <glyph glyph-name="wdieresis" unicode="&#x1e85;" horiz-adv-x="1360" 
d="M-12 908h219l196 -578l196 578h163l196 -578l196 578h219l-334 -908h-164l-195 571l-195 -571h-163zM869 1344q53 0 93 -38q38 -38 38 -92t-38 -92q-40 -38 -94 -38q-56 0 -93 39q-38 38 -38 93q0 52 39 90q40 38 93 38zM492 1344q54 0 94 -38q38 -38 38 -92t-38 -92
q-40 -38 -93 -38q-55 0 -93.5 38t-38.5 94q0 52 39 90q40 38 92 38z" />
    <glyph glyph-name="uni1EA0" unicode="&#x1ea0;" horiz-adv-x="1292" 
d="M938 352h-586l-129 -352h-223l515 1365h262l515 -1365h-224zM644 1145l-219 -595h440zM645 -97q54 0 94 -38q38 -38 38 -92t-38 -92q-40 -38 -93 -38q-56 0 -94 38.5t-38 93.5q0 53 39 90q40 38 92 38z" />
    <glyph glyph-name="uni1EA1" unicode="&#x1ea1;" horiz-adv-x="1117" 
d="M1001 908v-908h-204v79q-139 -107 -280 -107q-113 0 -219 61q-113 65 -176 176q-65 113 -65 246q0 219 159 361q135 120 301 120q140 0 280 -107v79h204zM529 751q-114 0 -194 -86q-72 -78 -72 -210q0 -151 92 -232q75 -66 178 -66q119 0 195 84q72 79 72 216
q0 150 -91 229q-74 65 -180 65zM553 -97q54 0 94 -38q38 -38 38 -92t-38 -92q-40 -38 -95 -38q-54 0 -92 38q-38 40 -38 94q0 53 39 90q40 38 92 38z" />
    <glyph glyph-name="uni1EA2" unicode="&#x1ea2;" horiz-adv-x="1292" 
d="M938 352h-586l-129 -352h-223l515 1365h262l515 -1365h-224zM644 1145l-219 -595h440zM513 1647l-60 152q102 38 177 38q105 0 161 -62q40 -43 40 -103q0 -58 -36 -113l-32 -49q-11 -19 -11 -42q0 -9 1 -18h-184q2 52 7 72q6 21 26 51l20 27q22 31 22 43q0 26 -34 26
t-97 -22z" />
    <glyph glyph-name="uni1EA3" unicode="&#x1ea3;" horiz-adv-x="1117" 
d="M1001 908v-908h-204v79q-139 -107 -280 -107q-113 0 -219 61q-113 65 -176 176q-65 113 -65 246q0 219 159 361q135 120 301 120q140 0 280 -107v79h204zM529 751q-114 0 -194 -86q-72 -78 -72 -210q0 -151 92 -232q75 -66 178 -66q119 0 195 84q72 79 72 216
q0 150 -91 229q-74 65 -180 65zM407 1225l-61 152q102 38 178 38q105 0 161 -62q40 -43 40 -103q0 -57 -37 -113l-31 -49q-11 -17 -11 -43v-17h-183q2 54 7 73q6 21 26 50l19 27q23 34 23 43q0 26 -34 26t-97 -22z" />
    <glyph glyph-name="uni1EA4" unicode="&#x1ea4;" horiz-adv-x="1292" 
d="M1157 1840l-249 -250l74 -81l-153 -77l-183 180l-184 -180l-153 77l267 292h140l79 -87l167 231zM938 352h-586l-129 -352h-223l515 1365h262l515 -1365h-224zM644 1145l-219 -595h440z" />
    <glyph glyph-name="uni1EA5" unicode="&#x1ea5;" horiz-adv-x="1117" 
d="M713 989l-184 180l-184 -180l-152 77l267 292h139l267 -292zM1001 908v-908h-204v79q-139 -107 -280 -107q-113 0 -219 61q-113 65 -176 176q-65 113 -65 246q0 219 159 361q135 120 301 120q140 0 280 -107v79h204zM529 751q-114 0 -194 -86q-72 -78 -72 -210
q0 -151 92 -232q75 -66 178 -66q119 0 195 84q72 79 72 216q0 150 -91 229q-74 65 -180 65zM911 1633l195 -105l-296 -297l-135 78z" />
    <glyph glyph-name="uni1EA6" unicode="&#x1ea6;" horiz-adv-x="1292" 
d="M938 352h-586l-129 -352h-223l515 1365h262l515 -1365h-224zM644 1145l-219 -595h440zM829 1432l-183 180l-184 -180l-153 77l267 292h140l266 -292zM1035 1544l-295 297l195 105l236 -325z" />
    <glyph glyph-name="uni1EA7" unicode="&#x1ea7;" horiz-adv-x="1117" 
d="M1001 908v-908h-204v79q-139 -107 -280 -107q-113 0 -219 61q-113 65 -176 176q-65 113 -65 246q0 219 159 361q135 120 301 120q140 0 280 -107v79h204zM529 751q-114 0 -194 -86q-72 -78 -72 -210q0 -151 92 -232q75 -66 178 -66q119 0 195 84q72 79 72 216
q0 150 -91 229q-74 65 -180 65zM713 989l-184 180l-184 -180l-152 77l267 292h139l267 -292zM796 1231l-296 297l195 105l236 -324z" />
    <glyph glyph-name="uni1EA8" unicode="&#x1ea8;" horiz-adv-x="1292" 
d="M716 1801l168 -185l3 6q7 28 24 51l19 28q23 32 23 43q0 25 -34 25t-97 -22l-61 152q101 39 178 39q105 0 161 -62q40 -43 40 -104q0 -56 -36 -113l-32 -49q-11 -19 -11 -42q0 -9 1 -18h-118l38 -42l-153 -76l-183 180l-184 -180l-153 76l267 293h140zM938 352h-586
l-129 -352h-223l515 1365h262l515 -1365h-224zM644 1145l-219 -595h440z" />
    <glyph glyph-name="uni1EA9" unicode="&#x1ea9;" horiz-adv-x="1117" 
d="M599 1358l100 -110q4 70 34 113l20 28q22 31 22 43q0 26 -34 26q-31 0 -97 -23l-61 152q101 39 178 39q105 0 161 -62q40 -43 40 -104q0 -56 -36 -113l-32 -49q-11 -19 -11 -42q0 -9 1 -18h-176l158 -173l-153 -76l-184 180l-184 -180l-152 76l267 293h139zM1001 908
v-908h-204v79q-139 -107 -280 -107q-113 0 -219 61q-113 65 -176 176q-65 113 -65 246q0 219 159 361q135 120 301 120q140 0 280 -107v79h204zM529 751q-114 0 -194 -86q-72 -78 -72 -210q0 -151 92 -232q75 -66 178 -66q119 0 195 84q72 79 72 216q0 150 -91 229
q-74 65 -180 65z" />
    <glyph glyph-name="uni1EAA" unicode="&#x1eaa;" horiz-adv-x="1292" 
d="M938 352h-586l-129 -352h-223l515 1365h262l515 -1365h-224zM644 1145l-219 -595h440zM829 1392l-183 181l-184 -181l-153 77l267 293h140l266 -293zM784 2047l169 -40q-18 -221 -188 -221q-76 0 -151 42q-48 27 -74 27q-14 0 -20.5 -14t-15.5 -64l-166 39
q23 221 192 221q68 0 153 -46q44 -23 72 -23q22 0 29 79z" />
    <glyph glyph-name="uni1EAB" unicode="&#x1eab;" horiz-adv-x="1117" 
d="M1001 908v-908h-204v79q-139 -107 -280 -107q-113 0 -219 61q-113 65 -176 176q-65 113 -65 246q0 219 159 361q135 120 301 120q140 0 280 -107v79h204zM529 751q-114 0 -194 -86q-72 -78 -72 -210q0 -151 92 -232q75 -66 178 -66q119 0 195 84q72 79 72 216
q0 150 -91 229q-74 65 -180 65zM666 1665l170 -39q-18 -221 -188 -221q-76 0 -151 42q-49 27 -75 27q-13 0 -19.5 -14.5t-15.5 -63.5l-166 39q9 89 45 145q49 76 146 76q66 0 154 -46q44 -23 72 -23q20 0 28 78zM712 989l-183 180l-184 -180l-153 77l267 292h139l267 -292z
" />
    <glyph glyph-name="uni1EAC" unicode="&#x1eac;" horiz-adv-x="1292" 
d="M938 352h-586l-129 -352h-223l515 1365h262l515 -1365h-224zM644 1145l-219 -595h440zM829 1432l-183 180l-184 -180l-153 77l267 292h140l266 -292zM645 -97q54 0 94 -38q38 -38 38 -92t-38 -92q-40 -38 -93 -38q-56 0 -94 38.5t-38 93.5q0 53 39 90q40 38 92 38z" />
    <glyph glyph-name="uni1EAD" unicode="&#x1ead;" horiz-adv-x="1117" 
d="M1001 908v-908h-204v79q-139 -107 -280 -107q-113 0 -219 61q-113 65 -176 176q-65 113 -65 246q0 219 159 361q135 120 301 120q140 0 280 -107v79h204zM529 751q-114 0 -194 -86q-72 -78 -72 -210q0 -151 92 -232q75 -66 178 -66q119 0 195 84q72 79 72 216
q0 150 -91 229q-74 65 -180 65zM537 -97q54 0 94 -38q38 -38 38 -92t-38 -92q-40 -38 -93 -38q-56 0 -94 38.5t-38 93.5q0 53 39 90q40 38 92 38zM713 1023l-184 180l-184 -180l-153 76l267 293h140l267 -293z" />
    <glyph glyph-name="uni1EAE" unicode="&#x1eae;" horiz-adv-x="1292" 
d="M349 1722l161 13l234 322l195 -105l-296 -297l-116 67q0 -9 1 -13q2 -51 18 -78q33 -56 97 -56q72 0 107 71q9 20 18 90l177 -14q-12 -105 -37 -155q-85 -166 -264 -166q-132 0 -218 93q-45 49 -59 94q-16 45 -18 134zM938 352h-586l-129 -352h-223l515 1365h262
l515 -1365h-224zM644 1145l-219 -595h440z" />
    <glyph glyph-name="uni1EAF" unicode="&#x1eaf;" horiz-adv-x="1117" 
d="M1001 908v-908h-204v79q-139 -107 -280 -107q-113 0 -219 61q-113 65 -176 176q-65 113 -65 246q0 219 159 361q135 120 301 120q140 0 280 -107v79h204zM529 751q-114 0 -194 -86q-72 -78 -72 -210q0 -151 92 -232q75 -66 178 -66q119 0 195 84q72 79 72 216
q0 150 -91 229q-74 65 -180 65zM235 1314l177 15q5 -75 14 -94q31 -67 103 -67t107 71q9 19 18 89l177 -14q-12 -106 -37 -154q-85 -166 -264 -166q-132 0 -218 92q-45 51 -59 95q-17 45 -18 133zM641 1678l195 -104l-296 -297l-135 77z" />
    <glyph glyph-name="uni1EB0" unicode="&#x1eb0;" horiz-adv-x="1292" 
d="M766 1724l1 5l-128 -74l-296 297l195 105l233 -321l174 -14q-12 -105 -37 -155q-85 -166 -264 -166q-132 0 -218 93q-45 49 -59 94q-16 45 -18 134l177 14q5 -75 14 -94q31 -67 103 -67q53 0 82.5 35.5t40.5 113.5zM938 352h-586l-129 -352h-223l515 1365h262l515 -1365
h-224zM644 1145l-219 -595h440z" />
    <glyph glyph-name="uni1EB1" unicode="&#x1eb1;" horiz-adv-x="1117" 
d="M1001 908v-908h-204v79q-139 -107 -280 -107q-113 0 -219 61q-113 65 -176 176q-65 113 -65 246q0 219 159 361q135 120 301 120q140 0 280 -107v79h204zM529 751q-114 0 -194 -86q-72 -78 -72 -210q0 -151 92 -232q75 -66 178 -66q119 0 195 84q72 79 72 216
q0 150 -91 229q-74 65 -180 65zM235 1314l177 15q5 -75 14 -94q31 -67 103 -67t107 71q9 19 18 89l177 -14q-12 -106 -37 -154q-85 -166 -264 -166q-132 0 -218 92q-45 51 -59 95q-17 45 -18 133zM518 1277l-296 297l195 104l236 -324z" />
    <glyph glyph-name="uni1EB2" unicode="&#x1eb2;" horiz-adv-x="1292" 
d="M349 1730l177 14l2 -33q3 -48 19 -73q33 -54 96 -54q72 0 107 71q9 19 18 89l177 -14q-12 -107 -37 -155q-85 -166 -264 -166q-132 0 -218 93q-45 49 -59 94q-16 45 -18 134zM488 1887l-60 152q102 38 177 38q105 0 161 -62q40 -43 40 -103q0 -58 -36 -113l-32 -49
q-11 -19 -11 -42q0 -8 1 -18h-185q3 79 34 123l20 27q22 31 22 43q0 26 -34 26t-97 -22zM938 352h-586l-129 -352h-223l515 1365h262l515 -1365h-224zM644 1145l-219 -595h440z" />
    <glyph glyph-name="uni1EB3" unicode="&#x1eb3;" horiz-adv-x="1117" 
d="M1001 908v-908h-204v79q-139 -107 -280 -107q-113 0 -219 61q-113 65 -176 176q-65 113 -65 246q0 219 159 361q135 120 301 120q140 0 280 -107v79h204zM529 751q-114 0 -194 -86q-72 -78 -72 -210q0 -151 92 -232q75 -66 178 -66q119 0 195 84q72 79 72 216
q0 150 -91 229q-74 65 -180 65zM235 1314l177 15q5 -75 14 -94q31 -67 103 -67t107 71q9 19 18 89l177 -14q-12 -106 -37 -154q-85 -166 -264 -166q-132 0 -218 92q-45 51 -59 95q-17 45 -18 133zM374 1525l-60 152q102 39 177 39q105 0 161 -62q40 -43 40 -104
q0 -56 -36 -112l-32 -50q-10 -16 -10 -59h-184q1 47 8 72q6 22 25 50l20 28q22 31 22 43q0 26 -34 26q-30 0 -97 -23z" />
    <glyph glyph-name="uni1EB4" unicode="&#x1eb4;" horiz-adv-x="1292" 
d="M938 352h-586l-129 -352h-223l515 1365h262l515 -1365h-224zM644 1145l-219 -595h440zM784 2047l169 -40q-18 -221 -188 -221q-76 0 -151 42q-48 27 -74 27q-14 0 -20.5 -14t-15.5 -64l-166 39q23 221 192 221q68 0 153 -46q44 -23 72 -23q22 0 29 79zM348 1730l177 14
q1 -12 1 -28q3 -51 18 -76q35 -56 98 -56q73 0 106 71q10 18 19 89l177 -14q-12 -107 -37 -155q-85 -166 -264 -166q-133 0 -218 93q-45 49 -59 94q-17 47 -18 134z" />
    <glyph glyph-name="uni1EB5" unicode="&#x1eb5;" horiz-adv-x="1117" 
d="M1001 908v-908h-204v79q-139 -107 -280 -107q-113 0 -219 61q-113 65 -176 176q-65 113 -65 246q0 219 159 361q135 120 301 120q140 0 280 -107v79h204zM529 751q-114 0 -194 -86q-72 -78 -72 -210q0 -151 92 -232q75 -66 178 -66q119 0 195 84q72 79 72 216
q0 150 -91 229q-74 65 -180 65zM667 1665l169 -39q-17 -221 -187 -221q-76 0 -151 42q-50 27 -75 27q-14 0 -20.5 -14.5t-14.5 -63.5l-166 39q9 89 45 145q49 76 146 76q66 0 154 -46q44 -23 71 -23q22 0 29 78zM232 1326l177 14q0 -5 0.5 -11t1 -10t0.5 -7q2 -52 18 -77
q32 -56 97 -56q74 0 107 72q8 20 18 89l177 -14q-12 -106 -37 -155q-85 -166 -264 -166q-133 0 -218 93q-45 49 -59 94q-17 47 -18 134z" />
    <glyph glyph-name="uni1EB6" unicode="&#x1eb6;" horiz-adv-x="1292" 
d="M938 352h-586l-129 -352h-223l515 1365h262l515 -1365h-224zM644 1145l-219 -595h440zM645 -97q54 0 94 -38q38 -38 38 -92t-38 -92q-40 -38 -93 -38q-56 0 -94 38.5t-38 93.5q0 53 39 90q40 38 92 38zM348 1758l177 15q3 -74 13 -94q31 -67 104 -67t106 71q10 18 19 89
l177 -14q-12 -104 -38 -154q-84 -166 -263 -166q-133 0 -218 93q-45 49 -59 94q-17 45 -18 133z" />
    <glyph glyph-name="uni1EB7" unicode="&#x1eb7;" horiz-adv-x="1117" 
d="M1001 908v-908h-204v79q-139 -107 -280 -107q-113 0 -219 61q-113 65 -176 176q-65 113 -65 246q0 219 159 361q135 120 301 120q140 0 280 -107v79h204zM529 751q-114 0 -194 -86q-72 -78 -72 -210q0 -151 92 -232q75 -66 178 -66q119 0 195 84q72 79 72 216
q0 150 -91 229q-74 65 -180 65zM537 -97q54 0 94 -38q38 -38 38 -92t-38 -92q-40 -38 -93 -38q-56 0 -94 38.5t-38 93.5q0 53 39 90q40 38 92 38zM231 1349l177 14q0 -5 0.5 -11t1 -10t0.5 -7q2 -51 18 -76q33 -56 97 -56q74 0 107 71q8 20 18 89l177 -15q-12 -106 -37 -154
q-85 -166 -264 -166q-132 0 -218 93q-45 49 -59 94q-16 45 -18 134z" />
    <glyph glyph-name="uni1EB8" unicode="&#x1eb8;" horiz-adv-x="984" 
d="M892 1365v-196h-529v-378h470v-198h-470v-395h549v-198h-762v1365h742zM558 -97q54 0 94 -38q38 -38 38 -92t-38 -92q-40 -38 -95 -38q-54 0 -92 38q-38 40 -38 94q0 53 39 90q40 38 92 38z" />
    <glyph glyph-name="uni1EB9" unicode="&#x1eb9;" horiz-adv-x="1012" 
d="M953 376h-686q15 -72 53 -124q71 -95 203 -95q71 0 132 31t97 86l18 29l176 -73q-153 -258 -424 -258q-210 0 -343 151q-122 140 -122 332q0 225 156 367q125 115 296 115q194 0 323 -144q67 -75 98 -185q24 -84 24 -174q0 -29 -1 -58zM267 534h484q-23 88 -65 140
q-64 82 -175 82q-93 0 -157.5 -58.5t-86.5 -163.5zM519 -97q54 0 94 -38q38 -38 38 -92t-38 -92q-40 -38 -95 -38q-54 0 -92 38q-38 40 -38 94q0 53 39 90q40 38 92 38z" />
    <glyph glyph-name="uni1EBA" unicode="&#x1eba;" horiz-adv-x="984" 
d="M892 1365v-196h-529v-378h470v-198h-470v-395h549v-198h-762v1365h742zM402 1647l-60 152q102 38 177 38q105 0 161 -62q40 -43 40 -103q0 -58 -36 -113l-32 -49q-10 -16 -10 -60h-184q1 47 8 72q6 24 25 51l20 27q22 31 22 43q0 26 -34 26t-97 -22z" />
    <glyph glyph-name="uni1EBB" unicode="&#x1ebb;" horiz-adv-x="1012" 
d="M953 376h-686q15 -72 53 -124q71 -95 203 -95q71 0 132 31t97 86l18 29l176 -73q-153 -258 -424 -258q-210 0 -343 151q-122 140 -122 332q0 225 156 367q125 115 296 115q194 0 323 -144q67 -75 98 -185q24 -84 24 -174q0 -29 -1 -58zM267 534h484q-23 88 -65 140
q-64 82 -175 82q-93 0 -157.5 -58.5t-86.5 -163.5zM383 1225l-60 152q102 38 177 38q105 0 161 -62q40 -43 40 -103q0 -58 -36 -113l-31 -49q-11 -17 -11 -60h-184q1 50 8 73q6 21 26 50l19 27q22 31 22 43q0 26 -34 26t-97 -22z" />
    <glyph glyph-name="uni1EBC" unicode="&#x1ebc;" horiz-adv-x="984" 
d="M892 1365v-196h-529v-378h470v-198h-470v-395h549v-198h-762v1365h742zM629 1754l169 -39q-17 -221 -188 -221q-76 0 -151 42q-47 26 -75 27q-21 2 -35 -78l-166 39q23 221 192 221q68 0 153 -46q44 -23 72 -23q22 0 29 78z" />
    <glyph glyph-name="uni1EBD" unicode="&#x1ebd;" horiz-adv-x="1012" 
d="M953 376h-686q15 -72 53 -124q71 -95 203 -95q71 0 132 31t97 86l18 29l176 -73q-153 -258 -424 -258q-210 0 -343 151q-122 140 -122 332q0 225 156 367q125 115 296 115q194 0 323 -144q67 -75 98 -185q24 -84 24 -174q0 -29 -1 -58zM267 534h484q-23 88 -65 140
q-64 82 -175 82q-93 0 -157.5 -58.5t-86.5 -163.5zM644 1344l169 -39q-17 -221 -188 -221q-76 0 -151 42q-46 26 -75 27q-21 2 -35 -78l-166 39q11 90 46 145q49 76 146 76q68 0 153 -46q44 -23 72 -23q21 0 29 78z" />
    <glyph glyph-name="uni1EBE" unicode="&#x1ebe;" horiz-adv-x="984" 
d="M1019 1840l-249 -250l75 -81l-153 -77l-184 180l-184 -180l-153 77l267 292h140l79 -87l167 231zM892 1365v-196h-529v-378h470v-198h-470v-395h549v-198h-762v1365h742z" />
    <glyph glyph-name="uni1EBF" unicode="&#x1ebf;" horiz-adv-x="1012" 
d="M891 1633l195 -105l-296 -297l-135 78zM693 989l-184 180l-183 -180l-153 77l267 292h139l267 -292zM953 376h-686q15 -72 53 -124q71 -95 203 -95q71 0 132 31t97 86l18 29l176 -73q-153 -258 -424 -258q-210 0 -343 151q-122 140 -122 332q0 225 156 367
q125 115 296 115q194 0 323 -144q67 -75 98 -185q24 -84 24 -174q0 -29 -1 -58zM267 534h484q-23 88 -65 140q-64 82 -175 82q-93 0 -157.5 -58.5t-86.5 -163.5z" />
    <glyph glyph-name="uni1EC0" unicode="&#x1ec0;" horiz-adv-x="984" 
d="M892 1365v-196h-529v-378h470v-198h-470v-395h549v-198h-762v1365h742zM898 1544l-296 297l195 105l236 -325zM691 1432l-183 180l-184 -180l-153 77l267 292h140l266 -292z" />
    <glyph glyph-name="uni1EC1" unicode="&#x1ec1;" horiz-adv-x="1012" 
d="M953 376h-686q15 -72 53 -124q71 -95 203 -95q71 0 132 31t97 86l18 29l176 -73q-153 -258 -424 -258q-210 0 -343 151q-122 140 -122 332q0 225 156 367q125 115 296 115q194 0 323 -144q67 -75 98 -185q24 -84 24 -174q0 -29 -1 -58zM267 534h484q-23 88 -65 140
q-64 82 -175 82q-93 0 -157.5 -58.5t-86.5 -163.5zM776 1231l-295 297l194 105l236 -324zM693 989l-184 180l-183 -180l-153 77l267 292h139l267 -292z" />
    <glyph glyph-name="uni1EC2" unicode="&#x1ec2;" horiz-adv-x="984" 
d="M578 1801l168 -184q8 29 27 56l20 28q22 31 22 42q0 26 -34 26t-97 -22l-61 152q100 39 178 39q105 0 161 -62q40 -43 40 -104q0 -56 -36 -113l-32 -49q-11 -19 -11 -42q0 -8 1 -18h-117l38 -42l-153 -76l-184 180l-184 -180l-153 76l267 293h140zM892 1365v-196h-529
v-378h470v-198h-470v-395h549v-198h-762v1365h742z" />
    <glyph glyph-name="uni1EC3" unicode="&#x1ec3;" horiz-adv-x="1012" 
d="M579 1358l100 -110q4 70 34 113l20 28q22 31 22 43q0 26 -34 26q-31 0 -97 -23l-60 152q100 39 177 39q105 0 161 -62q40 -43 40 -104q0 -56 -36 -113l-32 -49q-11 -19 -11 -42q0 -9 1 -18h-176l158 -173l-153 -76l-184 180l-183 -180l-153 76l267 293h139zM953 376h-686
q15 -72 53 -124q71 -95 203 -95q71 0 132 31t97 86l18 29l176 -73q-153 -258 -424 -258q-210 0 -343 151q-122 140 -122 332q0 225 156 367q125 115 296 115q194 0 323 -144q67 -75 98 -185q24 -84 24 -174q0 -29 -1 -58zM267 534h484q-23 88 -65 140q-64 82 -175 82
q-93 0 -157.5 -58.5t-86.5 -163.5z" />
    <glyph glyph-name="uni1EC4" unicode="&#x1ec4;" horiz-adv-x="984" 
d="M892 1365v-196h-529v-378h470v-198h-470v-395h549v-198h-762v1365h742zM692 1392l-184 181l-184 -181l-153 77l267 293h140l267 -293zM646 2047l169 -40q-17 -221 -188 -221q-75 0 -150 42q-49 27 -75 27q-14 0 -20.5 -14t-14.5 -64l-166 39q23 221 191 221q68 0 153 -46
q44 -23 72 -23q22 0 29 79z" />
    <glyph glyph-name="uni1EC5" unicode="&#x1ec5;" horiz-adv-x="1012" 
d="M953 376h-686q15 -72 53 -124q71 -95 203 -95q71 0 132 31t97 86l18 29l176 -73q-153 -258 -424 -258q-210 0 -343 151q-122 140 -122 332q0 225 156 367q125 115 296 115q194 0 323 -144q67 -75 98 -185q24 -84 24 -174q0 -29 -1 -58zM267 534h484q-23 88 -65 140
q-64 82 -175 82q-93 0 -157.5 -58.5t-86.5 -163.5zM647 1665l169 -39q-17 -221 -188 -221q-75 0 -150 42q-50 27 -75 27q-14 0 -20.5 -14.5t-14.5 -63.5l-166 39q23 221 191 221q67 0 153 -46q46 -23 72 -23q22 0 29 78zM693 989l-184 180l-183 -180l-153 77l267 292h139
l267 -292z" />
    <glyph glyph-name="uni1EC6" unicode="&#x1ec6;" horiz-adv-x="984" 
d="M892 1365v-196h-529v-378h470v-198h-470v-395h549v-198h-762v1365h742zM558 -97q54 0 94 -38q38 -38 38 -92t-38 -92q-40 -38 -95 -38q-54 0 -92 38q-38 40 -38 94q0 53 39 90q40 38 92 38zM716 1432l-184 180l-184 -180l-153 77l267 292h140l266 -292z" />
    <glyph glyph-name="uni1EC7" unicode="&#x1ec7;" horiz-adv-x="1012" 
d="M953 376h-686q15 -72 53 -124q71 -95 203 -95q71 0 132 31t97 86l18 29l176 -73q-153 -258 -424 -258q-210 0 -343 151q-122 140 -122 332q0 225 156 367q125 115 296 115q194 0 323 -144q67 -75 98 -185q24 -84 24 -174q0 -29 -1 -58zM267 534h484q-23 88 -65 140
q-64 82 -175 82q-93 0 -157.5 -58.5t-86.5 -163.5zM519 -97q54 0 94 -38q38 -38 38 -92t-38 -92q-40 -38 -95 -38q-54 0 -92 38q-38 40 -38 94q0 53 39 90q38 38 92 38zM700 1023l-184 180l-184 -180l-153 76l267 293h140l266 -293z" />
    <glyph glyph-name="uni1EC8" unicode="&#x1ec8;" horiz-adv-x="513" 
d="M151 1365h212v-1365h-212v1365zM126 1647l-60 152q102 38 177 38q105 0 161 -62q40 -43 40 -103q0 -58 -36 -113l-31 -49q-11 -17 -11 -43v-17h-184q1 50 8 73q6 21 26 50l19 27q22 31 22 43q0 26 -34 26t-97 -22z" />
    <glyph glyph-name="uni1EC9" unicode="&#x1ec9;" horiz-adv-x="436" 
d="M116 908h204v-908h-204v908zM86 1225l-60 152q102 38 177 38q105 0 161 -62q40 -43 40 -103q0 -58 -36 -113l-31 -49q-11 -17 -11 -42v-18h-184q1 47 8 72q6 21 26 51l19 27q22 31 22 43q0 26 -34 26t-97 -22z" />
    <glyph glyph-name="uni1ECA" unicode="&#x1eca;" horiz-adv-x="513" 
d="M150 1365h212v-1365h-212v1365zM256 -97q54 0 94 -38q38 -38 38 -92t-38 -92q-40 -38 -93 -38q-55 0 -93.5 38.5t-38.5 93.5q0 53 39 90q40 38 92 38z" />
    <glyph glyph-name="uni1ECB" unicode="&#x1ecb;" horiz-adv-x="436" 
d="M116 908h204v-908h-204v908zM218 1344q54 0 94 -38q38 -38 38 -92q0 -55 -38 -93q-40 -38 -95 -38t-93 39q-38 38 -38 94q0 52 39 90q40 38 93 38zM218 -97q54 0 94 -38q38 -38 38 -92t-38 -92q-40 -38 -93 -38q-56 0 -94 38q-38 40 -38 94q0 53 39 90q40 38 92 38z" />
    <glyph glyph-name="uni1ECC" unicode="&#x1ecc;" horiz-adv-x="1562" 
d="M780 1393q190 0 350 -94q166 -97 263 -262q96 -165 96 -355t-97 -356q-94 -163 -261 -259q-166 -95 -348 -95q-270 0 -473 182q-238 211 -238 537q0 185 96 346q101 168 263 262q163 94 349 94zM777 1193q-212 0 -358 -164q-131 -146 -131 -355q0 -167 100 -300
q77 -104 195 -158q97 -44 197 -44q124 0 240 66t185 184q68 119 68 260q0 230 -168 385q-138 126 -328 126zM780 -97q54 0 94 -38q38 -38 38 -92t-38 -92q-40 -38 -93 -38q-55 0 -93.5 38.5t-38.5 93.5q0 53 39 90q40 38 92 38z" />
    <glyph glyph-name="uni1ECD" unicode="&#x1ecd;" horiz-adv-x="1070" 
d="M542 936q208 0 347 -156q123 -136 123 -325q0 -221 -159 -364q-134 -119 -318 -119q-214 0 -354 155q-124 136 -124 327q0 185 114 317q144 165 371 165zM530 751q-115 0 -195 -86q-72 -78 -72 -210q0 -149 92 -232q75 -66 179 -66q122 0 200 86q72 79 72 214
q0 146 -91 227q-74 67 -185 67zM535 -97q54 0 94 -38q38 -38 38 -92t-38 -92q-40 -38 -95 -38q-54 0 -92 38q-38 40 -38 94q0 53 39 90q40 38 92 38z" />
    <glyph glyph-name="uni1ECE" unicode="&#x1ece;" horiz-adv-x="1562" 
d="M780 1393q190 0 350 -94q166 -97 263 -262q96 -165 96 -355t-97 -356q-94 -163 -261 -259q-166 -95 -348 -95q-270 0 -473 182q-238 211 -238 537q0 185 96 346q101 168 263 262q163 94 349 94zM777 1193q-212 0 -358 -164q-131 -146 -131 -355q0 -167 100 -300
q77 -104 195 -158q97 -44 197 -44q124 0 240 66t185 184q68 119 68 260q0 230 -168 385q-138 126 -328 126zM651 1647l-60 152q102 38 178 38q104 0 161 -62q40 -43 40 -103q0 -56 -36 -113l-32 -49q-11 -17 -11 -42v-18h-183q2 52 7 72q6 21 26 51l19 27q23 34 23 43
q0 26 -34 26q-35 0 -98 -22z" />
    <glyph glyph-name="uni1ECF" unicode="&#x1ecf;" horiz-adv-x="1070" 
d="M542 936q208 0 347 -156q123 -136 123 -325q0 -221 -159 -364q-134 -119 -318 -119q-214 0 -354 155q-124 136 -124 327q0 185 114 317q144 165 371 165zM530 751q-115 0 -195 -86q-72 -78 -72 -210q0 -149 92 -232q75 -66 179 -66q122 0 200 86q72 79 72 214
q0 146 -91 227q-74 67 -185 67zM406 1225l-61 152q103 38 178 38q105 0 161 -62q40 -43 40 -103q0 -56 -36 -113l-32 -49q-11 -19 -11 -43q0 -8 1 -17h-184q1 50 8 73q4 20 25 50l20 27q22 31 22 43q0 26 -34 26t-97 -22z" />
    <glyph glyph-name="uni1ED0" unicode="&#x1ed0;" horiz-adv-x="1562" 
d="M1292 1840l-250 -250l75 -81l-153 -77l-184 173l-183 -173l-153 77l267 292h139l79 -87l168 231zM780 1393q190 0 350 -94q166 -97 263 -262q96 -165 96 -355t-97 -356q-94 -163 -261 -259q-166 -95 -348 -95q-270 0 -473 182q-238 211 -238 537q0 185 96 346
q101 168 263 262q163 94 349 94zM777 1193q-212 0 -358 -164q-131 -146 -131 -355q0 -167 100 -300q77 -104 195 -158q97 -44 197 -44q124 0 240 66t185 184q68 119 68 260q0 230 -168 385q-138 126 -328 126z" />
    <glyph glyph-name="uni1ED1" unicode="&#x1ed1;" horiz-adv-x="1070" 
d="M542 936q208 0 347 -156q123 -136 123 -325q0 -221 -159 -364q-134 -119 -318 -119q-214 0 -354 155q-124 136 -124 327q0 185 114 317q144 165 371 165zM530 751q-115 0 -195 -86q-72 -78 -72 -210q0 -149 92 -232q75 -66 179 -66q122 0 200 86q72 79 72 214
q0 146 -91 227q-74 67 -185 67zM718 989l-183 180l-184 -180l-153 77l267 292h139l267 -292zM916 1633l195 -105l-295 -297l-135 78z" />
    <glyph glyph-name="uni1ED2" unicode="&#x1ed2;" horiz-adv-x="1562" 
d="M780 1393q190 0 350 -94q166 -97 263 -262q96 -165 96 -355t-97 -356q-94 -163 -261 -259q-166 -95 -348 -95q-270 0 -473 182q-238 211 -238 537q0 185 96 346q101 168 263 262q163 94 349 94zM777 1193q-212 0 -358 -164q-131 -146 -131 -355q0 -167 100 -300
q77 -104 195 -158q97 -44 197 -44q124 0 240 66t185 184q68 119 68 260q0 230 -168 385q-138 126 -328 126zM964 1432l-184 180l-183 -180l-153 77l267 292h139l267 -292zM1170 1544l-296 297l195 105l236 -325z" />
    <glyph glyph-name="uni1ED3" unicode="&#x1ed3;" horiz-adv-x="1070" 
d="M542 936q208 0 347 -156q123 -136 123 -325q0 -221 -159 -364q-134 -119 -318 -119q-214 0 -354 155q-124 136 -124 327q0 185 114 317q144 165 371 165zM530 751q-115 0 -195 -86q-72 -78 -72 -210q0 -149 92 -232q75 -66 179 -66q122 0 200 86q72 79 72 214
q0 146 -91 227q-74 67 -185 67zM718 989l-183 180l-184 -180l-153 77l267 292h139l267 -292zM801 1231l-295 297l195 105l235 -324z" />
    <glyph glyph-name="uni1ED4" unicode="&#x1ed4;" horiz-adv-x="1562" 
d="M850 1801l168 -184q10 31 28 56l19 28q22 31 22 42q0 26 -34 26t-97 -22l-60 152q100 39 177 39q105 0 161 -62q40 -43 40 -104q0 -58 -36 -113l-31 -49q-11 -17 -11 -42v-18h-117l38 -42l-153 -76l-184 180l-183 -180l-153 76l267 293h139zM780 1393q190 0 350 -94
q166 -97 263 -262q96 -165 96 -355t-97 -356q-94 -163 -261 -259q-166 -95 -348 -95q-270 0 -473 182q-238 211 -238 537q0 185 96 346q101 168 263 262q163 94 349 94zM777 1193q-212 0 -358 -164q-131 -146 -131 -355q0 -167 100 -300q77 -104 195 -158q97 -44 197 -44
q124 0 240 66t185 184q68 119 68 260q0 230 -168 385q-138 126 -328 126z" />
    <glyph glyph-name="uni1ED5" unicode="&#x1ed5;" horiz-adv-x="1070" 
d="M604 1358l100 -110q4 68 34 113l20 28q22 31 22 43q0 26 -34 26q-31 0 -97 -23l-60 152q101 39 177 39q105 0 161 -62q40 -43 40 -104q0 -58 -36 -113l-31 -49q-11 -17 -11 -60h-175l157 -173l-153 -76l-183 180l-184 -180l-153 76l267 293h139zM542 936q208 0 347 -156
q123 -136 123 -325q0 -221 -159 -364q-134 -119 -318 -119q-214 0 -354 155q-124 136 -124 327q0 185 114 317q144 165 371 165zM530 751q-115 0 -195 -86q-72 -78 -72 -210q0 -149 92 -232q75 -66 179 -66q122 0 200 86q72 79 72 214q0 146 -91 227q-74 67 -185 67z" />
    <glyph glyph-name="uni1ED6" unicode="&#x1ed6;" horiz-adv-x="1562" 
d="M780 1393q190 0 350 -94q166 -97 263 -262q96 -165 96 -355t-97 -356q-94 -163 -261 -259q-166 -95 -348 -95q-270 0 -473 182q-238 211 -238 537q0 185 96 346q101 168 263 262q163 94 349 94zM777 1193q-212 0 -358 -164q-131 -146 -131 -355q0 -167 100 -300
q77 -104 195 -158q97 -44 197 -44q124 0 240 66t185 184q68 119 68 260q0 230 -168 385q-138 126 -328 126zM964 1392l-184 181l-183 -181l-153 77l267 293h139l267 -293zM918 2047l170 -40q-17 -221 -188 -221q-76 0 -151 42q-49 27 -75 27q-14 0 -20 -13.5t-15 -64.5
l-166 39q23 221 191 221q69 0 154 -46q44 -23 71 -23q22 0 29 79z" />
    <glyph glyph-name="uni1ED7" unicode="&#x1ed7;" horiz-adv-x="1070" 
d="M542 936q208 0 347 -156q123 -136 123 -325q0 -221 -159 -364q-134 -119 -318 -119q-214 0 -354 155q-124 136 -124 327q0 185 114 317q144 165 371 165zM530 751q-115 0 -195 -86q-72 -78 -72 -210q0 -149 92 -232q75 -66 179 -66q122 0 200 86q72 79 72 214
q0 146 -91 227q-74 67 -185 67zM672 1665l170 -39q-17 -221 -188 -221q-76 0 -151 42q-49 27 -75 27q-13 0 -19.5 -14.5t-15.5 -63.5l-166 39q23 221 191 221q66 0 154 -46q44 -23 72 -23q20 0 28 78zM718 989l-183 180l-184 -180l-153 77l267 292h139l267 -292z" />
    <glyph glyph-name="uni1ED8" unicode="&#x1ed8;" horiz-adv-x="1562" 
d="M780 1393q190 0 350 -94q166 -97 263 -262q96 -165 96 -355t-97 -356q-94 -163 -261 -259q-166 -95 -348 -95q-270 0 -473 182q-238 211 -238 537q0 185 96 346q101 168 263 262q163 94 349 94zM777 1193q-212 0 -358 -164q-131 -146 -131 -355q0 -167 100 -300
q77 -104 195 -158q97 -44 197 -44q124 0 240 66t185 184q68 119 68 260q0 230 -168 385q-138 126 -328 126zM964 1432l-184 180l-183 -180l-153 77l267 292h139l267 -292zM780 -97q54 0 94 -38q38 -38 38 -92t-38 -92q-40 -38 -93 -38q-55 0 -93.5 38.5t-38.5 93.5
q0 53 39 90q40 38 92 38z" />
    <glyph glyph-name="uni1ED9" unicode="&#x1ed9;" horiz-adv-x="1070" 
d="M542 936q208 0 347 -156q123 -136 123 -325q0 -221 -159 -364q-134 -119 -318 -119q-214 0 -354 155q-124 136 -124 327q0 185 114 317q144 165 371 165zM530 751q-115 0 -195 -86q-72 -78 -72 -210q0 -149 92 -232q75 -66 179 -66q122 0 200 86q72 79 72 214
q0 146 -91 227q-74 67 -185 67zM535 -97q54 0 94 -38q38 -38 38 -92t-38 -92q-40 -38 -95 -38q-54 0 -92 38q-38 40 -38 94q0 53 39 90q40 38 92 38zM718 1023l-183 180l-184 -180l-153 76l267 293h139l267 -293z" />
    <glyph glyph-name="uni1EDA" unicode="&#x1eda;" horiz-adv-x="1576" 
d="M1271 1192q91 43 91 119q0 45 -22 79q-21 32 -87 86l153 77q138 -99 138 -241q0 -156 -159 -262q104 -179 104 -367q0 -191 -97 -357q-94 -163 -261 -259q-166 -95 -351 -95t-351 95q-166 97 -260 259q-97 166 -97 356q0 188 96 355q95 165 263 262q163 94 350 94
q219 0 401 -128q39 -26 89 -73zM777 1193q-211 0 -358 -164q-131 -146 -131 -355q0 -167 100 -300q77 -104 195 -158q99 -44 198 -44q123 0 239 66q118 67 185 184q68 119 68 259q0 233 -168 386q-138 126 -328 126zM885 1833l195 -105l-295 -297l-135 78z" />
    <glyph glyph-name="uni1EDB" unicode="&#x1edb;" horiz-adv-x="1155" 
d="M990 603q22 -75 22 -150q0 -219 -159 -362q-134 -119 -319 -119q-213 0 -353 155q-124 136 -124 327q0 219 157 361q133 121 321 121q180 0 310 -112q35 -30 61 -63q47 36 47 94q0 44 -23 79q-21 33 -86 85l153 77q138 -99 138 -242q0 -149 -145 -251zM530 751
q-115 0 -195 -86q-72 -78 -72 -210q0 -149 92 -232q75 -66 179 -66q122 0 200 86q72 79 72 214q0 146 -91 227q-74 67 -185 67zM611 1423l194 -104l-295 -297l-135 77z" />
    <glyph glyph-name="uni1EDC" unicode="&#x1edc;" horiz-adv-x="1576" 
d="M1271 1192q91 43 91 119q0 45 -22 79q-21 32 -87 86l153 77q138 -99 138 -241q0 -156 -159 -262q104 -179 104 -367q0 -191 -97 -357q-94 -163 -261 -259q-166 -95 -351 -95t-351 95q-166 97 -260 259q-97 166 -97 356q0 188 96 355q95 165 263 262q163 94 350 94
q219 0 401 -128q39 -26 89 -73zM777 1193q-211 0 -358 -164q-131 -146 -131 -355q0 -167 100 -300q77 -104 195 -158q99 -44 198 -44q123 0 239 66q118 67 185 184q68 119 68 259q0 233 -168 386q-138 126 -328 126zM776 1431l-296 297l195 105l236 -324z" />
    <glyph glyph-name="uni1EDD" unicode="&#x1edd;" horiz-adv-x="1155" 
d="M990 603q22 -75 22 -150q0 -219 -159 -362q-134 -119 -319 -119q-213 0 -353 155q-124 136 -124 327q0 219 157 361q133 121 321 121q180 0 310 -112q35 -30 61 -63q47 36 47 94q0 44 -23 79q-21 33 -86 85l153 77q138 -99 138 -242q0 -149 -145 -251zM530 751
q-115 0 -195 -86q-72 -78 -72 -210q0 -149 92 -232q75 -66 179 -66q122 0 200 86q72 79 72 214q0 146 -91 227q-74 67 -185 67zM530 1022l-295 297l195 104l235 -324z" />
    <glyph glyph-name="uni1EDE" unicode="&#x1ede;" horiz-adv-x="1576" 
d="M1271 1192q91 43 91 119q0 45 -22 79q-21 32 -87 86l153 77q138 -99 138 -241q0 -156 -159 -262q104 -179 104 -367q0 -191 -97 -357q-94 -163 -261 -259q-166 -95 -351 -95t-351 95q-166 97 -260 259q-97 166 -97 356q0 188 96 355q95 165 263 262q163 94 350 94
q219 0 401 -128q39 -26 89 -73zM777 1193q-211 0 -358 -164q-131 -146 -131 -355q0 -167 100 -300q77 -104 195 -158q99 -44 198 -44q123 0 239 66q118 67 185 184q68 119 68 259q0 233 -168 386q-138 126 -328 126zM666 1647l-60 152q102 38 177 38q105 0 161 -62
q40 -43 40 -103q0 -58 -36 -113l-31 -49q-11 -17 -11 -42v-18h-184q1 47 8 72q6 24 25 51l20 27q22 31 22 43q0 26 -34 26t-97 -22z" />
    <glyph glyph-name="uni1EDF" unicode="&#x1edf;" horiz-adv-x="1155" 
d="M990 603q22 -75 22 -150q0 -219 -159 -362q-134 -119 -319 -119q-213 0 -353 155q-124 136 -124 327q0 219 157 361q133 121 321 121q180 0 310 -112q35 -30 61 -63q47 36 47 94q0 44 -23 79q-21 33 -86 85l153 77q138 -99 138 -242q0 -149 -145 -251zM530 751
q-115 0 -195 -86q-72 -78 -72 -210q0 -149 92 -232q75 -66 179 -66q122 0 200 86q72 79 72 214q0 146 -91 227q-74 67 -185 67zM417 1225l-60 152q102 38 177 38q105 0 161 -62q40 -43 40 -103q0 -58 -36 -113l-31 -49q-11 -17 -11 -60h-184q1 47 8 72q6 24 25 51l20 27
q22 31 22 43q0 26 -34 26t-97 -22z" />
    <glyph glyph-name="uni1EE0" unicode="&#x1ee0;" horiz-adv-x="1576" 
d="M1271 1192q91 43 91 119q0 45 -22 79q-21 32 -87 86l153 77q138 -99 138 -241q0 -156 -159 -262q104 -179 104 -367q0 -191 -97 -357q-94 -163 -261 -259q-166 -95 -351 -95t-351 95q-166 97 -260 259q-97 166 -97 356q0 188 96 355q95 165 263 262q163 94 350 94
q219 0 401 -128q39 -26 89 -73zM777 1193q-211 0 -358 -164q-131 -146 -131 -355q0 -167 100 -300q77 -104 195 -158q99 -44 198 -44q123 0 239 66q118 67 185 184q68 119 68 259q0 233 -168 386q-138 126 -328 126zM917 1754l170 -39q-17 -221 -188 -221q-76 0 -151 42
q-50 27 -75 27q-13 0 -19.5 -14.5t-15.5 -63.5l-166 39q9 89 45 145q49 76 146 76q68 0 154 -46q44 -23 72 -23q21 0 28 78z" />
    <glyph glyph-name="uni1EE1" unicode="&#x1ee1;" horiz-adv-x="1155" 
d="M990 603q22 -75 22 -150q0 -219 -159 -362q-134 -119 -319 -119q-213 0 -353 155q-124 136 -124 327q0 219 157 361q133 121 321 121q180 0 310 -112q35 -30 61 -63q47 36 47 94q0 44 -23 79q-21 33 -86 85l153 77q138 -99 138 -242q0 -149 -145 -251zM530 751
q-115 0 -195 -86q-72 -78 -72 -210q0 -149 92 -232q75 -66 179 -66q122 0 200 86q72 79 72 214q0 146 -91 227q-74 67 -185 67zM672 1344l170 -39q-17 -221 -188 -221q-76 0 -151 42q-47 26 -75 27q-21 2 -35 -78l-166 39q9 89 45 145q49 76 146 76q68 0 154 -46
q44 -23 72 -23q20 0 28 78z" />
    <glyph glyph-name="uni1EE2" unicode="&#x1ee2;" horiz-adv-x="1576" 
d="M1271 1192q91 43 91 119q0 45 -22 79q-21 32 -87 86l153 77q138 -99 138 -241q0 -156 -159 -262q104 -179 104 -367q0 -191 -97 -357q-94 -163 -261 -259q-166 -95 -351 -95t-351 95q-166 97 -260 259q-97 166 -97 356q0 188 96 355q95 165 263 262q163 94 350 94
q219 0 401 -128q39 -26 89 -73zM777 1193q-211 0 -358 -164q-131 -146 -131 -355q0 -167 100 -300q77 -104 195 -158q99 -44 198 -44q123 0 239 66q118 67 185 184q68 119 68 259q0 233 -168 386q-138 126 -328 126zM780 -97q54 0 94 -38q38 -38 38 -92t-38 -92
q-40 -38 -93 -38q-55 0 -93.5 38.5t-38.5 93.5q0 53 39 90q40 38 92 38z" />
    <glyph glyph-name="uni1EE3" unicode="&#x1ee3;" horiz-adv-x="1155" 
d="M990 603q22 -75 22 -150q0 -219 -159 -362q-134 -119 -319 -119q-213 0 -353 155q-124 136 -124 327q0 219 157 361q133 121 321 121q180 0 310 -112q35 -30 61 -63q47 36 47 94q0 44 -23 79q-21 33 -86 85l153 77q138 -99 138 -242q0 -149 -145 -251zM530 751
q-115 0 -195 -86q-72 -78 -72 -210q0 -149 92 -232q75 -66 179 -66q122 0 200 86q72 79 72 214q0 146 -91 227q-74 67 -185 67zM534 -97q54 0 94 -38q38 -38 38 -92t-38 -92q-40 -38 -95 -38q-54 0 -92 38q-38 40 -38 94q0 53 39 90q40 38 92 38z" />
    <glyph glyph-name="uni1EE4" unicode="&#x1ee4;" horiz-adv-x="1307" 
d="M150 484v881h213v-842q0 -88 8 -138q8 -49 28 -84q33 -56 104 -92q70 -37 150 -37q117 0 205 73q51 42 68 98q17 57 17 180v842h213v-881q0 -171 -59 -272q-62 -105 -172 -167q-124 -73 -272 -73q-204 0 -351 129q-82 70 -117 160t-35 223zM653 -97q54 0 94 -38
q38 -38 38 -92t-38 -92q-40 -38 -95 -38q-54 0 -92 38q-38 40 -38 94q0 53 39 90q40 38 92 38z" />
    <glyph glyph-name="uni1EE5" unicode="&#x1ee5;" horiz-adv-x="1043" 
d="M927 908v-908h-204v66q-97 -94 -231 -94q-148 0 -254 94q-66 58 -94.5 140.5t-28.5 212.5v489h204v-473q0 -135 33 -195q44 -80 160 -80q57 0 106 24.5t71 64.5q34 61 34 205v454h204zM513 -97q54 0 94 -38q38 -38 38 -92t-38 -92q-40 -38 -95 -38q-54 0 -92 38
q-38 40 -38 94q0 53 39 90q40 38 92 38z" />
    <glyph glyph-name="uni1EE6" unicode="&#x1ee6;" horiz-adv-x="1307" 
d="M150 484v881h213v-842q0 -88 8 -138q8 -49 28 -84q33 -56 104 -92q70 -37 150 -37q117 0 205 73q51 42 68 98q17 57 17 180v842h213v-881q0 -171 -59 -272q-62 -105 -172 -167q-124 -73 -272 -73q-204 0 -351 129q-82 70 -117 160t-35 223zM520 1647l-60 152
q102 38 177 38q105 0 161 -62q40 -43 40 -103q0 -58 -36 -113l-31 -49q-11 -17 -11 -42v-18h-184q1 47 8 72q6 21 26 51l19 27q22 31 22 43q0 26 -34 26t-97 -22z" />
    <glyph glyph-name="uni1EE7" unicode="&#x1ee7;" horiz-adv-x="1043" 
d="M927 908v-908h-204v66q-97 -94 -231 -94q-148 0 -254 94q-66 58 -94.5 140.5t-28.5 212.5v489h204v-473q0 -135 33 -195q44 -80 160 -80q57 0 106 24.5t71 64.5q34 61 34 205v454h204zM388 1225l-60 152q102 38 177 38q105 0 161 -62q40 -43 40 -103q0 -58 -36 -113
l-31 -49q-11 -17 -11 -42v-18h-184q1 47 8 72q6 21 26 51l19 27q22 31 22 43q0 26 -34 26t-97 -22z" />
    <glyph glyph-name="uni1EE8" unicode="&#x1ee8;" horiz-adv-x="1400" 
d="M1156 1365v-161q67 42 67 108q0 45 -22 79q-21 33 -86 85l153 77q138 -97 138 -243q0 -204 -250 -304v-522q0 -171 -59 -272q-62 -105 -172 -167q-124 -73 -272 -73q-204 0 -351 129q-82 70 -117 160t-35 223v881h213v-842q0 -88 8 -138q8 -49 28 -84q33 -56 104 -92
q70 -37 150 -37q117 0 205 73q51 42 68 98q17 57 17 180v842h213zM758 1833l195 -105l-296 -297l-135 78z" />
    <glyph glyph-name="uni1EE9" unicode="&#x1ee9;" horiz-adv-x="1201" 
d="M927 908v-163q70 42 70 110q0 45 -22 79q-21 33 -86 85l153 77q138 -98 138 -244q0 -95 -62 -174t-171 -123q-4 -1 -10 -3.5t-10 -4.5v-547h-204v66q-97 -94 -231 -94q-148 0 -254 94q-66 58 -94.5 140.5t-28.5 212.5v489h204v-473q0 -135 33 -195q44 -80 160 -80
q57 0 106 24.5t71 64.5q34 61 34 205v454h204zM616 1423l195 -104l-295 -297l-135 77z" />
    <glyph glyph-name="uni1EEA" unicode="&#x1eea;" horiz-adv-x="1400" 
d="M1156 1365v-161q67 42 67 108q0 45 -22 79q-21 33 -86 85l153 77q138 -97 138 -243q0 -204 -250 -304v-522q0 -171 -59 -272q-62 -105 -172 -167q-124 -73 -272 -73q-204 0 -351 129q-82 70 -117 160t-35 223v881h213v-842q0 -88 8 -138q8 -49 28 -84q33 -56 104 -92
q70 -37 150 -37q117 0 205 73q51 42 68 98q17 57 17 180v842h213zM649 1431l-296 297l195 105l236 -324z" />
    <glyph glyph-name="uni1EEB" unicode="&#x1eeb;" horiz-adv-x="1201" 
d="M927 908v-163q70 42 70 110q0 45 -22 79q-21 33 -86 85l153 77q138 -98 138 -244q0 -95 -62 -174t-171 -123q-4 -1 -10 -3.5t-10 -4.5v-547h-204v66q-97 -94 -231 -94q-148 0 -254 94q-66 58 -94.5 140.5t-28.5 212.5v489h204v-473q0 -135 33 -195q44 -80 160 -80
q57 0 106 24.5t71 64.5q34 61 34 205v454h204zM507 1022l-296 297l195 104l236 -324z" />
    <glyph glyph-name="uni1EEC" unicode="&#x1eec;" horiz-adv-x="1400" 
d="M1156 1365v-161q67 42 67 108q0 45 -22 79q-21 33 -86 85l153 77q138 -97 138 -243q0 -204 -250 -304v-522q0 -171 -59 -272q-62 -105 -172 -167q-124 -73 -272 -73q-204 0 -351 129q-82 70 -117 160t-35 223v881h213v-842q0 -88 8 -138q8 -49 28 -84q33 -56 104 -92
q70 -37 150 -37q117 0 205 73q51 42 68 98q17 57 17 180v842h213zM535 1647l-60 152q102 38 178 38q105 0 161 -62q40 -43 40 -103q0 -57 -37 -113l-31 -49q-11 -17 -11 -43v-17h-184q1 50 8 73q6 21 26 50l19 27q23 34 23 43q0 26 -34 26q-35 0 -98 -22z" />
    <glyph glyph-name="uni1EED" unicode="&#x1eed;" horiz-adv-x="1201" 
d="M927 908v-163q70 42 70 110q0 45 -22 79q-21 33 -86 85l153 77q138 -98 138 -244q0 -95 -62 -174t-171 -123q-4 -1 -10 -3.5t-10 -4.5v-547h-204v66q-97 -94 -231 -94q-148 0 -254 94q-66 58 -94.5 140.5t-28.5 212.5v489h204v-473q0 -135 33 -195q44 -80 160 -80
q57 0 106 24.5t71 64.5q34 61 34 205v454h204zM393 1225l-60 152q102 38 178 38q105 0 161 -62q40 -43 40 -103q0 -57 -37 -113l-31 -49q-11 -17 -11 -42v-18h-183q2 52 7 72q6 21 26 51l19 27q23 34 23 43q0 26 -34 26q-33 0 -98 -22z" />
    <glyph glyph-name="uni1EEE" unicode="&#x1eee;" horiz-adv-x="1400" 
d="M1156 1365v-161q67 42 67 108q0 45 -22 79q-21 33 -86 85l153 77q138 -97 138 -243q0 -204 -250 -304v-522q0 -171 -59 -272q-62 -105 -172 -167q-124 -73 -272 -73q-204 0 -351 129q-82 70 -117 160t-35 223v881h213v-842q0 -88 8 -138q8 -49 28 -84q33 -56 104 -92
q70 -37 150 -37q117 0 205 73q51 42 68 98q17 57 17 180v842h213zM793 1754l169 -39q-17 -221 -188 -221q-76 0 -151 42q-47 26 -75 27q-21 2 -35 -78l-166 39q23 221 192 221q68 0 153 -46q44 -23 72 -23q22 0 29 78z" />
    <glyph glyph-name="uni1EEF" unicode="&#x1eef;" horiz-adv-x="1201" 
d="M927 908v-163q70 42 70 110q0 45 -22 79q-21 33 -86 85l153 77q138 -98 138 -244q0 -95 -62 -174t-171 -123q-4 -1 -10 -3.5t-10 -4.5v-547h-204v66q-97 -94 -231 -94q-148 0 -254 94q-66 58 -94.5 140.5t-28.5 212.5v489h204v-473q0 -135 33 -195q44 -80 160 -80
q57 0 106 24.5t71 64.5q34 61 34 205v454h204zM660 1344l169 -39q-17 -221 -188 -221q-75 0 -151 42q-50 27 -74 27q-14 0 -20.5 -14.5t-14.5 -63.5l-166 39q9 89 45 145q49 76 146 76q68 0 153 -46q44 -23 72 -23q21 0 29 78z" />
    <glyph glyph-name="uni1EF0" unicode="&#x1ef0;" horiz-adv-x="1400" 
d="M1156 1365v-161q67 42 67 108q0 45 -22 79q-21 33 -86 85l153 77q138 -97 138 -243q0 -204 -250 -304v-522q0 -171 -59 -272q-62 -105 -172 -167q-124 -73 -272 -73q-204 0 -351 129q-82 70 -117 160t-35 223v881h213v-842q0 -88 8 -138q8 -49 28 -84q33 -56 104 -92
q70 -37 150 -37q117 0 205 73q51 42 68 98q17 57 17 180v842h213zM653 -97q54 0 94 -38q38 -38 38 -92t-38 -92q-40 -38 -93 -38q-56 0 -94 38.5t-38 93.5q0 53 39 90q40 38 92 38z" />
    <glyph glyph-name="uni1EF1" unicode="&#x1ef1;" horiz-adv-x="1201" 
d="M927 908v-163q70 42 70 110q0 45 -22 79q-21 33 -86 85l153 77q138 -98 138 -244q0 -95 -62 -174t-171 -123q-4 -1 -10 -3.5t-10 -4.5v-547h-204v66q-97 -94 -231 -94q-148 0 -254 94q-66 58 -94.5 140.5t-28.5 212.5v489h204v-473q0 -135 33 -195q44 -80 160 -80
q57 0 106 24.5t71 64.5q34 61 34 205v454h204zM521 -97q54 0 94 -38q38 -38 38 -92t-38 -92q-40 -38 -93 -38q-56 0 -94 38.5t-38 93.5q0 53 39 90q40 38 92 38z" />
    <glyph glyph-name="Ygrave" unicode="&#x1ef2;" horiz-adv-x="1083" 
d="M862 1365h235l-449 -798v-567h-213v567l-449 798h236l320 -586zM550 1431l-295 297l195 105l235 -324z" />
    <glyph glyph-name="ygrave" unicode="&#x1ef3;" horiz-adv-x="948" 
d="M346 -478h-214l228 521l-372 865h221l261 -617l270 617h220zM483 1022l-295 297l195 104l236 -324z" />
    <glyph glyph-name="uni1EF4" unicode="&#x1ef4;" horiz-adv-x="1083" 
d="M862 1365h235l-449 -798v-567h-213v567l-449 798h236l320 -586zM541 -97q54 0 94 -38q38 -38 38 -92t-38 -92q-40 -38 -93 -38q-56 0 -94 38.5t-38 93.5q0 53 39 90q38 38 92 38z" />
    <glyph glyph-name="uni1EF5" unicode="&#x1ef5;" horiz-adv-x="948" 
d="M346 -478h-214l228 521l-372 865h221l261 -617l270 617h220zM701 -97q54 0 94 -38q38 -38 38 -92t-38 -92q-40 -38 -93 -38q-56 0 -94 38.5t-38 93.5q0 53 39 90q40 38 92 38z" />
    <glyph glyph-name="uni1EF6" unicode="&#x1ef6;" horiz-adv-x="1083" 
d="M862 1365h235l-449 -798v-567h-213v567l-449 798h236l320 -586zM412 1647l-60 152q102 38 177 38q105 0 161 -62q40 -43 40 -103q0 -58 -36 -113l-31 -49q-11 -17 -11 -42v-18h-184q1 47 8 72q6 24 25 51l20 27q22 31 22 43q0 26 -34 26t-97 -22z" />
    <glyph glyph-name="uni1EF7" unicode="&#x1ef7;" horiz-adv-x="948" 
d="M346 -478h-214l228 521l-372 865h221l261 -617l270 617h220zM345 1225l-60 152q102 38 177 38q105 0 161 -62q40 -43 40 -103q0 -58 -36 -113l-31 -49q-11 -17 -11 -60h-184q1 47 8 72q6 24 25 51l20 27q22 31 22 43q0 26 -34 26t-97 -22z" />
    <glyph glyph-name="uni1EF8" unicode="&#x1ef8;" horiz-adv-x="1083" 
d="M862 1365h235l-449 -798v-567h-213v567l-449 798h236l320 -586zM679 1754l169 -39q-17 -221 -188 -221q-75 0 -150 42q-50 27 -75 27q-14 0 -20.5 -14.5t-14.5 -63.5l-166 39q9 89 45 145q49 76 146 76q68 0 153 -46q44 -23 72 -23q22 0 29 78z" />
    <glyph glyph-name="uni1EF9" unicode="&#x1ef9;" horiz-adv-x="948" 
d="M346 -478h-214l228 521l-372 865h221l261 -617l270 617h220zM612 1344l169 -39q-17 -221 -187 -221q-76 0 -151 42q-47 26 -75 27q-11 1 -19.5 -18.5t-15.5 -59.5l-166 39q9 89 45 145q49 76 146 76q68 0 153 -46q44 -23 72 -23q21 0 29 78z" />
    <glyph glyph-name="uni2002" unicode="&#x2002;" horiz-adv-x="1024" 
 />
    <glyph glyph-name="uni2003" unicode="&#x2003;" horiz-adv-x="2048" 
 />
    <glyph glyph-name="uni2004" unicode="&#x2004;" horiz-adv-x="683" 
 />
    <glyph glyph-name="uni2005" unicode="&#x2005;" horiz-adv-x="512" 
 />
    <glyph glyph-name="uni2006" unicode="&#x2006;" horiz-adv-x="137" 
 />
    <glyph glyph-name="uni2007" unicode="&#x2007;" horiz-adv-x="1139" 
 />
    <glyph glyph-name="uni2009" unicode="&#x2009;" horiz-adv-x="256" 
 />
    <glyph glyph-name="uni200A" unicode="&#x200a;" horiz-adv-x="68" 
 />
    <glyph glyph-name="uni2011" unicode="&#x2011;" horiz-adv-x="550" 
d="M61 379v186h427v-186h-427z" />
    <glyph glyph-name="figuredash" unicode="&#x2012;" horiz-adv-x="1186" 
d="M225 379v186h736v-186h-736z" />
    <glyph glyph-name="endash" unicode="&#x2013;" horiz-adv-x="1186" 
d="M225 379v186h736v-186h-736z" />
    <glyph glyph-name="emdash" unicode="&#x2014;" horiz-adv-x="1292" 
d="M61 379v186h1169v-186h-1169z" />
    <glyph glyph-name="afii00208" unicode="&#x2015;" horiz-adv-x="1292" 
d="M61 379v186h1169v-186h-1169z" />
    <glyph glyph-name="underscoredbl" unicode="&#x2017;" horiz-adv-x="1051" 
d="M-14 -278v160h1079v-160h-1079zM-14 -535v160h1079v-160h-1079z" />
    <glyph glyph-name="quoteleft" unicode="&#x2018;" horiz-adv-x="580" 
d="M477 1411l-188 -523l-187 69l228 512z" />
    <glyph glyph-name="quoteright" unicode="&#x2019;" horiz-adv-x="511" 
d="M55 947l188 522l187 -68l-228 -513z" />
    <glyph glyph-name="quotesinglbase" unicode="&#x201a;" horiz-adv-x="511" 
d="M55 -287l188 522l187 -68l-228 -513z" />
    <glyph glyph-name="quotereversed" unicode="&#x201b;" horiz-adv-x="512" 
d="M81 1401l187 68l188 -522l-147 -59z" />
    <glyph glyph-name="quotedblleft" unicode="&#x201c;" horiz-adv-x="880" 
d="M777 1411l-188 -523l-187 69l228 512zM477 1411l-188 -523l-187 69l228 512z" />
    <glyph glyph-name="quotedblright" unicode="&#x201d;" horiz-adv-x="880" 
d="M102 947l188 522l187 -68l-228 -513zM402 947l188 522l187 -68l-228 -513z" />
    <glyph glyph-name="quotedblbase" unicode="&#x201e;" horiz-adv-x="880" 
d="M102 -287l188 522l187 -68l-228 -513zM402 -287l188 522l187 -68l-228 -513z" />
    <glyph glyph-name="dagger" unicode="&#x2020;" horiz-adv-x="1131" 
d="M167 715v193h296v453h205v-453h296v-193h-296v-1092h-205v1092h-296z" />
    <glyph glyph-name="daggerdbl" unicode="&#x2021;" horiz-adv-x="1131" 
d="M964 270v-193h-296v-454h-205v454h-296v193h296v445h-296v193h296v453h205v-453h296v-193h-296v-445h296z" />
    <glyph glyph-name="bullet" unicode="&#x2022;" horiz-adv-x="1010" 
d="M510 996q133 0 228 -104q81 -88 81 -210q0 -140 -104 -233q-89 -81 -210 -81q-140 0 -233 104q-81 88 -81 212q0 136 104 231q89 81 215 81z" />
    <glyph glyph-name="ellipsis" unicode="&#x2026;" horiz-adv-x="1560" 
d="M271 234q55 0 93 -38t38 -91q0 -54 -38 -92t-93 -38t-93 38t-38 94q0 53 39 90q37 37 92 37zM1290 234q53 0 93 -38q38 -38 38 -91q0 -54 -38 -92t-93 -38t-93 38t-38 94q0 53 39 90q37 37 92 37zM780 234q55 0 93 -38t38 -91q0 -54 -38 -92t-93 -38t-93 38t-38 94
q0 53 39 90q37 37 92 37z" />
    <glyph glyph-name="perthousand" unicode="&#x2030;" horiz-adv-x="2592" 
d="M1421 826q329 0 329 -422q0 -421 -327 -421q-323 0 -323 427q0 176 61 279q80 137 260 137zM1425 688q-171 0 -171 -276q0 -291 170 -291q172 0 172 283q0 284 -171 284zM470 38l784 1355l116 -67l-784 -1355zM410 1382q329 0 329 -421t-327 -421q-323 0 -323 426
q0 176 61 279q80 137 260 137zM414 1244q-171 0 -171 -276q0 -290 170 -290q172 0 172 283t-171 283zM2174 826q329 0 329 -422q0 -421 -327 -421q-323 0 -323 427q0 176 61 279q80 137 260 137zM2178 688q-171 0 -171 -276q0 -291 170 -291q172 0 172 283q0 284 -171 284z
" />
    <glyph glyph-name="minute" unicode="&#x2032;" horiz-adv-x="393" 
d="M-82 947l187 521l186 -68l-228 -510z" />
    <glyph glyph-name="second" unicode="&#x2033;" horiz-adv-x="693" 
d="M-82 947l187 521l185 -68l-227 -510zM218 947l187 521l185 -68l-227 -510z" />
    <glyph glyph-name="guilsinglleft" unicode="&#x2039;" horiz-adv-x="625" 
d="M288 455l247 -305l-138 -110l-336 414l336 423l137 -109z" />
    <glyph glyph-name="guilsinglright" unicode="&#x203a;" horiz-adv-x="625" 
d="M228 40l-138 110l247 305l-247 313l138 109l336 -423z" />
    <glyph glyph-name="uni203E" unicode="&#x203e;" horiz-adv-x="1051" 
d="M-14 1542v186h1079v-186h-1079z" />
    <glyph glyph-name="slash.aalt" unicode="&#x2044;" horiz-adv-x="368" 
d="M-266 38l784 1355l116 -67l-784 -1355z" />
    <glyph glyph-name="zerosuperior" unicode="&#x2070;" 
d="M392 1657q329 0 329 -421t-324 -421q-326 0 -326 426q0 176 61 279q80 137 260 137zM396 1519q-171 0 -171 -276q0 -290 170 -290q73 0 113 46q26 29 42 97q17 70 17 141q0 282 -171 282z" />
    <glyph glyph-name="foursuperior" unicode="&#x2074;" 
d="M90 998v124l356 543l125 -74l-300 -457h170v187h151v-187h97v-136h-97v-167h-151v167h-351z" />
    <glyph glyph-name="fivesuperior" unicode="&#x2075;" 
d="M636 1503h-281l-27 -123q35 5 54 5q134 0 222 -97q71 -77 71 -184q0 -127 -96 -212q-86 -77 -211 -77q-134 0 -227 100q-26 28 -56 73l123 81q56 -116 160 -116q68 0 111 42q44 42 44 105q0 64 -43 107q-43 42 -109 42q-39 0 -58 -9q-22 -9 -56 -42l-117 24l89 418h407
v-137z" />
    <glyph glyph-name="sixsuperior" unicode="&#x2076;" 
d="M161 1289l280 376l119 -84l-156 -210q7 1 15 1q64 0 141 -41q61 -34 97 -95.5t36 -133.5q0 -125 -95 -211q-85 -76 -203 -76q-138 0 -228 98q-73 79 -73 189q0 99 67 187zM394 1237q-65 0 -106 -40q-43 -40 -43 -100q0 -63 43 -103q43 -41 106 -41t106 43q42 42 42 104
q0 59 -42 98q-43 39 -106 39z" />
    <glyph glyph-name="sevensuperior" unicode="&#x2077;" 
d="M161 872l356 631h-382v137h565v-106l-406 -728z" />
    <glyph glyph-name="eightsuperior" unicode="&#x2078;" 
d="M210 1263q-74 71 -74 160q0 98 77 169q71 65 183 65q128 0 202 -83q59 -68 59 -151q0 -89 -75 -160q101 -80 101 -192t-82 -184q-83 -72 -204 -72q-142 0 -224 91q-63 69 -63 165q0 113 100 192zM396 1190q-60 0 -97.5 -33.5t-37.5 -86.5t38 -86.5t96 -33.5q61 0 99 33.5
t38 87.5q0 53 -37.5 86t-98.5 33zM396 1525q-51 0 -84 -29.5t-33 -75.5q0 -44 33.5 -72.5t84.5 -28.5t84 28.5t33 73.5q0 46 -33 75t-85 29z" />
    <glyph glyph-name="ninesuperior" unicode="&#x2079;" 
d="M631 1182l-280 -376l-119 84l157 211q-7 -1 -14 -1q-66 0 -143 41q-61 34 -97 95.5t-36 132.5q0 126 95 212q85 76 204 76q137 0 227 -98q73 -79 73 -189q0 -100 -67 -188zM398 1519q-63 0 -105 -42q-43 -43 -43 -106q0 -58 43 -97q42 -39 105 -39q64 0 107 40
q42 41 42 100q0 61 -42 103q-44 41 -107 41z" />
    <glyph glyph-name="zeroinferior" unicode="&#x2080;" 
d="M392 560q329 0 329 -421t-324 -421q-326 0 -326 426q0 177 61 280q79 136 260 136zM396 422q-171 0 -171 -276q0 -290 170 -290q73 0 113 46q26 28 42 96q17 71 17 142q0 282 -171 282z" />
    <glyph glyph-name="oneinferior" unicode="&#x2081;" 
d="M505 543v-808h-152v631l-104 -57l-73 120l208 114h121z" />
    <glyph glyph-name="twoinferior" unicode="&#x2082;" 
d="M675 -265h-548v117l298 318q82 88 82 158q0 44 -30.5 69t-83.5 25q-58 0 -84 -25q-28 -25 -51 -103l-140 37q54 230 277 230q133 0 205 -79q57 -64 57 -156q0 -117 -89 -212l-226 -241h333v-138z" />
    <glyph glyph-name="threeinferior" unicode="&#x2083;" 
d="M380 89h-66v136h66q121 0 121 98q0 45 -30.5 72t-80.5 27q-43 0 -71 -18.5t-63 -71.5l-128 67q52 85 113.5 123t147.5 38q131 0 204 -82q58 -64 58 -152q0 -96 -71 -161q89 -74 89 -188q0 -115 -82 -187q-83 -72 -204 -72q-221 0 -278 227l-2 10l147 37q20 -77 49 -106
t86 -29q59 0 95.5 33.5t36.5 86.5q0 112 -137 112z" />
    <glyph glyph-name="fourinferior" unicode="&#x2084;" 
d="M90 -98v124l356 543l125 -74l-300 -457h170v187h151v-187h97v-136h-97v-167h-151v167h-351z" />
    <glyph glyph-name="fiveinferior" unicode="&#x2085;" 
d="M636 407h-281l-27 -123q35 5 54 5q134 0 222 -97q71 -77 71 -184q0 -128 -96 -213q-86 -77 -211 -77q-134 0 -227 100q-26 28 -56 73l123 82q56 -117 160 -117q68 0 111 42q44 42 44 106q0 66 -48 110q-44 39 -104 39q-39 0 -58 -9q-22 -9 -56 -42l-117 23l89 419h407
v-137z" />
    <glyph glyph-name="sixinferior" unicode="&#x2086;" 
d="M161 193l280 376l119 -84l-156 -210q8 1 15 1q64 0 141 -41q61 -34 97 -95.5t36 -133.5q0 -126 -95 -212q-85 -76 -203 -76q-138 0 -228 98q-73 79 -73 189q0 99 67 188zM394 141q-65 0 -106 -40q-43 -40 -43 -101q0 -63 43 -103q43 -41 106 -41q62 0 106 42
q42 44 42 106q0 60 -44 99q-43 38 -104 38z" />
    <glyph glyph-name="seveninferior" unicode="&#x2087;" 
d="M161 -225l356 631h-382v137h565v-106l-406 -728z" />
    <glyph glyph-name="eightinferior" unicode="&#x2088;" 
d="M210 166q-74 71 -74 159q0 99 77 170q71 65 183 65q128 0 202 -83q59 -68 59 -152q0 -89 -75 -159q101 -80 101 -192t-82 -184q-83 -72 -204 -72q-142 0 -224 91q-63 69 -63 165q0 113 100 192zM396 93q-60 0 -97.5 -33.5t-37.5 -86.5t38 -86.5t96 -33.5q61 0 99 33.5
t38 87.5q0 53 -37.5 86t-98.5 33zM396 428q-51 0 -84 -29.5t-33 -75.5q0 -44 33.5 -72.5t84.5 -28.5t84 28.5t33 73.5q0 46 -33 75t-85 29z" />
    <glyph glyph-name="nineinferior" unicode="&#x2089;" 
d="M631 85l-280 -376l-119 84l157 211h-14q-67 0 -143 41q-62 35 -97.5 95.5t-35.5 132.5q0 125 95 211q85 76 204 76q137 0 227 -98q73 -79 73 -189q0 -100 -67 -188zM398 422q-63 0 -105 -42q-43 -43 -43 -105q0 -58 43 -97q42 -39 105 -39q64 0 107 40q42 41 42 99
q0 62 -42 103q-44 41 -107 41z" />
    <glyph glyph-name="franc" unicode="&#x20a3;" horiz-adv-x="1489" 
d="M928 1365v-196h-483v-378h364v-198h-364v-593h-213v1365h696zM878 0v791h204v-73q80 78 196 78q29 0 74 -5v-183q-48 3 -71 3q-123 0 -165 -82q-34 -64 -34 -209v-320h-204z" />
    <glyph glyph-name="lira" unicode="&#x20a4;" horiz-adv-x="1153" 
d="M874 727h-402q16 -76 20 -91h382v-175h-354q1 -3 1 -7q0 -10 0.5 -20t1 -15t0.5 -7q0 -31 -13 -82q-13 -50 -29 -79l-35 -55h619v-196h-925v184q99 77 134 126q35 50 35 111q0 2 -2 40h-167v175h136l-14 67l-5 23l-117 1v175h91q-2 26 -2 40q0 232 132 345
q124 106 294 106q245 0 382 -248l-170 -107q-50 86 -100.5 121.5t-119.5 35.5q-98 0 -152.5 -64.5t-54.5 -179.5q0 -3 2 -49h432v-175z" />
    <glyph glyph-name="peseta" unicode="&#x20a7;" horiz-adv-x="1236" 
d="M1168 861h-119q-77 -341 -478 -333h-90v-528h-213v861h-111v171h111v333h303q127 0 210 -24q81 -24 143 -80q98 -88 125 -229h119v-171zM833 861h-352v-140h107q106 0 164 33t81 107zM481 1171v-139h353q-24 73 -82.5 106t-163.5 33h-107z" />
    <glyph glyph-name="uni20AB" unicode="&#x20ab;" horiz-adv-x="1141" 
d="M558 1224h239v141h204v-141h119v-184h-119v-1040h-204v79q-139 -107 -280 -107q-113 0 -219 61q-113 65 -176 176q-65 113 -65 246q0 219 159 361q135 120 301 120q140 0 280 -107v211h-239v184zM529 751q-115 0 -193 -85q-73 -79 -73 -211q0 -151 92 -232
q76 -66 178 -66q117 0 192 83q73 79 73 217q0 149 -91 230q-71 64 -178 64zM68 -294v186h1041v-186h-1041z" />
    <glyph glyph-name="Euro" unicode="&#x20ac;" horiz-adv-x="1646" 
d="M340 460h-217l75 177h107q0 22 -1 37v33q0 15 1 19h-182l75 177h141q55 156 157 266q99 106 233 165q138 59 288 59q146 0 264.5 -53t234.5 -170l-80 -190q-81 84 -153 130q-131 83 -278 83q-203 0 -344 -158q-67 -75 -93 -132h837l-74 -177h-810q-2 -40 -2 -45
q0 -4 2 -44h773l-75 -177h-650q36 -71 108 -146q136 -142 335 -142q124 0 225 54q101 53 220 181v-276q-195 -159 -437 -159q-237 0 -413 127q-179 128 -267 361z" />
    <glyph glyph-name="uni20B4" unicode="&#x20b4;" horiz-adv-x="1265" 
d="M157 636h142q46 49 134 91h-276v171h632q51 47 51 106q0 81 -62 140q-56 51 -145 51q-74 0 -123 -34q-52 -35 -111 -125l-172 109q57 93 114 144q116 104 286 104q128 0 235 -61q91 -51 140 -138q49 -83 49 -185q0 -55 -18 -111h69v-171h-197q-67 -45 -127 -68l-43 -17
l-15 -6h382v-171h-667q-14 -36 -14 -70q0 -97 76 -164q65 -60 159 -60q146 0 210 133q14 28 36 115l206 -54q-35 -150 -101 -234q-60 -75 -149 -116q-90 -43 -198 -43q-212 0 -345 147q-109 119 -109 276q0 29 6 70h-55v171z" />
    <glyph glyph-name="uni2101" unicode="&#x2101;" horiz-adv-x="1922" 
d="M1752 697l19 -30l-125 -75q-36 55 -65 75.5t-72 20.5q-48 0 -80 -28t-32 -70q0 -54 96 -90l79 -29q207 -77 207 -229q0 -112 -86 -189q-83 -72 -200 -72q-110 0 -188 66q-39 33 -58 70q-20 35 -39 113l148 37q22 -82 52.5 -114t86.5 -32q55 0 92.5 34.5t37.5 85.5
q0 26 -14 45q-23 28 -105 60l-75 27q-186 69 -186 219q0 101 76 168t191 67q155 0 240 -130zM701 758h-332l-79 -202h-160l319 809h173l254 -644l-96 -165zM535 1191l-113 -295h226zM599 38l784 1355l116 -67l-784 -1355z" />
    <glyph glyph-name="afii61248" unicode="&#x2105;" horiz-adv-x="2151" 
d="M907 1231l-108 -100q-62 63 -112 89q-49 24 -114 24q-133 0 -216 -93q-72 -81 -72 -190q0 -126 91 -208q82 -75 197 -75q68 0 111 22q45 23 119 93l108 -101q-89 -84 -164 -118q-77 -36 -173 -36q-204 0 -335 144q-109 121 -109 279q0 184 141 310q127 113 302 113
q95 0 173 -35.5t161 -117.5zM1582 827q197 0 331 -146q109 -118 109 -277q0 -184 -142 -310q-128 -113 -296 -113t-295 111q-145 126 -145 317q0 177 142 304q124 114 296 114zM1581 686q-125 0 -210 -94q-72 -80 -72 -193q0 -119 92 -202q83 -75 192 -75q126 0 213 95
q71 79 71 186q0 125 -93 210q-79 73 -193 73zM619 38l784 1355l116 -67l-784 -1355z" />
    <glyph glyph-name="uni2117" unicode="&#x2117;" horiz-adv-x="1727" 
d="M863 567h-67v-345h-171v921h238q126 0 196 -40q64 -36 100.5 -102.5t36.5 -145.5q0 -115 -72 -197q-43 -49 -104 -70t-157 -21zM796 984v-259h79q90 0 121 37q31 35 31 93q0 66 -37 97.5t-115 31.5h-79zM876 1458q199 0 375 -104q180 -105 284 -284t104 -387
q0 -207 -104 -388q-103 -179 -284 -283q-179 -104 -387 -104q-206 0 -387 104q-179 102 -284 283q-104 182 -104 394q0 335 257 569q220 200 530 200zM854 1313q-162 0 -305 -85q-147 -86 -230 -230q-85 -145 -85 -315t85 -315q84 -146 230 -230q145 -85 315 -85
q169 0 315 85q147 84 231 230q84 147 84 320q0 272 -209 463q-178 162 -431 162z" />
    <glyph glyph-name="trademark" unicode="&#x2122;" horiz-adv-x="1382" 
d="M724 739h-104v639h101l219 -385l218 385h101v-639h-104v443l-174 -307h-82l-175 307v-443zM549 1378v-95h-161v-544h-104v544h-161v95h426z" />
    <glyph glyph-name="Omega" unicode="&#x2126;" horiz-adv-x="1630" 
d="M1487 198v-198h-560v292q142 40 230 119q148 132 148 325q0 200 -153 333q-143 125 -337 125q-138 0 -257 -68q-114 -65 -175 -171q-58 -101 -58 -220q0 -110 53.5 -206.5t149.5 -161.5q66 -44 175 -75v-292h-561v198h274v2q-307 213 -307 536q0 165 85 310
q88 153 252 248q171 99 369 99t369 -99q163 -95 252 -248q84 -146 84 -310q0 -323 -307 -536v-2h274z" />
    <glyph glyph-name="estimated" unicode="&#x212e;" horiz-adv-x="1517" 
d="M1387 631h-987v-233q45 -121 100 -170q92 -84 266 -84q151 0 251 66.5t162 207.5h180q-53 -172 -141 -270q-70 -77 -169 -120q-133 -56 -280 -56q-348 0 -519 250q-120 176 -120 451q0 305 144 490q179 230 496 230q214 0 375 -113q187 -134 225 -390q16 -104 17 -259z
M400 784h737v200q-36 89 -102 146q-106 91 -263 91q-140 0 -220 -51q-78 -50 -152 -188v-198z" />
    <glyph glyph-name="onethird" unicode="&#x2153;" horiz-adv-x="1707" 
d="M319 38l784 1355l116 -67l-784 -1355zM1268 354h-66v137h66q121 0 121 98q0 45 -30.5 72t-80.5 27q-42 0 -70.5 -19t-63.5 -71l-128 67q52 85 113.5 123t147.5 38q131 0 204 -82q58 -64 58 -153q0 -95 -71 -160q89 -74 89 -189t-82 -187q-83 -72 -203 -72
q-220 0 -279 227l-2 10l148 37q19 -77 48 -106t86 -29q59 0 95.5 33.5t36.5 87.5q0 111 -137 111zM437 1365v-808h-152v631l-104 -57l-73 120l208 114h121z" />
    <glyph glyph-name="twothirds" unicode="&#x2154;" horiz-adv-x="1707" 
d="M412 38l784 1355l116 -67l-784 -1355zM652 556h-548v117l298 318q82 88 82 158q0 43 -30.5 68t-83.5 25q-58 0 -84 -25q-27 -25 -51 -102l-140 37q55 229 278 229q132 0 204 -79q57 -64 57 -156q0 -116 -89 -211l-226 -241h333v-138zM1266 354h-66v137h66q121 0 121 98
q0 45 -30.5 72t-81.5 27q-42 0 -70 -19t-64 -71l-127 67q35 58 70 90q77 71 191 71q130 0 203 -82q59 -65 59 -153q0 -95 -71 -160q89 -74 89 -188q0 -116 -83 -188q-82 -72 -203 -72q-222 0 -278 227l-3 10l148 37q20 -77 48.5 -106t85.5 -29q59 0 96 33.5t37 87.5
q0 111 -137 111z" />
    <glyph glyph-name="onefifth" unicode="&#x2155;" horiz-adv-x="1707" 
d="M319 38l784 1355l116 -67l-784 -1355zM1497 672h-281l-26 -123q35 5 54 5q134 0 222 -97q71 -77 71 -184q0 -127 -96 -213q-86 -77 -212 -77q-134 0 -227 101q-28 31 -56 72l123 82q55 -117 161 -117q68 0 111 42q44 42 44 106q0 67 -48 110q-43 39 -104 39t-114 -51
l-117 23l89 419h406v-137zM437 1365v-808h-152v631l-104 -57l-73 120l208 114h121z" />
    <glyph glyph-name="twofifth" unicode="&#x2156;" horiz-adv-x="1707" 
d="M421 38l784 1355l116 -67l-784 -1355zM653 556h-548v117l298 318q82 88 82 158q0 43 -30.5 68t-83.5 25q-58 0 -84 -25q-27 -25 -51 -102l-140 37q55 229 278 229q132 0 204 -79q57 -64 57 -156q0 -116 -89 -211l-226 -241h333v-138zM1496 672h-281l-27 -123q35 5 54 5
q133 0 223 -97q71 -77 71 -184q0 -127 -96 -213q-88 -77 -212 -77q-134 0 -227 100q-26 28 -56 73l123 82q60 -117 160 -117q67 0 112 42q44 42 44 106q0 62 -44 106q-43 43 -108 43q-61 0 -115 -51l-117 23l89 419h407v-137z" />
    <glyph glyph-name="threefifth" unicode="&#x2157;" horiz-adv-x="1707" 
d="M380 38l784 1355l116 -67l-784 -1355zM1496 672h-281l-26 -123q35 5 54 5q134 0 222 -97q71 -77 71 -184q0 -127 -96 -213q-88 -77 -211 -77q-135 0 -228 100q-26 28 -56 73l123 82q60 -117 161 -117q67 0 111 42t44 106q0 63 -43 106t-109 43q-62 0 -114 -51l-117 23
l89 419h406v-137zM369 911h-66v136h66q121 0 121 98q0 45 -30.5 72t-80.5 27q-43 0 -71 -18.5t-63 -71.5l-128 67q53 86 114 123.5t148 37.5q130 0 203 -82q58 -64 58 -152q0 -96 -71 -161q89 -74 89 -188q0 -115 -82 -187t-203 -72q-223 0 -279 227l-2 9l147 38
q20 -77 48.5 -106t85.5 -29q60 0 96.5 33.5t36.5 86.5q0 112 -137 112z" />
    <glyph glyph-name="fourfifth" unicode="&#x2158;" horiz-adv-x="1707" 
d="M407 38l784 1355l116 -67l-784 -1355zM104 723v124l356 543l125 -74l-300 -457h170v187h151v-187h97v-136h-97v-167h-151v167h-351zM1493 672h-281l-26 -123q35 5 54 5q133 0 221 -97q71 -77 71 -184q0 -127 -96 -213q-86 -77 -211 -77q-134 0 -227 100q-26 28 -56 73
l123 82q55 -117 160 -117q67 0 111 42t44 106q0 63 -43 106t-109 43q-60 0 -114 -51l-116 23l89 419h406v-137z" />
    <glyph glyph-name="onesixth" unicode="&#x2159;" horiz-adv-x="1707" 
d="M347 38l784 1355l116 -67l-784 -1355zM1004 458l280 377l119 -85l-156 -210q7 1 15 1q64 0 141 -41q61 -34 97 -95.5t36 -133.5q0 -126 -95 -212q-85 -76 -203 -76q-138 0 -228 98q-73 80 -73 189q0 100 67 188zM1237 406q-65 0 -106 -40q-43 -40 -43 -101q0 -63 43 -103
q43 -41 106 -41t106 43q42 42 42 105q0 59 -42 98q-43 39 -106 39zM438 1365v-808h-152v631l-104 -57l-73 120l208 114h121z" />
    <glyph glyph-name="fivesixth" unicode="&#x215a;" horiz-adv-x="1707" 
d="M427 38l784 1355l116 -67l-784 -1355zM645 1228h-281l-27 -123q35 5 54 5q134 0 222 -97q71 -77 71 -184q0 -127 -96 -213q-88 -77 -211 -77q-134 0 -227 101q-29 30 -56 72l123 82q55 -117 160 -117q67 0 111 42t44 106q0 63 -43 106t-109 43q-38 0 -58 -9
q-22 -11 -56 -42l-117 23l89 419h407v-137zM1002 458l281 377l119 -85l-156 -210q7 1 15 1q64 0 140 -41q62 -35 98 -96.5t36 -133.5q0 -125 -96 -211q-83 -76 -203 -76q-137 0 -227 98q-73 79 -73 189q0 100 66 188zM1236 406q-65 0 -106 -40q-43 -40 -43 -101
q0 -63 43 -103q43 -41 106 -41t106 43q42 42 42 105q0 57 -42 98q-44 39 -106 39z" />
    <glyph glyph-name="oneeighth" unicode="&#x215b;" horiz-adv-x="1707" 
d="M319 38l784 1355l116 -67l-784 -1355zM437 1365v-809h-152v632l-104 -57l-73 120l208 114h121zM1084 431q-74 72 -74 160q0 99 77 170q73 65 184 65q127 0 201 -83q59 -68 59 -152q0 -88 -75 -160q101 -80 101 -192t-82 -184q-83 -72 -204 -72q-142 0 -224 91
q-63 69 -63 165q0 113 100 192zM1270 358q-60 0 -97.5 -33.5t-37.5 -86.5t38 -86.5t96 -33.5q61 0 99 33.5t38 87.5q0 53 -37.5 86t-98.5 33zM1269 694q-50 0 -83 -29.5t-33 -75.5q0 -44 33.5 -73t83.5 -29q52 0 85 29t33 74t-33.5 74.5t-85.5 29.5z" />
    <glyph glyph-name="threeeighths" unicode="&#x215c;" horiz-adv-x="1707" 
d="M1064 431q-74 72 -74 160q0 99 77 170q73 65 183 65q128 0 202 -83q59 -68 59 -152q0 -88 -75 -160q101 -80 101 -192t-82 -184q-83 -72 -204 -72q-140 0 -224 91q-63 69 -63 165q0 113 100 192zM1248 358q-59 0 -96 -33.5t-37 -86.5t38 -86.5t98 -33.5t97.5 33.5
t37.5 87.5t-38 86.5t-100 32.5zM1249 694q-51 0 -83.5 -29.5t-32.5 -76.5q0 -44 33.5 -72.5t83.5 -28.5q52 0 85 29t33 74t-33.5 74.5t-85.5 29.5zM369 911h-66v136h66q121 0 121 98q0 45 -30.5 72t-80.5 27q-43 0 -71 -18.5t-63 -71.5l-128 67q53 86 114 123.5t148 37.5
q130 0 203 -82q58 -64 58 -152q0 -96 -71 -161q89 -74 89 -188q0 -115 -82 -187t-203 -72q-223 0 -279 227l-2 9l147 38q20 -77 48.5 -106t85.5 -29q60 0 96.5 33.5t36.5 86.5q0 112 -137 112zM371 38l784 1355l116 -67l-784 -1355z" />
    <glyph glyph-name="fiveeighths" unicode="&#x215d;" horiz-adv-x="1707" 
d="M643 1228h-281l-27 -123q35 5 54 5q134 0 222 -97q71 -77 71 -184q0 -127 -96 -213q-88 -77 -211 -77q-134 0 -227 101q-29 30 -56 72l123 82q55 -117 160 -117q67 0 111 42t44 106q0 63 -43 106t-109 43q-38 0 -58 -9q-22 -11 -56 -42l-117 23l89 419h407v-137z
M1063 431q-75 71 -75 160q0 99 77 170q73 65 184 65q127 0 201 -83q60 -68 60 -152q0 -88 -75 -160q100 -79 100 -192q0 -111 -82 -184q-83 -72 -204 -72q-141 0 -223 91q-63 69 -63 165q0 113 100 192zM1247 694q-51 0 -83.5 -29.5t-32.5 -76.5q0 -44 33.5 -72.5
t84.5 -28.5t84.5 29t33.5 74t-33.5 74.5t-86.5 29.5zM1246 358q-58 0 -95 -33.5t-37 -86.5t37.5 -86.5t97.5 -33.5t97.5 33.5t37.5 87.5t-38 86.5t-100 32.5zM375 38l785 1355l115 -67l-784 -1355z" />
    <glyph glyph-name="seveneighths" unicode="&#x215e;" horiz-adv-x="1707" 
d="M301 38l784 1355l116 -67l-785 -1355zM172 597l356 631h-382v137h565v-106l-406 -728zM1061 431q-75 72 -75 160q0 99 77 170q73 65 183 65q128 0 202 -83q59 -68 59 -152q0 -88 -74 -160q100 -79 100 -192q0 -112 -82 -184q-83 -72 -204 -72q-140 0 -224 91
q-63 69 -63 165q0 112 101 192zM1246 694q-52 0 -84.5 -29.5t-32.5 -75.5q0 -44 33 -73t84 -29q52 0 85 29t33 74t-33.5 74.5t-84.5 29.5zM1246 358q-60 0 -97.5 -33t-37.5 -87q0 -53 38 -86.5t98 -33.5t97.5 33.5t37.5 87.5q0 53 -37.5 86t-98.5 33z" />
    <glyph glyph-name="partialdiff" unicode="&#x2202;" horiz-adv-x="1204" 
d="M755 900l-16 17q-179 229 -498 266l27 182q261 -33 422 -127q161 -95 261 -247q130 -199 130 -473q0 -192 -72 -316q-60 -105 -167 -167q-110 -63 -242 -63q-213 0 -353 155q-124 136 -124 327q0 220 159 362q134 120 301 120q88 0 172 -36zM598 751q-74 0 -139 -38
q-130 -79 -130 -258q0 -149 92 -232q75 -66 179 -66q122 0 200 86q72 79 72 213q0 149 -91 228q-76 67 -183 67z" />
    <glyph glyph-name="emptyset" unicode="&#x2205;" horiz-adv-x="1292" 
d="M486 184l-109 -214l-147 76l108 213q-215 171 -215 421q0 237 173 392q151 134 347 134q76 0 163 -25l107 210l147 -76l-108 -212q96 -84 139 -150q78 -117 78 -264q0 -144 -71 -268q-69 -119 -185 -188q-128 -74 -286 -74q-98 0 -141 25zM876 953l-312 -615
q50 -10 86 -10q155 0 261 118q91 98 91 236q0 164 -126 271zM416 414l312 613q-44 10 -84 10q-156 0 -263 -119q-91 -101 -91 -238q0 -75 29 -136q29 -60 97 -130z" />
    <glyph glyph-name="increment" unicode="&#x2206;" horiz-adv-x="1387" 
d="M808 1365l531 -1365h-1291l531 1365h229zM691 1102l-345 -904h693z" />
    <glyph glyph-name="product" unicode="&#x220f;" horiz-adv-x="1358" 
d="M926 1168h-494v-1168h-213v1168h-164v197h1248v-197h-164v-1168h-213v1168z" />
    <glyph glyph-name="summation" unicode="&#x2211;" horiz-adv-x="1368" 
d="M587 708l-338 486v171h895v-196l-638 1l325 -462l-354 -510h707v-198h-974v171z" />
    <glyph glyph-name="minus" unicode="&#x2212;" horiz-adv-x="1139" 
d="M132 730h874v-183h-874v183z" />
    <glyph glyph-name="fraction" unicode="&#x2215;" horiz-adv-x="368" 
d="M-266 38l784 1355l116 -67l-784 -1355z" />
    <glyph glyph-name="uni2218" unicode="&#x2218;" horiz-adv-x="1010" 
d="M510 997q133 0 228 -104q81 -89 81 -210q0 -140 -104 -233q-89 -81 -210 -81q-140 0 -233 104q-81 88 -81 212q0 136 104 231q89 81 215 81zM502 872q-81 0 -138 -62q-48 -54 -48 -127q0 -84 62 -141q54 -48 127 -48q85 0 141 62q48 54 48 128q0 83 -63 140
q-53 48 -129 48z" />
    <glyph glyph-name="radical" unicode="&#x221a;" horiz-adv-x="1287" 
d="M55 655v189h319l14 -43l166 -494l468 1389h52h568v-198h-464l-511 -1498h-227l-223 655h-162z" />
    <glyph glyph-name="infinity" unicode="&#x221e;" horiz-adv-x="1454" 
d="M730 542q-63 -76 -117 -117q-100 -76 -221 -76q-156 0 -252 106q-85 94 -85 239q0 159 107 254q100 86 231 86q94 0 171.5 -44.5t160.5 -147.5q80 102 160 147t179 45q155 0 251 -106q85 -92 85 -238q0 -161 -108 -257q-94 -84 -227 -84q-185 0 -335 193zM837 692
q43 -64 79 -99q61 -58 134 -58q67 0 112 45t45 112q0 71 -50 115q-49 41 -110 41q-107 0 -210 -156zM618 691q-44 65 -79 98q-62 59 -134 59q-67 0 -112 -45t-45 -113q0 -70 50 -114q48 -42 111 -42q106 0 209 157z" />
    <glyph glyph-name="integral" unicode="&#x222b;" horiz-adv-x="626" 
d="M572 1493v-185q-51 15 -81 15q-76 0 -76 -116v-1283q0 -174 -82 -246q-64 -56 -159 -56q-56 0 -119 16v184q54 -14 80 -14q76 0 76 116v1283q0 174 81 246q65 56 161 56q56 0 119 -16z" />
    <glyph glyph-name="similar" unicode="&#x223c;" horiz-adv-x="1182" 
d="M198 461l-135 87q62 136 128 202q73 73 187 73q92 0 241 -73q130 -62 188 -62q51 0 86 30q34 29 87 119l138 -81q-60 -123 -124 -187q-36 -37 -92 -59q-57 -24 -106 -24q-56 0 -107 17q-53 17 -200 84q-75 34 -126 34q-44 0 -80 -35t-85 -125z" />
    <glyph glyph-name="uni2243" unicode="&#x2243;" horiz-adv-x="1182" 
d="M198 618l-135 88q63 136 129 202q73 73 186 73q94 0 241 -73q129 -62 187 -62q52 0 87 30q34 28 87 119l139 -81q-62 -126 -125 -188q-39 -36 -93 -58q-55 -24 -105 -24q-55 0 -108 17q-49 16 -199 84q-74 34 -126 34q-44 0 -80.5 -35.5t-84.5 -125.5zM70 552h1040v-181
h-1040v181z" />
    <glyph glyph-name="approxequal" unicode="&#x2248;" horiz-adv-x="1182" 
d="M198 652l-135 88q63 136 129 202q73 73 186 73q94 0 241 -73q129 -62 187 -62q52 0 87 30q34 28 87 119l139 -81q-62 -126 -125 -188q-39 -36 -93 -58q-55 -24 -105 -24q-56 0 -107 17t-200 84q-75 34 -126 34q-44 0 -80.5 -35.5t-84.5 -125.5zM198 285l-135 88
q61 135 128 202q73 73 187 73q93 0 242 -73q129 -62 186 -62q52 0 87 30q34 28 87 119l139 -82q-61 -123 -124 -186q-38 -37 -93 -59q-57 -24 -106 -24q-54 0 -107 17q-49 15 -200 84q-75 34 -126 34q-43 0 -80 -36t-85 -125z" />
    <glyph glyph-name="notequal" unicode="&#x2260;" horiz-adv-x="1166" 
d="M898 1084l-99 -199h304v-183h-395l-62 -124h457v-183h-548l-131 -263l-156 64l99 199h-304v183h395l62 124h-457v183h548l131 263z" />
    <glyph glyph-name="lessequal" unicode="&#x2264;" horiz-adv-x="1166" 
d="M1054 462v-207l-942 423v169l942 428v-207l-683 -303zM1054 182v-182h-942v182h942z" />
    <glyph glyph-name="greaterequal" unicode="&#x2265;" horiz-adv-x="1166" 
d="M1054 678l-942 -423v207l683 303l-683 303v207l942 -428v-169zM1054 0h-942v182h942v-182z" />
    <glyph glyph-name="dotmath" unicode="&#x22c5;" horiz-adv-x="497" 
d="M248 813q55 0 93 -37q38 -38 38 -92t-38 -92q-40 -38 -94 -38q-55 0 -92 39q-38 38 -38 93q0 52 39 90q37 37 92 37z" />
    <glyph glyph-name="lozenge" unicode="&#x25ca;" horiz-adv-x="1350" 
d="M1224 683l-550 -764l-549 764l549 764zM674 255l304 428l-304 427l-303 -427z" />
    <glyph glyph-name="openbullet" unicode="&#x25e6;" horiz-adv-x="1010" 
d="M510 997q133 0 228 -104q81 -89 81 -210q0 -140 -104 -233q-89 -81 -210 -81q-140 0 -233 104q-81 88 -81 212q0 136 104 231q89 81 215 81zM502 872q-81 0 -138 -62q-48 -54 -48 -127q0 -84 62 -141q54 -48 127 -48q85 0 141 62q48 54 48 128q0 83 -63 140
q-53 48 -129 48z" />
    <glyph glyph-name="glyph155" horiz-adv-x="485" 
 />
    <glyph glyph-name="glyph172" horiz-adv-x="1180" 
 />
    <glyph glyph-name="glyph210" horiz-adv-x="485" 
 />
    <glyph glyph-name="seven.denominator" 
d="M161 41l356 631h-382v137h565v-106l-406 -729z" />
    <glyph glyph-name="eight.denominator" 
d="M210 431q-74 71 -74 160q0 99 77 170q71 65 183 65q128 0 202 -83q59 -68 59 -152q0 -89 -75 -160q101 -80 101 -192t-82 -184q-83 -72 -204 -72q-142 0 -224 91q-63 69 -63 165q0 113 100 192zM396 358q-60 0 -97.5 -33.5t-37.5 -86.5t38 -86.5t96 -33.5q61 0 99 33.5
t38 87.5q0 53 -37.5 86t-98.5 33zM396 694q-51 0 -84 -29.5t-33 -75.5q0 -44 33.5 -73t84.5 -29t84 29t33 74t-33 74.5t-85 29.5z" />
    <glyph glyph-name="nine.denominator" 
d="M631 351l-280 -377l-119 85l157 211q-7 -1 -14 -1q-66 0 -143 41q-62 34 -97.5 95.5t-35.5 133.5q0 125 95 211q85 76 204 76q137 0 227 -98q73 -79 73 -189q0 -100 -67 -188zM398 688q-63 0 -105 -42q-43 -43 -43 -106q0 -58 43 -97q42 -39 105 -39q64 0 107 40
q42 40 42 100q0 61 -42 103q-44 41 -107 41z" />
    <glyph glyph-name="four.fitted" horiz-adv-x="1139" 
d="M662 1400l173 -107l-508 -809h341v325h211v-325h162v-194h-162v-290h-211v290h-585v189z" />
    <glyph glyph-name="three.fitted" horiz-adv-x="1139" 
d="M103 337l-2 10l207 54q29 -112 69 -161q57 -68 169 -68q118 0 185 75q57 63 57 155q0 101 -65 161q-57 54 -184 54h-90v194h90q124 0 176 61q46 55 46 131q0 88 -60 142q-57 51 -150 51q-73 0 -122 -32q-48 -32 -104 -118l-177 97q57 97 115 148q117 102 287 102
q127 0 231 -58q87 -48 138 -137q50 -86 50 -191q0 -168 -129 -279q160 -129 160 -326t-136 -315q-130 -115 -320 -115q-205 0 -331 137q-44 48 -65 94q-22 47 -45 134z" />
    <glyph glyph-name="zero.denominator" 
d="M392 826q329 0 329 -422q0 -421 -324 -421q-326 0 -326 427q0 176 61 279q80 137 260 137zM396 688q-171 0 -171 -276q0 -290 170 -290q172 0 172 284q0 282 -171 282z" />
    <glyph glyph-name="two.fitted" horiz-adv-x="1139" 
d="M1030 0h-874v174l492 547q143 160 143 289q0 84 -57 136q-52 48 -152 48q-118 0 -172 -66q-39 -46 -69 -152l-195 54q31 136 100 218q123 145 341 145q205 0 319 -127q94 -103 94 -261q0 -195 -142 -352l-410 -456h582v-197z" />
    <glyph glyph-name="one.fitted" horiz-adv-x="1139" 
d="M260 0v194h254v920l-187 -106l-100 172l324 185h175v-1171h229v-194h-695z" />
    <glyph glyph-name="Dieresis" horiz-adv-x="975" 
d="M676 1749q53 0 93 -38q38 -38 38 -92t-38 -92q-40 -38 -93 -38q-56 0 -94 38.5t-38 93.5q0 53 39 90q40 38 93 38zM299 1749q54 0 94 -38q38 -38 38 -92t-38 -92q-40 -38 -94 -38q-55 0 -93 39q-38 38 -38 93q0 53 39 91q38 37 92 37z" />
    <glyph glyph-name="Dotaccent" horiz-adv-x="975" 
d="M487 1749q54 0 94 -38q38 -38 38 -92t-38 -92q-40 -38 -94 -38q-55 0 -93 39q-38 38 -38 93q0 53 39 91q38 37 92 37z" />
    <glyph glyph-name="Ring" horiz-adv-x="975" 
d="M486 1825q95 0 158 -69q53 -59 53 -136q0 -90 -68 -152q-60 -54 -142 -54q-87 0 -148 60q-62 62 -62 149q0 85 69 149q59 53 140 53zM486 1725q-43 0 -74 -31t-31 -76q0 -41 32 -73q31 -31 74 -31q44 0 75 31t31 75t-31 74.5t-76 30.5z" />
    <glyph glyph-name="Acute" horiz-adv-x="975" 
d="M594 1833l194 -105l-295 -297l-135 78z" />
    <glyph glyph-name="Grave" horiz-adv-x="975" 
d="M482 1431l-295 297l195 105l235 -324z" />
    <glyph glyph-name="five.fitted" horiz-adv-x="1139" 
d="M947 1365v-195h-464l-54 -264q31 16 105 16q220 0 361 -156q118 -130 118 -312q0 -215 -158 -358q-136 -124 -334 -124q-144 0 -246 65q-106 65 -197 208l169 117q46 -80 77 -112q77 -80 200 -80q127 0 208 90q69 78 69 188q0 128 -90 211q-77 69 -184 69
q-116 0 -197 -88l-164 35l141 690h640z" />
    <glyph glyph-name="Caron" horiz-adv-x="975" 
d="M304 1819l184 -180l183 180l153 -77l-267 -292h-139l-267 292z" />
    <glyph glyph-name="Breve" horiz-adv-x="975" 
d="M190 1758l177 15q3 -74 13 -94q31 -67 104 -67t106 71q10 18 19 89l177 -14q-12 -104 -38 -154q-84 -166 -263 -166q-133 0 -218 93q-45 49 -59 94q-17 45 -18 133z" />
    <glyph glyph-name="Tilde" horiz-adv-x="975" 
d="M625 1754l170 -39q-17 -221 -188 -221q-76 0 -151 42q-50 27 -75 27q-14 0 -20 -14t-15 -64l-166 39q9 89 45 145q49 76 146 76q68 0 154 -46q44 -23 72 -23q21 0 28 78z" />
    <glyph glyph-name="Hungarumlaut" horiz-adv-x="975" 
d="M452 1833l180 -101l-299 -301l-116 78zM750 1833l176 -105l-295 -297l-119 74z" />
    <glyph glyph-name="Cedilla" horiz-adv-x="975" 
d="M307 -376l200 314l187 -81l-241 -306z" />
    <glyph glyph-name="Ogonek" horiz-adv-x="975" 
d="M693 0h204q-74 -94 -74 -134q0 -29 37 -29q36 0 95 22l60 -152q-102 -39 -172 -39q-99 0 -160 67q-46 50 -46 120q0 65 56 145z" />
    <glyph glyph-name="Macron" horiz-adv-x="975" 
d="M181 1528v183h613v-183h-613z" />
    <glyph glyph-name="Commaaccent" horiz-adv-x="975" 
d="M450 -483l-150 47l110 374l196 -60z" />
    <glyph glyph-name="Comma.high" horiz-adv-x="975" 
d="M697 1411l-150 48l110 373l196 -59z" />
    <glyph glyph-name="Dieresis.alt" horiz-adv-x="975" 
d="M630 1749q53 0 93 -38q38 -38 38 -92t-38 -92q-40 -38 -94 -38q-55 0 -93 39q-38 38 -38 93q0 53 39 90q40 38 93 38zM332 1749q54 0 94 -38q38 -38 38 -92t-38 -92q-40 -38 -94 -38q-56 0 -93 39q-38 38 -38 93q0 53 39 91q38 37 92 37z" />
    <glyph glyph-name="commaaccent" horiz-adv-x="975" 
d="M450 -483l-150 47l110 374l196 -60z" />
    <glyph glyph-name="comma.high" horiz-adv-x="975" 
d="M697 1002l-150 47l110 373l196 -59z" />
    <glyph glyph-name="dieresis.alt" horiz-adv-x="975" 
d="M630 1344q53 0 93 -38q38 -38 38 -92t-38 -92q-40 -38 -94 -38q-55 0 -93 39q-38 38 -38 93q0 52 39 90q40 38 93 38zM332 1344q54 0 94 -38q38 -38 38 -92t-38 -92q-40 -38 -93 -38q-55 0 -93.5 38t-38.5 94q0 52 39 90q40 38 92 38z" />
    <glyph glyph-name="commareversed" horiz-adv-x="975" 
d="M703 1422l150 -48l-111 -373l-195 59z" />
    <glyph glyph-name="G.salt" horiz-adv-x="1493" 
d="M806 537v198h557v-468l-10 -13q-37 -47 -69 -79q-78 -79 -188 -131q-152 -72 -315 -72q-190 0 -353 94q-166 95 -260 261q-96 165 -96 355q0 188 95 355q97 168 261 262q163 94 358 94q244 0 428 -151q18 -15 97 -89l-149 -144q-74 75 -128 112q-106 72 -247 72
q-225 0 -369 -162q-130 -146 -130 -349q0 -233 167 -383q140 -127 328 -127q217 0 368 168v12v185h-345z" />
    <glyph glyph-name="M.salt" horiz-adv-x="1711" 
d="M338 0h-215l138 1365h198l397 -821l397 821h198l138 -1365h-215l-97 983l-335 -690h-172l-335 688z" />
    <glyph glyph-name="y.salt" horiz-adv-x="948" 
d="M209 908l261 -619l270 619h220l-533 -1209q-91 -205 -233 -205q-49 0 -121 23l31 192q2 -1 6 -2.5t6 -2.5q36 -17 55 -17q36 0 77 92l113 261l-373 868h221z" />
    <glyph glyph-name="parenleft.salt" horiz-adv-x="637" 
d="M338 1636l183 -85q-157 -399 -157 -869q0 -471 157 -867l-183 -86q-35 77 -47 107q-45 114 -77 283q-57 293 -57 571q0 268 48 515q46 242 133 431z" />
    <glyph glyph-name="parenright.salt" horiz-adv-x="637" 
d="M298 -271l-182 85q157 402 157 868t-157 868l182 86q58 -122 92 -249q90 -330 90 -698q0 -358 -82 -686q-32 -127 -100 -274z" />
    <glyph glyph-name="bracketleft.salt" horiz-adv-x="617" 
d="M541 1423h-184v-1480h184v-192h-391v1864h391v-192z" />
    <glyph glyph-name="bracketright.salt" horiz-adv-x="617" 
d="M75 -57h184v1480h-184v192h391v-1864h-391v192z" />
    <glyph glyph-name="afii61248.salt" horiz-adv-x="1542" 
d="M1119 550q131 0 219 -96q74 -82 74 -193q0 -128 -95 -214q-85 -75 -204 -75q-135 0 -224 96q-74 83 -74 196q0 125 95 211q84 75 209 75zM1111 419q-65 0 -106.5 -44t-41.5 -113q0 -79 49 -122q41 -37 101 -37q68 0 109.5 44.5t41.5 116.5q0 69 -42.5 112t-110.5 43z
M672 1207l-100 -93q-48 48 -73 62q-30 14 -70 14q-68 0 -109.5 -43.5t-41.5 -115.5q0 -78 48 -120q43 -37 104 -37q42 0 73 17t72 64l100 -94q-61 -64 -117 -91t-127 -27q-139 0 -227 97q-74 82 -74 192q0 128 95 214q84 75 206 75q69 0 123.5 -25.5t117.5 -88.5zM310 38
l784 1355l116 -67l-784 -1355z" />
    <glyph glyph-name="braceleft.salt" horiz-adv-x="618" 
d="M568 1612v-184l-41 1q-76 0 -96 -20q-20 -22 -20 -99v-401q0 -85 -21 -136.5t-72 -91.5q38 -30 57 -59q36 -60 36 -173v-394q0 -79 20 -101q20 -20 99 -20l38 1v-184q-82 -2 -84 -2q-148 0 -214 74t-66 239v385q0 80 -21 110q-23 30 -92 48v164q68 19 91 48q22 28 22 100
v391q0 126 39 194q63 112 242 112q5 0 83 -2z" />
    <glyph glyph-name="braceright.salt" horiz-adv-x="618" 
d="M50 1430v184q74 2 83 2q147 0 214 -73t67 -233v-391q0 -73 22 -101q23 -29 91 -47v-165q-69 -16 -91 -47q-22 -29 -22 -110v-386q0 -129 -39 -200q-64 -112 -241 -112q-4 0 -14.5 0.5t-30.5 1t-39 0.5v183h37q78 0 100 20q20 22 20 101v393q0 88 21 141q20 52 72 92
q-39 31 -55 56q-38 59 -38 171v402q0 77 -20 99q-20 20 -96 20q-16 0 -41 -1z" />
    <glyph glyph-name="copyright.salt" horiz-adv-x="945" 
d="M709 1293l-72 -70q-38 41 -63 55t-61 14q-63 0 -105 -44t-42 -108q0 -65 43 -108q42 -44 104 -44q37 0 59 12q20 11 68 57l72 -70q-9 -9 -16 -15q-82 -82 -182 -82q-114 0 -188 83q-64 70 -64 167q0 111 83 186q70 64 169 64q104 0 195 -97zM501 1561q189 0 315 -140
q109 -119 109 -283q0 -187 -140 -315q-120 -108 -283 -108q-176 0 -299 124q-124 124 -124 306q0 177 141 308q117 108 281 108zM498 1469q-144 0 -241 -109q-86 -97 -86 -227q0 -65 29.5 -130t80.5 -112q93 -84 220 -84q150 0 247 109q85 94 85 222q0 145 -110 246
q-91 85 -225 85z" />
    <glyph glyph-name="registered.salt" horiz-adv-x="945" 
d="M594 1100l113 -198h-112l-98 172h-17h-8h-19v-172h-102v476h130q99 0 143 -50q38 -44 38 -103q0 -78 -68 -125zM486 1285h-33v-119h33q78 0 78 59q0 60 -78 60zM501 1561q189 0 315 -140q109 -119 109 -283q0 -187 -140 -315q-120 -108 -283 -108q-176 0 -299 124
q-124 124 -124 306q0 177 141 308q117 108 281 108zM498 1469q-144 0 -241 -109q-86 -97 -86 -227q0 -65 29.5 -130t80.5 -112q93 -84 220 -84q150 0 247 109q85 94 85 222q0 145 -110 246q-91 85 -225 85z" />
    <glyph glyph-name="Circumflex" horiz-adv-x="975" 
d="M671 1432l-183 180l-184 -180l-153 77l267 292h139l267 -292z" />
    <glyph glyph-name="six.fitted" horiz-adv-x="1139" 
d="M651 1400l165 -122l-274 -384q17 6 40 6q130 0 244 -66q102 -58 161 -159q59 -103 59 -225q0 -128 -65 -241q-64 -111 -176 -175q-109 -62 -236 -62q-216 0 -359 158q-122 136 -122 319q0 163 107 314zM568 707q-122 0 -202 -87q-67 -73 -67 -179q0 -126 88 -205
q73 -67 181 -67q118 0 198 89q69 78 69 190q0 116 -84 191q-76 68 -183 68z" />
    <glyph glyph-name="seven.fitted" horiz-adv-x="1139" 
d="M389 -36l-184 97l598 1109h-650v195h900v-157z" />
    <glyph glyph-name="eight.fitted" horiz-adv-x="1139" 
d="M292 727q-136 123 -136 279q0 168 128 284q115 103 286 103q196 0 315 -132q99 -109 99 -255q0 -154 -137 -279q57 -43 97 -90q83 -101 83 -242q0 -188 -135 -308q-130 -115 -322 -115q-136 0 -252 65q-95 55 -151 150q-54 93 -54 208q0 159 110 272q30 31 69 60z
M566 623q-117 0 -185 -74q-58 -64 -58 -154q0 -104 73 -170q68 -60 174 -60q122 0 189 76q58 64 58 155q0 101 -72 167q-65 60 -179 60zM571 1207q-106 0 -167 -69q-50 -56 -50 -133q0 -89 63 -146q60 -54 156 -54q103 0 165 68q49 55 49 135q0 86 -65 145q-58 54 -151 54z
" />
    <glyph glyph-name="nine.fitted" horiz-adv-x="1139" 
d="M488 -36l-165 122l275 385q-17 -4 -45 -4q-129 0 -241 66q-103 60 -160 159q-59 101 -59 223q0 128 65 241q64 111 176 175q109 62 236 62q216 0 359 -158q122 -136 122 -319q0 -164 -108 -314zM571 1196q-118 0 -198 -89q-69 -78 -69 -190q0 -115 83 -189
q77 -68 184 -68q123 0 203 87q66 73 66 177q0 124 -88 205q-73 67 -181 67z" />
    <glyph glyph-name="zero.fitted" horiz-adv-x="1139" 
d="M564 1393q527 0 527 -711q0 -710 -520 -710q-523 0 -523 720q0 304 103 482q58 101 152 154q116 65 261 65zM569 1195q-123 0 -199 -84q-48 -54 -76 -168q-30 -115 -30 -248q0 -258 77 -398q70 -127 229 -127q305 0 305 520q0 229 -76 378q-30 58 -92 93q-59 34 -138 34z
" />
    <glyph glyph-name="sterling.fitted" horiz-adv-x="1139" 
d="M454 781h413v-191h-372q21 -105 21 -194q0 -99 -77 -200h619v-196h-925v184q18 14 25 19q81 63 112 110q32 49 32 107q0 52 -23 170h-146v191h105q-16 89 -16 168q0 225 132 338q124 106 294 106q248 0 382 -248l-170 -106q-50 85 -100 120.5t-120 35.5q-92 0 -151 -63
q-56 -59 -56 -174q0 -70 21 -177z" />
    </font>
</defs>
</svg>
