<?xml version="1.0" standalone="no"?>
<!DOCTYPE svg PUBLIC "-//W3C//DTD SVG 1.1//EN" "http://www.w3.org/Graphics/SVG/1.1/DTD/svg11.dtd" >
<svg xmlns="http://www.w3.org/2000/svg" xmlns:xlink="http://www.w3.org/1999/xlink" version="1.1">
<metadata>
Created by FontForge 20170731 at Thu Jan 14 12:16:33 2016
 By Aleksey,,,
(URW)++,Copyright 2015 by (URW)++ Design &#38; Development
</metadata>
<defs>
<font id="URWGeometric-Thin" horiz-adv-x="792" >
  <font-face 
    font-family="URW Geometric Thin"
    font-weight="250"
    font-stretch="normal"
    units-per-em="2048"
    panose-1="0 0 0 0 0 0 0 0 0 0"
    ascent="1506"
    descent="-542"
    x-height="908"
    cap-height="1365"
    bbox="-232 -495 2466 2120"
    underline-thickness="42"
    underline-position="-264"
    unicode-range="U+0020-FB04"
  />
<missing-glyph horiz-adv-x="553" 
d="M498 0h-443v1365h443v-1365zM110 55h333v1255h-333v-1255z" />
    <glyph glyph-name="afii61352" unicode="Nr&#x2e;" horiz-adv-x="2150" 
d="M1730 1383q120 0 202 -91q71 -80 71 -188q0 -128 -91 -210q-77 -70 -187 -70q-126 0 -207 91q-71 80 -71 191q0 124 92 207q76 70 191 70zM1721 1331q-95 0 -156 -64q-63 -65 -63 -163q0 -104 66 -167q62 -61 157 -61q111 0 175 79q48 60 48 151q0 100 -66 165
q-63 60 -161 60zM1968 609h-487v52h487v-52zM1197 0l-955 1303v-1303h-58v1365h79l955 -1303v1303h58v-1365h-79z" />
    <glyph glyph-name="ff" unicode="ff" horiz-adv-x="954" 
d="M85 908h102v174q0 273 175 273q28 0 58 -10v-52q-24 7 -48 7q-69 0 -99.5 -51t-30.5 -167v-174h182v-51h-182v-857h-55v857h-102v51zM553 908h102v195q0 133 39 196q46 76 136 76q28 0 58 -10v-51q-26 6 -48 6q-69 0 -99.5 -51t-30.5 -166v-195h182v-51h-182v-857h-55
v857h-102v51z" />
    <glyph glyph-name="fi" unicode="fi" horiz-adv-x="822" 
d="M85 908h102v195q0 133 39 196q46 76 136 76q28 0 58 -10v-51q-26 6 -48 6q-69 0 -99.5 -51t-30.5 -166v-195h182v-51h-182v-857h-55v857h-102v51zM617 908h55v-908h-55v908zM645 1256q21 0 36 -15.5t15 -36.5t-15 -36.5t-36 -15.5q-20 0 -35.5 16t-15.5 37
q0 20 15.5 35.5t35.5 15.5z" />
    <glyph glyph-name="fl" unicode="fl" horiz-adv-x="824" 
d="M85 908h102v195q0 133 39 196q46 76 136 76q28 0 58 -10v-51q-26 6 -48 6q-69 0 -99.5 -51t-30.5 -166v-195h182v-51h-182v-857h-55v857h-102v51zM674 1365v-1365h-55v1365h55z" />
    <glyph glyph-name="ffi" unicode="ffi" horiz-adv-x="1290" 
d="M85 908h102v174q0 273 175 273q28 0 58 -10v-52q-24 7 -48 7q-69 0 -99.5 -51t-30.5 -167v-174h182v-51h-182v-857h-55v857h-102v51zM553 908h102v195q0 133 39 196q46 76 136 76q28 0 58 -10v-51q-26 6 -48 6q-69 0 -99.5 -51t-30.5 -166v-195h182v-51h-182v-857h-55
v857h-102v51zM1085 908h55v-908h-55v908zM1113 1256q21 0 36 -15.5t15 -36.5t-15 -36.5t-36 -15.5t-36 16t-15 37q0 20 15.5 35.5t35.5 15.5z" />
    <glyph glyph-name="ffl" unicode="ffl" horiz-adv-x="1292" 
d="M85 908h102v174q0 273 175 273q28 0 58 -10v-52q-24 7 -48 7q-69 0 -99.5 -51t-30.5 -167v-174h182v-51h-182v-857h-55v857h-102v51zM553 908h102v195q0 133 39 196q46 76 136 76q28 0 58 -10v-51q-26 6 -48 6q-69 0 -99.5 -51t-30.5 -166v-195h182v-51h-182v-857h-55
v857h-102v51zM1142 1365v-1365h-55v1365h55z" />
    <glyph glyph-name=".notdef" horiz-adv-x="553" 
d="M498 0h-443v1365h443v-1365zM110 55h333v1255h-333v-1255z" />
    <glyph glyph-name="glyph1" horiz-adv-x="0" 
 />
    <glyph glyph-name="glyph2" horiz-adv-x="553" 
 />
    <glyph glyph-name="space" unicode=" " horiz-adv-x="553" 
 />
    <glyph glyph-name="exclam" unicode="!" horiz-adv-x="512" 
d="M280 331h-48l-9 1034h66zM256 90q21 0 36 -15.5t15 -36.5t-15 -36.5t-36 -15.5q-20 0 -35.5 16t-15.5 37q0 20 15.5 35.5t35.5 15.5z" />
    <glyph glyph-name="quotedbl" unicode="&#x22;" horiz-adv-x="575" 
d="M168 1365l-11 -444h-38l-10 444h59zM465 1365l-10 -444h-38l-10 444h58z" />
    <glyph glyph-name="numbersign" unicode="#" horiz-adv-x="1201" 
d="M132 464h166l88 436h-164l9 43h163l85 424l46 -11l-83 -413h426l86 424l45 -10l-84 -414h164l-9 -43h-163l-88 -436h163l-9 -43h-163l-85 -423l-45 11l83 412h-427l-85 -423l-45 11l83 412h-166zM433 900l-88 -436h427l88 436h-427z" />
    <glyph glyph-name="dollar" unicode="$" horiz-adv-x="1132" 
d="M549 1382v188h57v-188q170 -15 279 -160l-46 -30q-113 138 -269 138q-85 0 -155 -35q-74 -38 -117 -110q-40 -67 -40 -143q0 -180 240 -275l141 -55q156 -61 231 -145q71 -80 71 -198q0 -145 -94 -251q-96 -108 -241 -130v-200h-57v194h-6h-6q-200 0 -315 154
q-40 54 -65 131l56 16q24 -68 56 -112q101 -134 273 -134q147 0 246 101q95 98 95 229q0 105 -64 172q-66 69 -219 130l-135 53q-263 105 -263 319q0 143 96 237q95 93 251 104z" />
    <glyph glyph-name="percent" unicode="%" horiz-adv-x="1855" 
d="M1434 822q298 0 298 -416q0 -184 -59 -290q-71 -125 -244 -125q-295 0 -295 421q0 410 300 410zM1434 766q-241 0 -241 -364q0 -355 240 -355t240 359q0 360 -239 360zM519 19l780 1348l36 -21l-780 -1348zM423 1376q298 0 298 -415q0 -184 -59 -290q-71 -125 -244 -125
q-295 0 -295 421q0 409 300 409zM423 1320q-241 0 -241 -363q0 -355 240 -355t240 359t-239 359z" />
    <glyph glyph-name="ampersand" unicode="&#x26;" horiz-adv-x="1259" 
d="M599 803l-39 -31l427 -520q71 111 120 258l51 -14q-58 -173 -136 -286l172 -210h-69l-136 167q-164 -185 -407 -185q-204 0 -322 121q-96 99 -96 235q0 164 169 317q23 21 118 95l38 29l-38 48q-137 167 -137 301q0 109 77 186q71 69 184 69q118 0 189 -77
q65 -71 65 -167q0 -84 -54 -163t-176 -173zM502 842l27 -32l31 23q116 89 167 162t51 150q0 83 -58 138q-58 54 -146 54q-104 0 -162 -72q-47 -56 -47 -129q0 -127 137 -294zM955 209l-435 533l-22 -18q-2 -2 -61 -45q-217 -160 -217 -334q0 -89 54 -164q103 -145 311 -145
q223 0 370 173z" />
    <glyph glyph-name="quotesingle" unicode="'" horiz-adv-x="277" 
d="M168 1365l-11 -444h-38l-10 444h59z" />
    <glyph glyph-name="parenleft" unicode="(" horiz-adv-x="550" 
d="M350 1476l49 -22q-151 -390 -151 -888q0 -499 151 -889l-49 -23q-69 150 -114 408q-45 256 -45 503t45 504q43 255 114 407z" />
    <glyph glyph-name="parenright" unicode=")" horiz-adv-x="550" 
d="M150 1454l50 22q69 -152 114 -407q44 -259 44 -504q0 -247 -45 -503t-113 -408l-50 23q151 390 151 889q0 498 -151 888z" />
    <glyph glyph-name="asterisk" unicode="*" horiz-adv-x="896" 
d="M175 1280l255 -94l-11 271h58l-11 -271l255 94l18 -55l-262 -73l169 -214l-47 -34l-151 227l-151 -227l-47 34l169 214l-262 73z" />
    <glyph glyph-name="plus" unicode="+" horiz-adv-x="1139" 
d="M137 664h407v410h50v-410h407v-48h-407v-410h-50v410h-407v48z" />
    <glyph glyph-name="comma" unicode="," horiz-adv-x="409" 
d="M69 -272l147 415l60 -22l-173 -407z" />
    <glyph glyph-name="hyphen" unicode="-" horiz-adv-x="481" 
d="M96 447v49h290v-49h-290z" />
    <glyph glyph-name="period" unicode="." horiz-adv-x="406" 
d="M203 90q21 0 36 -15.5t15 -36.5t-15 -36.5t-36 -15.5q-20 0 -35.5 16t-15.5 37q0 20 15.5 35.5t35.5 15.5z" />
    <glyph glyph-name="slash" unicode="/" horiz-adv-x="1076" 
d="M133 24l768 1343l42 -25l-768 -1344z" />
    <glyph glyph-name="zero" unicode="0" horiz-adv-x="1161" 
d="M573 1383q276 0 389 -206q96 -178 96 -494q0 -317 -96 -495q-113 -206 -381 -206q-272 0 -383 206q-96 178 -96 504q0 691 471 691zM581 1328q-157 0 -263 -101q-158 -153 -158 -552q0 -267 84 -435q49 -98 141 -154q83 -49 195 -49q158 0 262 101q158 153 158 545
q0 279 -84 442q-104 203 -335 203z" />
    <glyph glyph-name="one" unicode="1" horiz-adv-x="558" 
d="M375 1365v-1365h-58v1314l-256 -150l-27 48l261 153h80z" />
    <glyph glyph-name="two" unicode="2" horiz-adv-x="982" 
d="M908 0h-796v75l515 566q99 111 143.5 198t44.5 174q0 115 -67 198q-95 119 -258 119q-239 0 -323 -251l-52 15q24 81 61 133q116 156 325 156q163 0 270 -111q101 -107 101 -257q0 -118 -74 -239q-54 -86 -140 -181l-492 -541h742v-54z" />
    <glyph glyph-name="three" unicode="3" horiz-adv-x="935" 
d="M411 692v50h67q125 0 198 94q69 88 69 201q0 129 -86 212q-87 81 -224 81q-163 0 -269 -132l-46 26q122 159 318 159q152 0 249 -85q113 -98 113 -258q0 -104 -48 -186.5t-137 -131.5q218 -110 218 -351q0 -163 -96 -269q-108 -120 -296 -120q-143 0 -245 69.5
t-143 196.5l55 15q21 -54 44 -89q93 -137 286 -137q159 0 251 95q87 90 87 235q0 159 -105 255q-76 70 -197 70h-63z" />
    <glyph glyph-name="four" unicode="4" horiz-adv-x="1055" 
d="M661 1371l48 -31l-569 -964h587v384h58v-384h178v-54h-178v-322h-58v322h-645v64z" />
    <glyph glyph-name="five" unicode="5" horiz-adv-x="1033" 
d="M352 1311l-99 -499q115 56 227 56q99 0 187.5 -40t148.5 -111q100 -119 100 -287q0 -194 -121 -321t-309 -127q-249 0 -384 194l45 33q119 -171 337 -171q174 0 271 105q48 54 76 129t28 153q0 162 -107 274q-112 115 -278 115q-138 0 -244 -89l-51 11l125 629h541v-54
h-493z" />
    <glyph glyph-name="six" unicode="6" horiz-adv-x="1100" 
d="M211 729l446 638l45 -34l-377 -538q100 53 219 53q212 0 339 -145q99 -113 99 -272q0 -198 -142 -333q-122 -116 -292 -116q-192 0 -321 142q-117 128 -117 306q0 153 101 299zM545 796q-159 0 -268 -108t-109 -266q0 -154 107 -269q113 -117 270 -117q160 0 271 115
q108 113 108 277q0 157 -105 259q-112 109 -274 109z" />
    <glyph glyph-name="seven" unicode="7" horiz-adv-x="909" 
d="M139 26l674 1285h-758v54h814v-66l-679 -1301z" />
    <glyph glyph-name="eight" unicode="8" horiz-adv-x="1021" 
d="M339 726q-84 50 -128 115q-62 92 -62 196q0 165 124 267q95 79 237 79q164 0 263 -103q98 -101 98 -243q0 -199 -191 -311q238 -127 238 -358q0 -187 -134 -294q-116 -92 -274 -92q-188 0 -306 120q-102 103 -102 266q0 230 237 358zM506 691q-157 0 -255 -98
q-92 -94 -92 -231q0 -133 92 -225q99 -100 259 -100t259 100q92 92 92 224q0 140 -92 232q-98 98 -263 98zM507 1330q-133 0 -221 -88q-82 -82 -82 -208q0 -136 107 -223q82 -67 199 -67q136 0 224 90q82 82 82 205q0 141 -108 226q-83 65 -201 65z" />
    <glyph glyph-name="nine" unicode="9" horiz-adv-x="1105" 
d="M888 637l-447 -639l-44 34l376 539q-99 -48 -217 -48q-216 0 -341 143q-98 113 -98 270q0 199 142 332q121 115 293 115q175 0 296 -112q46 -41 81 -101q60 -106 60 -232q0 -155 -101 -301zM554 1329q-160 0 -271 -114q-109 -112 -109 -276q0 -73 27.5 -143t74.5 -117
q49 -48 123.5 -76t153.5 -28q160 0 270 107q109 108 109 265q0 160 -106 267q-112 115 -272 115z" />
    <glyph glyph-name="colon" unicode=":" horiz-adv-x="406" 
d="M203 90q21 0 36 -15.5t15 -36.5t-15 -36.5t-36 -15.5q-20 0 -35.5 16t-15.5 37q0 20 15.5 35.5t35.5 15.5zM203 868q21 0 36 -15.5t15 -36.5t-15 -36.5t-36 -15.5t-36 16t-15 37q0 20 15.5 35.5t35.5 15.5z" />
    <glyph glyph-name="semicolon" unicode=";" horiz-adv-x="413" 
d="M69 -272l147 415l60 -22l-173 -407zM242 783q21 0 36 -15.5t15 -36.5t-15 -36.5t-36 -15.5t-36 15.5t-15 37.5q0 20 15.5 35.5t35.5 15.5z" />
    <glyph glyph-name="less" unicode="&#x3c;" horiz-adv-x="1098" 
d="M146 731l806 378v-63l-781 -356l781 -358v-61l-806 378v82z" />
    <glyph glyph-name="equal" unicode="=" horiz-adv-x="1139" 
d="M195 530h749v-49h-749v49zM195 799h749v-49h-749v49z" />
    <glyph glyph-name="greater" unicode="&#x3e;" horiz-adv-x="1098" 
d="M952 649l-806 -379v63l780 357l-780 357v61l806 -378v-81z" />
    <glyph glyph-name="question" unicode="?" horiz-adv-x="831" 
d="M416 331h-55v105q0 90 18 131q18 40 88 101l95 82q158 137 158 298q0 128 -87 207q-82 76 -213 76q-95 0 -163.5 -34.5t-126.5 -111.5l-41 35q115 163 321 163q164 0 261 -83q106 -91 106 -253q0 -177 -156 -313l-117 -102q-57 -50 -72 -87q-16 -36 -16 -128v-86zM387 90
q22 0 37 -15t15 -37q0 -21 -15.5 -36.5t-35.5 -15.5q-21 0 -36 16t-15 37q0 20 15 35.5t35 15.5z" />
    <glyph glyph-name="at" unicode="@" horiz-adv-x="1881" 
d="M1062 1047h209l-92 -725h89q178 0 279 120q99 118 99 335q0 235 -123 402q-168 227 -510 227q-220 0 -399 -88q-185 -90 -285 -274q-94 -169 -94 -381q0 -188 77 -340q103 -202 303 -289q175 -74 391 -74q222 0 447 69l18 -47q-230 -68 -470 -68q-424 0 -635 235
q-182 203 -182 510q0 228 100 409q107 194 300 290q189 94 422 94q379 0 565 -256q126 -173 126 -415q0 -124 -35.5 -226t-100.5 -164q-64 -63 -144 -89t-206 -26h-289q-108 0 -193 56q-140 95 -140 288q0 183 115 302q119 125 358 125zM940 322h189l86 679h-173
q-126 0 -211 -43q-92 -48 -140 -138q-49 -91 -49 -202q0 -147 97 -229q79 -67 201 -67z" />
    <glyph glyph-name="A" unicode="A" horiz-adv-x="1236" 
d="M976 413h-717l-165 -413h-60l553 1365h62l553 -1365h-61zM618 1307l-337 -840h673z" />
    <glyph glyph-name="B" unicode="B" horiz-adv-x="1057" 
d="M505 0h-321v1365h248q221 0 321 -76q57 -44 90.5 -115t33.5 -149q0 -112 -58 -196t-162 -120q116 -29 184 -92q109 -102 109 -262q0 -162 -128 -266q-62 -49 -132 -69q-72 -20 -185 -20zM241 1312v-586h217q100 0 156 15t104 54q105 85 105 227q0 70 -29 131.5t-79 97.5
q-85 61 -257 61h-217zM241 674v-620h252q104 0 169 17q63 17 117 57q115 88 115 235q0 110 -69 194q-52 63 -133 90t-220 27h-231z" />
    <glyph glyph-name="C" unicode="C" horiz-adv-x="1337" 
d="M1239 1199l-40 -40q-172 169 -406 169q-185 0 -336 -95q-143 -92 -222 -251q-70 -140 -70 -301q0 -283 195 -470q180 -174 434 -174q229 0 415 174l38 -40q-197 -189 -450 -189q-197 0 -360 99q-151 92 -239 250q-92 164 -92 351q0 186 92 350q91 164 250 258
q157 93 346 93q251 0 445 -184z" />
    <glyph glyph-name="D" unicode="D" horiz-adv-x="1267" 
d="M184 0v1365h245q308 0 502 -154q229 -181 229 -527q0 -349 -229 -530q-193 -154 -502 -154h-245zM436 1310h-194v-1255h194q273 0 450 141q216 172 216 488q0 314 -216 486q-178 140 -450 140z" />
    <glyph glyph-name="E" unicode="E" horiz-adv-x="955" 
d="M826 1365v-53h-584v-592h520v-54h-520v-611h606v-55h-664v1365h642z" />
    <glyph glyph-name="F" unicode="F" horiz-adv-x="871" 
d="M776 1365v-53h-534v-592h487v-54h-487v-666h-58v1365h592z" />
    <glyph glyph-name="G" unicode="G" horiz-adv-x="1493" 
d="M898 605v53h485v-31q0 -187 -66 -329q-60 -131 -178 -215q-143 -101 -340 -101q-278 0 -472 185q-105 99 -163 233.5t-58 279.5q0 189 91 352q93 166 251 258q157 93 347 93q253 0 444 -184l-39 -39q-171 168 -407 168q-184 0 -336 -95q-144 -91 -223 -251
q-69 -141 -69 -302q0 -167 76 -309q80 -153 224 -241q150 -93 330 -93q246 0 396 167q66 75 98 169q31 91 36 232h-427z" />
    <glyph glyph-name="H" unicode="H" horiz-adv-x="1331" 
d="M242 1365v-645h846v645h58v-1365h-58v666h-846v-666h-58v1365h58z" />
    <glyph glyph-name="I" unicode="I" horiz-adv-x="427" 
d="M184 1365h58v-1365h-58v1365z" />
    <glyph glyph-name="J" unicode="J" horiz-adv-x="782" 
d="M540 1365h58v-969q0 -231 -94 -328q-81 -86 -215 -86q-129 0 -262 112l34 40q115 -97 226 -97q253 0 253 359v969z" />
    <glyph glyph-name="K" unicode="K" horiz-adv-x="1115" 
d="M1045 1365l-495 -551l530 -814h-68l-501 771l-269 -300v-471h-58v1365h58v-821l734 821h69z" />
    <glyph glyph-name="L" unicode="L" horiz-adv-x="851" 
d="M184 1365h58v-1310h563v-55h-621v1365z" />
    <glyph glyph-name="M" unicode="M" horiz-adv-x="1679" 
d="M873 341h-68l-563 966v-1307h-58v1365h85l570 -977l570 977h85v-1365h-58v1307z" />
    <glyph glyph-name="N" unicode="N" horiz-adv-x="1461" 
d="M1197 0l-955 1303v-1303h-58v1365h79l955 -1303v1303h58v-1365h-79z" />
    <glyph glyph-name="O" unicode="O" horiz-adv-x="1571" 
d="M785 1383q181 0 334 -93q162 -97 253 -258q92 -163 92 -350t-93 -350q-89 -158 -242 -251q-161 -99 -349 -99q-177 0 -339 99q-155 96 -242 251q-93 163 -93 361q0 181 93 339q99 168 252 258q157 93 334 93zM780 1328q-173 0 -319 -95q-145 -94 -225 -251
q-71 -140 -71 -311q0 -156 77 -301q81 -150 226 -241q151 -92 317 -92q168 0 317 92q147 91 226 241q77 145 77 312q0 272 -189 466q-178 180 -436 180z" />
    <glyph glyph-name="P" unicode="P" horiz-adv-x="939" 
d="M429 591h-187v-591h-58v1365h245q124 0 200.5 -22t131.5 -73q117 -108 117 -288q0 -183 -117 -294q-55 -52 -132 -74.5t-200 -22.5zM242 1312v-667h207q185 0 276 88q95 92 95 249q0 155 -96 245q-89 85 -275 85h-207z" />
    <glyph glyph-name="Q" unicode="Q" horiz-adv-x="1566" 
d="M1199 130l140 -146l-35 -35l-145 151q-172 -118 -375 -118q-182 0 -343 99q-155 96 -242 251q-93 163 -93 350q0 186 92 350q93 164 253 258q157 93 334 93q178 0 334 -93q160 -94 253 -258q92 -164 92 -349q0 -276 -184 -478q-36 -41 -81 -75zM1120 140l-121 126l35 35
l126 -132q66 50 113 114q132 174 132 399q0 276 -189 466q-178 180 -430 180q-175 0 -326 -95q-144 -90 -224 -251q-71 -140 -71 -300q0 -282 198 -471q181 -174 421 -174q176 0 336 103z" />
    <glyph glyph-name="R" unicode="R" horiz-adv-x="1048" 
d="M641 613l335 -613h-65l-326 603q-77 -11 -156 -11h-187v-592h-58v1365h245q132 0 216 -23q82 -22 143 -76q126 -111 126 -293q0 -133 -74 -231q-73 -97 -199 -129zM242 1311v-666h207q200 0 300 82q107 89 107 247q0 157 -106 251q-98 86 -301 86h-207z" />
    <glyph glyph-name="S" unicode="S" horiz-adv-x="1005" 
d="M830 1222l-45 -30q-114 138 -270 138q-86 0 -156 -35q-74 -38 -116 -110q-41 -70 -41 -143q0 -181 241 -275l141 -55q155 -61 232 -145q70 -79 70 -198q0 -175 -132 -289q-113 -98 -272 -98q-200 0 -315 154q-40 54 -65 131l56 16q24 -68 56 -112q101 -134 273 -134
q147 0 246 101q95 98 95 229q0 105 -64 173t-219 129l-135 53q-264 105 -264 319q0 166 127 263q103 79 246 79q189 0 311 -161z" />
    <glyph glyph-name="T" unicode="T" horiz-adv-x="877" 
d="M842 1311h-375v-1311h-58v1311h-375v54h808v-54z" />
    <glyph glyph-name="U" unicode="U" horiz-adv-x="1298" 
d="M184 1365h58v-850q0 -119 12 -183t45 -117q47 -77 142 -127q97 -51 208 -51q153 0 272 93q79 62 107 142t28 243v850h58v-895q0 -109 -19 -178q-20 -73 -65 -131q-67 -87 -172 -134q-100 -45 -209 -45q-158 0 -286 89q-97 67 -138 159q-41 93 -41 240v895z" />
    <glyph glyph-name="V" unicode="V" horiz-adv-x="1095" 
d="M95 1365l453 -1307l453 1307h60l-476 -1365h-74l-477 1365h61z" />
    <glyph glyph-name="W" unicode="W" horiz-adv-x="1786" 
d="M1262 0l-369 1308l-370 -1308h-77l-412 1365h60l391 -1307l367 1307h82l366 -1307l392 1307h60l-413 -1365h-77z" />
    <glyph glyph-name="X" unicode="X" horiz-adv-x="1014" 
d="M140 1365l368 -600l368 600h60l-398 -647l442 -718h-66l-408 669l-409 -669h-63l441 715l-397 650h62z" />
    <glyph glyph-name="Y" unicode="Y" horiz-adv-x="966" 
d="M453 0v575l-433 790h63l399 -735l400 735h62l-433 -790v-575h-58z" />
    <glyph glyph-name="Z" unicode="Z" horiz-adv-x="1038" 
d="M950 1290l-831 -1235h847v-55h-898v76l834 1235h-768v54h816v-75z" />
    <glyph glyph-name="bracketleft" unicode="[" horiz-adv-x="567" 
d="M455 1421h-207v-1711h207v-53h-264v1817h264v-53z" />
    <glyph glyph-name="backslash" unicode="\" horiz-adv-x="1076" 
d="M133 1342l42 25l768 -1343l-42 -26z" />
    <glyph glyph-name="bracketright" unicode="]" horiz-adv-x="567" 
d="M320 -290v1711h-207v53h264v-1817h-264v53h207z" />
    <glyph glyph-name="asciicircum" unicode="^" horiz-adv-x="923" 
d="M412 1369h100l341 -542h-73l-319 499l-319 -499h-71z" />
    <glyph glyph-name="underscore" unicode="_" horiz-adv-x="972" 
d="M20 -222v42h931v-42h-931z" />
    <glyph glyph-name="grave" unicode="`" horiz-adv-x="975" 
d="M487 1104l-197 198l66 36l159 -219z" />
    <glyph glyph-name="a" unicode="a" horiz-adv-x="1134" 
d="M984 908v-908h-55v208q-48 -72 -79 -103q-37 -37 -85 -64q-101 -59 -221 -59q-205 0 -338 154q-115 133 -115 318q0 214 149 354q127 118 304 118q120 0 221 -59q50 -28 85 -63q32 -32 79 -104v208h55zM536 873q-186 0 -301 -148q-85 -109 -85 -270q0 -189 116 -307
q113 -113 277 -113q193 0 306 149q83 110 83 274q0 183 -113 302q-110 113 -283 113z" />
    <glyph glyph-name="b" unicode="b" horiz-adv-x="1134" 
d="M205 0h-55v1365h55v-665q141 226 385 226q205 0 338 -154q115 -133 115 -317q0 -215 -149 -355q-127 -118 -304 -118q-246 0 -385 226v-208zM583 873q-186 0 -298 -148q-83 -110 -83 -270q0 -188 113 -306q111 -114 276 -114q193 0 308 148q85 109 85 275q0 186 -116 302
q-113 113 -285 113z" />
    <glyph glyph-name="c" unicode="c" horiz-adv-x="925" 
d="M851 804l-38 -39q-113 108 -266 108q-198 0 -312 -147q-85 -109 -85 -271q0 -191 116 -307q113 -113 283 -113q164 0 272 116l39 -40q-130 -129 -311 -129q-211 0 -343 154q-115 133 -115 319q0 215 149 353q125 118 310 118q165 0 301 -122z" />
    <glyph glyph-name="d" unicode="d" horiz-adv-x="1134" 
d="M984 1365v-1365h-55v208q-139 -226 -385 -226q-205 0 -338 154q-115 133 -115 319q0 213 149 353q127 118 304 118q244 0 385 -226v665h55zM536 873q-186 0 -301 -148q-85 -109 -85 -270q0 -190 116 -306q112 -114 277 -114q193 0 306 149q83 110 83 274q0 183 -113 302
q-110 113 -283 113z" />
    <glyph glyph-name="e" unicode="e" horiz-adv-x="1025" 
d="M933 431h-784q5 -69 21 -124q34 -116 121 -189q100 -83 234 -83q201 0 321 165l52 -22q-145 -196 -371 -196q-201 0 -327 153q-109 133 -109 322q0 126 56 235q59 114 161 175q97 59 208 59q126 0 228 -72t150 -195q38 -93 39 -228zM149 479h728q-10 100 -36 166
q-32 83 -92 139q-98 89 -233 89q-155 0 -255 -109q-101 -109 -112 -285z" />
    <glyph glyph-name="f" unicode="f" horiz-adv-x="485" 
d="M85 908h102v195q0 133 39 196q46 76 136 76q28 0 58 -10v-51q-26 6 -48 6q-69 0 -99.5 -51t-30.5 -166v-195h182v-51h-182v-857h-55v857h-102v51z" />
    <glyph glyph-name="g" unicode="g" horiz-adv-x="1134" 
d="M929 908h55v-925q0 -197 -104 -322q-62 -75 -155.5 -115.5t-203.5 -40.5q-224 0 -379 170l37 39q55 -62 105 -93q102 -63 237 -63q189 0 298 115q110 116 110 310v45v180q-139 -226 -384 -226q-206 0 -339 154q-115 133 -115 318q0 214 149 354q127 118 304 118
q244 0 385 -226v208zM537 873q-185 0 -302 -148q-85 -109 -85 -270q0 -190 116 -306q114 -114 277 -114q193 0 307 149q83 110 83 274q0 183 -113 302q-110 113 -283 113z" />
    <glyph glyph-name="h" unicode="h" horiz-adv-x="1045" 
d="M205 1365v-627q105 188 337 188q168 0 265 -109q47 -52 68 -127.5t21 -194.5v-495h-55v477q0 116 -18.5 185.5t-61.5 117.5q-86 93 -224 93q-168 0 -260 -113q-38 -47 -55 -117q-17 -73 -17 -189v-454h-55v1365h55z" />
    <glyph glyph-name="i" unicode="i" horiz-adv-x="354" 
d="M150 908h55v-908h-55v908zM177 1256q21 0 36 -15.5t15 -36.5t-15 -36.5t-36 -15.5q-20 0 -35.5 16t-15.5 37q0 20 15.5 35.5t35.5 15.5z" />
    <glyph glyph-name="j" unicode="j" horiz-adv-x="373" 
d="M-10 -478v52q24 -7 48 -7q69 0 99.5 51t30.5 167v1123h55v-1123q0 -273 -175 -273q-28 0 -58 10zM195 1256q21 0 36 -15.5t15 -36.5t-15 -36.5t-36 -15.5q-20 0 -35.5 16t-15.5 37q0 20 15.5 35.5t35.5 15.5z" />
    <glyph glyph-name="k" unicode="k" horiz-adv-x="911" 
d="M819 908l-354 -356l423 -552h-68l-391 515l-224 -225v-290h-55v1365h55v-1008l544 551h70z" />
    <glyph glyph-name="l" unicode="l" horiz-adv-x="358" 
d="M207 1365v-1365h-55v1365h55z" />
    <glyph glyph-name="m" unicode="m" horiz-adv-x="1612" 
d="M811 714q101 212 329 212q153 0 243 -109q43 -53 61.5 -127.5t18.5 -194.5v-495h-55v477q0 215 -71 303q-77 93 -202 93q-151 0 -234 -113q-35 -51 -50 -118q-15 -70 -15 -188v-454h-55v477q0 216 -72 303q-76 93 -203 93q-161 0 -243 -124q-31 -49 -45 -115
q-13 -62 -13 -180v-454h-55v908h55v-170q87 188 307 188q217 0 299 -212z" />
    <glyph glyph-name="n" unicode="n" horiz-adv-x="1045" 
d="M205 908v-170q105 188 337 188q166 0 265 -109q47 -52 68 -127.5t21 -194.5v-495h-55v477q0 116 -18.5 185.5t-61.5 117.5q-86 93 -224 93q-168 0 -260 -113q-38 -47 -55 -117q-17 -73 -17 -189v-454h-55v908h55z" />
    <glyph glyph-name="o" unicode="o" horiz-adv-x="1091" 
d="M553 926q198 0 331 -154q115 -133 115 -317q0 -215 -150 -355q-125 -118 -304 -118q-207 0 -339 154q-115 133 -115 323q0 209 149 349q127 118 313 118zM538 873q-186 0 -303 -148q-85 -109 -85 -270q0 -190 116 -306q112 -114 279 -114q195 0 310 148q85 109 85 275
q0 186 -116 302q-113 113 -286 113z" />
    <glyph glyph-name="p" unicode="p" horiz-adv-x="1134" 
d="M205 -478h-55v1386h55v-208q141 226 385 226q205 0 338 -154q115 -133 115 -318q0 -214 -149 -354q-127 -118 -304 -118q-246 0 -385 226v-686zM583 873q-186 0 -298 -148q-83 -110 -83 -270q0 -190 113 -306q113 -114 276 -114q193 0 308 148q85 109 85 275
q0 186 -116 302q-113 113 -285 113z" />
    <glyph glyph-name="q" unicode="q" horiz-adv-x="1134" 
d="M984 908v-1386h-55v686q-139 -226 -385 -226q-205 0 -338 154q-115 133 -115 318q0 214 149 354q127 118 304 118q244 0 385 -226v208h55zM536 873q-186 0 -301 -148q-85 -109 -85 -270q0 -189 116 -307q113 -113 277 -113q193 0 306 149q83 110 83 274q0 183 -113 302
q-110 113 -283 113z" />
    <glyph glyph-name="r" unicode="r" horiz-adv-x="575" 
d="M205 908v-171q91 171 309 171v-51q-166 -6 -237 -101q-72 -96 -72 -311v-445h-55v908h55z" />
    <glyph glyph-name="s" unicode="s" horiz-adv-x="740" 
d="M605 807l-46 -25q-77 93 -187 93q-88 0 -146 -51t-58 -128t58 -128q26 -23 136 -66l96 -38q99 -39 144.5 -91t45.5 -126q0 -116 -87 -194q-82 -71 -201 -71q-187 0 -279 185l50 22q45 -79 91 -112q61 -43 144 -43q110 0 174 72q51 58 51 133q0 81 -66 134q-28 21 -137 64
l-106 42q-168 66 -168 210q0 107 78 172q79 65 184 65q140 0 229 -119z" />
    <glyph glyph-name="t" unicode="t" horiz-adv-x="479" 
d="M178 263v594h-113v51h113v238l55 22v-260h164v-51h-164v-594q0 -116 30 -167t99 -51q24 0 49 6v-51q-30 -10 -58 -10q-175 0 -175 273z" />
    <glyph glyph-name="u" unicode="u" horiz-adv-x="1045" 
d="M841 0v171q-106 -189 -337 -189q-168 0 -265 109q-47 52 -68 127.5t-21 194.5v495h55v-477q0 -118 18 -187t62 -116q85 -93 224 -93q167 0 259 113q41 50 57 118q16 67 16 188v454h55v-908h-55z" />
    <glyph glyph-name="v" unicode="v" horiz-adv-x="902" 
d="M451 52l368 856h61l-396 -908h-66l-396 908h61z" />
    <glyph glyph-name="w" unicode="w" horiz-adv-x="1394" 
d="M432 0h-73l-337 908h61l312 -859l265 859h74l265 -861l313 861h60l-336 -908h-73l-266 847z" />
    <glyph glyph-name="x" unicode="x" horiz-adv-x="827" 
d="M767 908l-321 -434l351 -474h-66l-317 432l-319 -432h-64l351 474l-321 434h65l288 -392l289 392h64z" />
    <glyph glyph-name="y" unicode="y" horiz-adv-x="863" 
d="M187 -478l210 492l-375 894h62l342 -828l354 828h61l-598 -1386h-56z" />
    <glyph glyph-name="z" unicode="z" horiz-adv-x="857" 
d="M781 848l-645 -796h667v-52h-724v60l647 797h-614v51h669v-49v-11z" />
    <glyph glyph-name="braceleft" unicode="{" horiz-adv-x="586" 
d="M113 542v47q76 37 103 99q24 56 24 147v373q0 108 22 163t75 81q51 23 137 23v-50q-84 -4 -113 -23q-36 -21 -50 -60.5t-14 -118.5v-388q4 -193 -129 -269q134 -78 129 -270v-388q0 -82 16 -123t56 -61q27 -14 105 -18v-50q-132 0 -183 58t-51 209v373q0 102 -28 157
q-29 55 -99 89z" />
    <glyph glyph-name="bar" unicode="|" horiz-adv-x="973" 
d="M459 -360v1851h55v-1851h-55z" />
    <glyph glyph-name="braceright" unicode="}" horiz-adv-x="586" 
d="M474 589v-47q-76 -37 -103 -99q-24 -55 -24 -147v-373q0 -108 -22 -163t-75 -80q-49 -24 -137 -24v50q84 4 113 23q36 21 50 60.5t14 118.5v388q-4 192 129 270q-133 76 -129 269v388q0 83 -16 123.5t-56 60.5q-27 13 -105 18v50q132 0 183 -58q51 -59 51 -209v-373
q0 -101 29 -157q28 -55 98 -89z" />
    <glyph glyph-name="asciitilde" unicode="~" horiz-adv-x="1299" 
d="M232 1250l-21 14q43 79 77 116q60 64 150 64q68 0 213 -66q99 -45 135 -56q37 -12 80 -12q63 0 107.5 27.5t91.5 96.5l23 -14q-94 -174 -240 -174q-37 0 -88 18q-45 14 -182 76q-89 40 -151 40q-108 0 -195 -130z" />
    <glyph glyph-name="nbspace" unicode="&#xa0;" horiz-adv-x="553" 
 />
    <glyph glyph-name="exclamdown" unicode="&#xa1;" horiz-adv-x="512" 
d="M223 -377l9 1035h48l9 -1035h-66zM256 1003q21 0 36 -15.5t15 -36.5t-15 -36.5t-36 -15.5t-36 15.5t-15 36.5t15.5 36.5t35.5 15.5z" />
    <glyph glyph-name="cent" unicode="&#xa2;" horiz-adv-x="1113" 
d="M578 0v212q-103 7 -190 58q-106 61 -169 175q-59 109 -59 238q0 184 115 317q113 132 303 152v213h55v-212q159 -6 287 -121l-38 -40q-113 108 -266 108q-198 0 -312 -147q-85 -109 -85 -271q0 -190 116 -306q113 -113 283 -113q163 0 272 115l39 -39
q-125 -122 -296 -128v-211h-55z" />
    <glyph glyph-name="sterling" unicode="&#xa3;" horiz-adv-x="1131" 
d="M800 653h-426l12 -58q31 -149 31 -212q0 -94 -43.5 -171t-142.5 -160h777v-52h-834v74q98 83 133 133q55 79 55 166q0 68 -35 237l-9 43h-144v52h133l-16 79q-19 86 -19 186q0 152 56 247q47 80 146 127q82 39 176 39q184 0 297 -161l-46 -31q-106 139 -257 139
q-123 0 -211 -74q-106 -91 -106 -289q0 -85 25 -206l12 -56h436v-52z" />
    <glyph glyph-name="currency" unicode="&#xa4;" horiz-adv-x="1476" 
d="M400 1002l-192 197l28 27l191 -196q125 124 311 124q181 0 311 -124l191 196l27 -27l-191 -197q116 -134 116 -319q0 -182 -116 -319l191 -197l-27 -28l-191 197q-131 -125 -311 -125q-179 0 -312 125l-191 -197l-27 28l192 197q-116 140 -116 318q0 186 116 320z
M731 1101q-187 0 -302 -148q-86 -109 -86 -269q0 -189 116 -307q113 -113 279 -113q195 0 310 148q85 109 85 275q0 185 -116 301q-113 113 -286 113z" />
    <glyph glyph-name="yen" unicode="&#xa5;" horiz-adv-x="1171" 
d="M556 0v511h-354v52h354v12l-125 227h-229v52h201l-280 511h63l399 -736l400 736h62l-280 -511h201v-52h-229l-125 -227v-12h354v-52h-354v-511h-58z" />
    <glyph glyph-name="brokenbar" unicode="&#xa6;" horiz-adv-x="973" 
d="M514 1491v-696h-55v696h55zM459 -360v696h55v-696h-55z" />
    <glyph glyph-name="section" unicode="&#xa7;" horiz-adv-x="1064" 
d="M810 141l-52 -60q117 -94 117 -239q0 -152 -100 -245q-100 -92 -273 -92q-121 0 -209.5 52.5t-162.5 168.5l50 33q127 -199 329 -199q79 0 145 29q83 38 126 112q37 64 37 142q0 97 -65.5 166.5t-211.5 126.5l-132 53q-260 102 -260 314q0 135 98 236q17 17 62 59
q-135 94 -135 250q0 162 125 258q101 77 240 77q185 0 301 -158l-46 -31q-108 136 -261 136q-140 0 -224 -91q-78 -84 -78 -190q0 -178 235 -271l139 -54q153 -61 227 -144q69 -78 69 -194q0 -139 -90 -245zM712 114q53 55 71 82q59 86 59 187t-62 169q-61 66 -215 128
l-132 52q-42 17 -73 34q-156 -112 -156 -260q0 -179 236 -272l139 -54q72 -28 133 -66z" />
    <glyph glyph-name="dieresis" unicode="&#xa8;" horiz-adv-x="975" 
d="M299 1256q21 0 36 -15.5t15 -36.5t-15 -36.5t-36 -15.5q-20 0 -35.5 16t-15.5 37q0 20 15.5 35.5t35.5 15.5zM676 1256q21 0 36 -15.5t15 -36.5t-15 -36.5t-36 -15.5t-36 16t-15 37q0 20 15.5 35.5t35.5 15.5z" />
    <glyph glyph-name="copyright" unicode="&#xa9;" horiz-adv-x="1795" 
d="M1250 1024l-35 -36q-114 114 -270 114q-197 0 -315 -150q-92 -119 -92 -271q0 -184 127 -305q118 -113 281 -113q150 0 275 117l35 -36q-135 -132 -308 -132q-212 0 -347 158q-116 134 -116 312q0 209 151 350q130 121 311 121q169 0 303 -129zM911 1458q198 0 374 -104
q180 -105 284 -284t104 -387q0 -207 -104 -388q-103 -179 -284 -283t-388 -104q-208 0 -386 103q-181 103 -284 281q-104 181 -104 393q0 335 257 572q218 201 531 201zM887 1410q-187 0 -352 -99q-170 -101 -266 -267q-98 -170 -98 -365q0 -194 98 -363q97 -166 266 -263
q167 -97 362 -97t365 98q168 97 266 265q97 169 97 370q0 314 -241 534q-205 187 -497 187z" />
    <glyph glyph-name="ordfeminine" unicode="&#xaa;" horiz-adv-x="749" 
d="M640 1373v-538h-48v105q-86 -116 -224 -116q-126 0 -208 91q-71 80 -71 189q0 126 92 209q79 70 188 70q139 0 223 -115v105h48zM364 1338q-96 0 -161 -66q-64 -67 -64 -168q0 -106 68 -172q64 -63 161 -63q112 0 177 83q49 61 49 154q0 104 -66 169q-64 63 -164 63z" />
    <glyph glyph-name="guillemotleft" unicode="&#xab;" horiz-adv-x="817" 
d="M694 756l-239 -302l238 -294l-33 -26l-260 320l261 328zM390 756l-238 -302l237 -294l-33 -26l-260 320l261 328z" />
    <glyph glyph-name="logicalnot" unicode="&#xac;" horiz-adv-x="1327" 
d="M1170 664v-458h-53v405h-960v53h1013z" />
    <glyph glyph-name="uni00AD" unicode="&#xad;" horiz-adv-x="481" 
d="M96 447v49h290v-49h-290z" />
    <glyph glyph-name="registered" unicode="&#xae;" horiz-adv-x="1795" 
d="M1004 629l223 -408h-62l-214 397q-39 -7 -103 -7h-134v-390h-53v922h187q90 0 146 -15.5t98 -52.5q86 -77 86 -201q0 -86 -48 -154q-49 -69 -126 -91zM714 1094v-434h147q131 0 196 54q68 57 68 160q0 107 -67.5 163.5t-196.5 56.5h-147zM911 1458q198 0 374 -104
q180 -105 284 -284t104 -387q0 -207 -104 -388q-103 -179 -284 -283t-388 -104q-208 0 -386 103q-181 103 -284 281q-104 181 -104 393q0 335 257 572q218 201 531 201zM887 1410q-187 0 -352 -99q-170 -101 -266 -267q-98 -170 -98 -365q0 -194 98 -363q97 -166 266 -263
q167 -97 362 -97t365 98q168 97 266 265q97 169 97 370q0 314 -241 534q-205 187 -497 187z" />
    <glyph glyph-name="overscore" unicode="&#xaf;" horiz-adv-x="975" 
d="M247 1184v51h481v-51h-481z" />
    <glyph glyph-name="degree" unicode="&#xb0;" horiz-adv-x="737" 
d="M440 1509q112 0 194 -82q82 -79 82 -197q0 -117 -82 -198q-82 -82 -197 -82q-116 0 -198 82q-82 81 -82 197q0 119 82 198q83 82 201 82zM436 1461q-95 0 -163 -68t-68 -164q0 -95 68 -163t166 -68q93 0 161 68t68 163q0 98 -68 164q-71 68 -164 68z" />
    <glyph glyph-name="plusminus" unicode="&#xb1;" horiz-adv-x="1139" 
d="M135 49h868v-49h-868v49zM135 762h407v410h54v-410h407v-48h-407v-410h-54v410h-407v48z" />
    <glyph glyph-name="twosuperior" unicode="&#xb2;" 
d="M649 831h-502v61l312 329q109 115 109 206q0 73 -52 122t-131 49q-136 0 -185 -148l-55 15q57 188 247 188q101 0 168 -64t67 -161q0 -60 -30.5 -118t-101.5 -133l-275 -290h429v-56z" />
    <glyph glyph-name="threesuperior" unicode="&#xb3;" 
d="M356 1232v53h53q69 0 109 49q38 47 38 108q0 69 -48 112.5t-125 43.5q-94 0 -158 -79l-50 27l9 12q77 95 200 95q96 0 158 -52q72 -59 72 -158q0 -118 -97 -182q117 -66 117 -202q0 -106 -68 -171q-70 -65 -179 -65q-192 0 -249 173l56 15q16 -36 24 -49q51 -83 167 -83
q87 0 138.5 48t51.5 129q0 78 -46.5 127t-121.5 49h-51z" />
    <glyph glyph-name="acute" unicode="&#xb4;" horiz-adv-x="975" 
d="M620 1338l66 -36l-198 -198l-27 15z" />
    <glyph glyph-name="mu" unicode="&#xb5;" horiz-adv-x="1045" 
d="M205 137v-615h-55v1386h55v-477q0 -118 18 -187t62 -116q85 -93 224 -93q167 0 259 113q41 50 57 118q16 67 16 188v454h55v-908h-55v171q-106 -189 -337 -189q-204 0 -299 155z" />
    <glyph glyph-name="paragraph" unicode="&#xb6;" horiz-adv-x="1314" 
d="M647 -478v963h-70q-192 0 -314 143q-106 125 -106 297q0 199 138 330q118 110 282 110h614v-48h-135v-1795h-51v1795h-307v-1795h-51z" />
    <glyph glyph-name="middot" unicode="&#xb7;" horiz-adv-x="406" 
d="M203 735q21 0 36 -15.5t15 -36.5t-15 -36.5t-36 -15.5q-20 0 -35.5 16t-15.5 37q0 20 15.5 35.5t35.5 15.5z" />
    <glyph glyph-name="cedilla" unicode="&#xb8;" horiz-adv-x="975" 
d="M537 -145l57 -25l-155 -196l-32 16z" />
    <glyph glyph-name="onesuperior" unicode="&#xb9;" 
d="M457 1642v-810h-59v748l-145 -82l-29 49l170 95h63z" />
    <glyph glyph-name="ordmasculine" unicode="&#xba;" horiz-adv-x="739" 
d="M375 1383q122 0 204 -91q72 -78 72 -188q0 -128 -93 -210q-79 -70 -188 -70q-127 0 -209 91q-72 79 -72 191q0 124 93 207q77 70 193 70zM366 1338q-98 0 -162 -66q-65 -68 -65 -168q0 -106 68 -172q66 -63 163 -63q113 0 181 83q50 62 50 154q0 104 -68 169
q-66 63 -167 63z" />
    <glyph glyph-name="guillemotright" unicode="&#xbb;" horiz-adv-x="817" 
d="M428 160l238 294l-238 302l33 26l261 -328l-261 -320zM124 160l238 294l-238 302l33 26l261 -328l-261 -320z" />
    <glyph glyph-name="onequarter" unicode="&#xbc;" horiz-adv-x="1707" 
d="M350 19l780 1348l36 -21l-780 -1348zM1271 818l49 -30l-336 -547h318v221h59v-221h107v-56h-107v-185h-59v185h-387v53zM377 1365v-810h-59v747l-145 -81l-29 48l170 96h63z" />
    <glyph glyph-name="onehalf" unicode="&#xbd;" horiz-adv-x="1707" 
d="M350 19l780 1348l36 -21l-780 -1348zM1522 0h-502v61l312 329q109 115 109 206q0 73 -52 122t-131 49q-117 0 -166 -100q-10 -21 -19 -49l-55 16q57 188 247 188q101 0 168 -64t67 -161q0 -111 -132 -251l-275 -290h429v-56zM377 1365v-810h-59v747l-145 -81l-29 48
l170 96h63z" />
    <glyph glyph-name="threequarters" unicode="&#xbe;" horiz-adv-x="1707" 
d="M476 19l780 1348l36 -21l-780 -1348zM1352 818l49 -30l-336 -547h318v221h59v-221h106v-56h-106v-185h-59v185h-387v53zM345 954v53h53q68 0 109 50q38 47 38 108q0 69 -48 112.5t-125 43.5q-93 0 -158 -80l-50 28q2 2 5 5.5t4 5.5q76 96 200 96q96 0 158 -52
q72 -58 72 -158q0 -118 -97 -182q117 -66 117 -202q0 -106 -68 -171q-70 -65 -179 -65q-192 0 -249 173l56 15q14 -33 24 -50q51 -82 167 -82q87 0 138.5 48t51.5 129q0 78 -47 126.5t-121 48.5h-51z" />
    <glyph glyph-name="questiondown" unicode="&#xbf;" horiz-adv-x="831" 
d="M451 658h55v-105q0 -91 -18 -132q-19 -40 -88 -100l-95 -83q-158 -137 -158 -297q0 -129 87 -208q82 -75 213 -75q96 0 164 34t126 111l41 -34q-115 -163 -322 -163q-165 0 -260 82q-106 91 -106 254q0 175 155 312l117 102q57 49 74 89q15 37 15 127v86zM478 1003
q21 0 36 -16t15 -37q0 -20 -15.5 -35.5t-35.5 -15.5q-21 0 -36 15.5t-15 36.5t15 36.5t36 15.5z" />
    <glyph glyph-name="Agrave" unicode="&#xc0;" horiz-adv-x="1236" 
d="M622 1514l-198 198l67 36l158 -219zM976 413h-717l-165 -413h-60l553 1365h62l553 -1365h-61zM618 1307l-337 -840h673z" />
    <glyph glyph-name="Aacute" unicode="&#xc1;" horiz-adv-x="1236" 
d="M740 1748l66 -36l-197 -198l-28 15zM976 413h-717l-165 -413h-60l553 1365h62l553 -1365h-61zM618 1307l-337 -840h673z" />
    <glyph glyph-name="Acircumflex" unicode="&#xc2;" horiz-adv-x="1236" 
d="M813 1512l-195 184l-196 -184l-33 17l189 206h81l188 -206zM976 413h-717l-165 -413h-60l553 1365h62l553 -1365h-61zM618 1307l-337 -840h673z" />
    <glyph glyph-name="Atilde" unicode="&#xc3;" horiz-adv-x="1236" 
d="M813 1673l40 -9q-24 -104 -117 -104q-44 0 -122 36q-74 34 -105 34q-61 0 -85 -65l-40 9q28 105 117 105q40 0 127 -40q64 -30 103 -30q63 0 82 64zM976 413h-717l-165 -413h-60l553 1365h62l553 -1365h-61zM618 1307l-337 -840h673z" />
    <glyph glyph-name="Adieresis" unicode="&#xc4;" horiz-adv-x="1236" 
d="M976 413h-717l-165 -413h-60l553 1365h62l553 -1365h-61zM618 1307l-337 -840h673zM806 1671q21 0 36 -15.5t15 -36.5t-15 -36.5t-36 -15.5t-36 16t-15 37q0 20 15.5 35.5t35.5 15.5zM429 1671q21 0 36 -15.5t15 -36.5t-15 -36.5t-36 -15.5t-36 15.5t-15 37.5
q0 20 15.5 35.5t35.5 15.5z" />
    <glyph glyph-name="Aring" unicode="&#xc5;" horiz-adv-x="1236" 
d="M976 413h-717l-165 -413h-60l553 1365h62l553 -1365h-61zM618 1307l-337 -840h673zM617 1759q62 0 103 -40q42 -41 42 -100t-42 -99q-43 -41 -102 -41q-60 0 -102 42q-42 40 -42 100q0 57 43 97q43 41 100 41zM618 1725q-44 0 -75 -31t-31 -76q0 -43 31.5 -74t74.5 -31
q44 0 75 31t31 75t-31 75t-75 31z" />
    <glyph glyph-name="AE" unicode="&#xc6;" horiz-adv-x="1724" 
d="M954 0v413h-650l-209 -413h-61l694 1365h868v-53h-584v-592h519v-54h-519v-611h606v-55h-664zM331 467h623v845h-197z" />
    <glyph glyph-name="Ccedilla" unicode="&#xc7;" horiz-adv-x="1337" 
d="M715 -145l57 -25l-155 -196l-32 16zM1239 1199l-40 -40q-172 169 -406 169q-185 0 -336 -95q-143 -92 -222 -251q-70 -140 -70 -301q0 -283 195 -470q180 -174 434 -174q229 0 415 174l38 -40q-197 -189 -450 -189q-197 0 -360 99q-151 92 -239 250q-92 164 -92 351
q0 186 92 350q91 164 250 258q157 93 346 93q251 0 445 -184z" />
    <glyph glyph-name="Egrave" unicode="&#xc8;" horiz-adv-x="955" 
d="M537 1514l-198 198l66 36l159 -219zM826 1365v-53h-584v-592h520v-54h-520v-611h606v-55h-664v1365h642z" />
    <glyph glyph-name="Eacute" unicode="&#xc9;" horiz-adv-x="955" 
d="M627 1748l66 -36l-197 -198l-28 15zM826 1365v-53h-584v-592h520v-54h-520v-611h606v-55h-664v1365h642z" />
    <glyph glyph-name="Ecircumflex" unicode="&#xca;" horiz-adv-x="955" 
d="M712 1512l-196 184l-195 -184l-34 17l189 206h81l188 -206zM826 1365v-53h-584v-592h520v-54h-520v-611h606v-55h-664v1365h642z" />
    <glyph glyph-name="Edieresis" unicode="&#xcb;" horiz-adv-x="955" 
d="M826 1365v-53h-584v-592h520v-54h-520v-611h606v-55h-664v1365h642zM704 1671q21 0 36 -15t15 -37q0 -21 -15 -36.5t-36 -15.5q-20 0 -35.5 16t-15.5 37q0 20 15.5 35.5t35.5 15.5zM328 1671q21 0 36 -15t15 -37q0 -21 -15 -36.5t-36 -15.5t-36 16t-15 37q0 20 15.5 35.5
t35.5 15.5z" />
    <glyph glyph-name="Igrave" unicode="&#xcc;" horiz-adv-x="427" 
d="M214 1514l-197 198l66 36l159 -219zM184 1365h58v-1365h-58v1365z" />
    <glyph glyph-name="Iacute" unicode="&#xcd;" horiz-adv-x="427" 
d="M343 1748l66 -36l-198 -198l-27 15zM184 1365h58v-1365h-58v1365z" />
    <glyph glyph-name="Icircumflex" unicode="&#xce;" horiz-adv-x="427" 
d="M408 1512l-195 184l-196 -184l-33 17l189 206h81l188 -206zM184 1365h58v-1365h-58v1365z" />
    <glyph glyph-name="Idieresis" unicode="&#xcf;" horiz-adv-x="427" 
d="M184 1365h58v-1365h-58v1365zM351 1671q21 0 36 -15t15 -37q0 -21 -15 -36.5t-36 -15.5t-36 16t-15 37q0 20 15.5 35.5t35.5 15.5zM76 1671q21 0 36 -15.5t15 -36.5t-15 -36.5t-36 -15.5q-20 0 -35.5 16t-15.5 37q0 20 15.5 35.5t35.5 15.5z" />
    <glyph glyph-name="Eth" unicode="&#xd0;" horiz-adv-x="1270" 
d="M188 0v714h-109v52h109v599h245q308 0 501 -154q230 -182 230 -526q0 -348 -230 -531q-193 -154 -501 -154h-245zM246 1310v-544h348v-52h-348v-659h194q274 0 449 141q217 172 217 488q0 314 -217 486q-178 140 -449 140h-194z" />
    <glyph glyph-name="Ntilde" unicode="&#xd1;" horiz-adv-x="1461" 
d="M942 1673l40 -9q-24 -104 -117 -104q-44 0 -122 36q-74 34 -105 34q-61 0 -84 -65l-41 9q29 105 118 105q40 0 126 -40q65 -30 103 -30q63 0 82 64zM1197 0l-955 1303v-1303h-58v1365h79l955 -1303v1303h58v-1365h-79z" />
    <glyph glyph-name="Ograve" unicode="&#xd2;" horiz-adv-x="1571" 
d="M792 1514l-197 198l66 36l158 -219zM785 1383q181 0 334 -93q162 -97 253 -258q92 -163 92 -350t-93 -350q-89 -158 -242 -251q-161 -99 -349 -99q-177 0 -339 99q-155 96 -242 251q-93 163 -93 361q0 181 93 339q99 168 252 258q157 93 334 93zM780 1328
q-173 0 -319 -95q-145 -94 -225 -251q-71 -140 -71 -311q0 -156 77 -301q81 -150 226 -241q151 -92 317 -92q168 0 317 92q147 91 226 241q77 145 77 312q0 272 -189 466q-178 180 -436 180z" />
    <glyph glyph-name="Oacute" unicode="&#xd3;" horiz-adv-x="1571" 
d="M910 1748l66 -36l-197 -198l-27 15zM785 1383q181 0 334 -93q162 -97 253 -258q92 -163 92 -350t-93 -350q-89 -158 -242 -251q-161 -99 -349 -99q-177 0 -339 99q-155 96 -242 251q-93 163 -93 361q0 181 93 339q99 168 252 258q157 93 334 93zM780 1328
q-173 0 -319 -95q-145 -94 -225 -251q-71 -140 -71 -311q0 -156 77 -301q81 -150 226 -241q151 -92 317 -92q168 0 317 92q147 91 226 241q77 145 77 312q0 272 -189 466q-178 180 -436 180z" />
    <glyph glyph-name="Ocircumflex" unicode="&#xd4;" horiz-adv-x="1571" 
d="M981 1512l-195 184l-196 -184l-33 17l188 206h81l188 -206zM785 1383q181 0 334 -93q162 -97 253 -258q92 -163 92 -350t-93 -350q-89 -158 -242 -251q-161 -99 -349 -99q-177 0 -339 99q-155 96 -242 251q-93 163 -93 361q0 181 93 339q99 168 252 258q157 93 334 93z
M780 1328q-173 0 -319 -95q-145 -94 -225 -251q-71 -140 -71 -311q0 -156 77 -301q81 -150 226 -241q151 -92 317 -92q168 0 317 92q147 91 226 241q77 145 77 312q0 272 -189 466q-178 180 -436 180z" />
    <glyph glyph-name="Otilde" unicode="&#xd5;" horiz-adv-x="1571" 
d="M980 1673l41 -9q-26 -104 -118 -104q-43 0 -122 36q-74 34 -104 34q-62 0 -85 -65l-40 9q28 105 117 105q40 0 126 -40q66 -30 103 -30q63 0 82 64zM785 1383q181 0 334 -93q162 -97 253 -258q92 -163 92 -350t-93 -350q-89 -158 -242 -251q-161 -99 -349 -99
q-177 0 -339 99q-155 96 -242 251q-93 163 -93 361q0 181 93 339q99 168 252 258q157 93 334 93zM780 1328q-173 0 -319 -95q-145 -94 -225 -251q-71 -140 -71 -311q0 -156 77 -301q81 -150 226 -241q151 -92 317 -92q168 0 317 92q147 91 226 241q77 145 77 312
q0 272 -189 466q-178 180 -436 180z" />
    <glyph glyph-name="Odieresis" unicode="&#xd6;" horiz-adv-x="1571" 
d="M785 1383q181 0 334 -93q162 -97 253 -258q92 -163 92 -350t-93 -350q-89 -158 -242 -251q-161 -99 -349 -99q-177 0 -339 99q-155 96 -242 251q-93 163 -93 361q0 181 93 339q99 168 252 258q157 93 334 93zM780 1328q-173 0 -319 -95q-145 -94 -225 -251
q-71 -140 -71 -311q0 -156 77 -301q81 -150 226 -241q151 -92 317 -92q168 0 317 92q147 91 226 241q77 145 77 312q0 272 -189 466q-178 180 -436 180zM974 1671q21 0 36 -15.5t15 -36.5t-15 -36.5t-36 -15.5t-36 16t-15 37q0 20 15.5 35.5t35.5 15.5zM597 1671
q21 0 36 -15.5t15 -36.5t-15 -36.5t-36 -15.5t-36 16t-15 37q0 20 15.5 35.5t35.5 15.5z" />
    <glyph glyph-name="multiply" unicode="&#xd7;" horiz-adv-x="1139" 
d="M245 350l289 289l-289 289l36 35l288 -288l289 288l36 -35l-289 -289l289 -289l-36 -35l-289 288l-288 -288z" />
    <glyph glyph-name="Oslash" unicode="&#xd8;" horiz-adv-x="1586" 
d="M1256 1192l168 174l31 -30l-169 -175q186 -209 186 -480q0 -187 -93 -350q-88 -156 -242 -250q-161 -99 -343 -99q-261 0 -464 191l-168 -174l-31 30l169 175q-186 208 -186 478q0 186 92 350q93 164 253 258q157 93 334 93q260 0 463 -191zM338 243l881 911
q-179 174 -427 174q-175 0 -324 -95q-145 -93 -225 -251q-71 -140 -71 -300q0 -254 166 -439zM1248 1122l-880 -910q185 -175 426 -175q168 0 317 92q147 93 226 241q77 143 77 311q0 257 -166 441z" />
    <glyph glyph-name="Ugrave" unicode="&#xd9;" horiz-adv-x="1298" 
d="M670 1514l-198 198l66 36l159 -219zM184 1365h58v-850q0 -119 12 -183t45 -117q47 -77 142 -127q97 -51 208 -51q153 0 272 93q79 62 107 142t28 243v850h58v-895q0 -109 -19 -178q-20 -73 -65 -131q-67 -87 -172 -134q-100 -45 -209 -45q-158 0 -286 89q-97 67 -138 159
q-41 93 -41 240v895z" />
    <glyph glyph-name="Uacute" unicode="&#xda;" horiz-adv-x="1298" 
d="M760 1748l66 -36l-198 -198l-27 15zM184 1365h58v-850q0 -119 12 -183t45 -117q47 -77 142 -127q97 -51 208 -51q153 0 272 93q79 62 107 142t28 243v850h58v-895q0 -109 -19 -178q-20 -73 -65 -131q-67 -87 -172 -134q-100 -45 -209 -45q-158 0 -286 89q-97 67 -138 159
q-41 93 -41 240v895z" />
    <glyph glyph-name="Ucircumflex" unicode="&#xdb;" horiz-adv-x="1298" 
d="M844 1512l-195 184l-196 -184l-33 17l188 206h82l188 -206zM184 1365h58v-850q0 -119 12 -183t45 -117q47 -77 142 -127q97 -51 208 -51q153 0 272 93q79 62 107 142t28 243v850h58v-895q0 -109 -19 -178q-20 -73 -65 -131q-67 -87 -172 -134q-100 -45 -209 -45
q-158 0 -286 89q-97 67 -138 159q-41 93 -41 240v895z" />
    <glyph glyph-name="Udieresis" unicode="&#xdc;" horiz-adv-x="1298" 
d="M184 1365h58v-850q0 -119 12 -183t45 -117q47 -77 142 -127q97 -51 208 -51q153 0 272 93q79 62 107 142t28 243v850h58v-895q0 -109 -19 -178q-20 -73 -65 -131q-67 -87 -172 -134q-100 -45 -209 -45q-158 0 -286 89q-97 67 -138 159q-41 93 -41 240v895zM837 1671
q21 0 36 -15t15 -37q0 -21 -15 -36.5t-36 -15.5t-36 16t-15 37q0 20 15.5 35.5t35.5 15.5zM460 1671q21 0 36 -15.5t15 -36.5t-15 -36.5t-36 -15.5t-36 16t-15 37q0 20 15.5 35.5t35.5 15.5z" />
    <glyph glyph-name="Yacute" unicode="&#xdd;" horiz-adv-x="966" 
d="M593 1748l66 -36l-197 -198l-27 15zM453 0v575l-433 790h63l399 -735l400 735h62l-433 -790v-575h-58z" />
    <glyph glyph-name="Thorn" unicode="&#xde;" horiz-adv-x="939" 
d="M242 1365v-225h187q124 0 200.5 -22t131.5 -73q117 -108 117 -289q0 -183 -117 -294q-55 -52 -132 -74.5t-200 -22.5h-187v-365h-58v1365h58zM449 1087h-207v-668h207q185 0 276 88q95 92 95 249q0 156 -96 246q-89 85 -275 85z" />
    <glyph glyph-name="germandbls" unicode="&#xdf;" horiz-adv-x="1042" 
d="M205 0h-55v1038q0 144 81 235q98 110 247 110q154 0 248 -94q93 -95 93 -250q0 -105 -45 -188q-47 -84 -122 -116q96 -27 156 -78q122 -105 122 -282q0 -183 -132 -291q-104 -84 -281 -84h-73v51h79q166 0 258 92q91 91 91 232q0 143 -84 230t-231 96v49q101 17 152 89
q55 76 55 193q0 128 -67 207q-79 94 -210 94q-125 0 -203 -82q-79 -82 -79 -213v-1038z" />
    <glyph glyph-name="agrave" unicode="&#xe0;" horiz-adv-x="1134" 
d="M545 1104l-198 198l66 36l159 -219zM984 908v-908h-55v208q-48 -72 -79 -103q-37 -37 -85 -64q-101 -59 -221 -59q-205 0 -338 154q-115 133 -115 318q0 214 149 354q127 118 304 118q120 0 221 -59q50 -28 85 -63q32 -32 79 -104v208h55zM536 873q-186 0 -301 -148
q-85 -109 -85 -270q0 -189 116 -307q113 -113 277 -113q193 0 306 149q83 110 83 274q0 183 -113 302q-110 113 -283 113z" />
    <glyph glyph-name="aacute" unicode="&#xe1;" horiz-adv-x="1134" 
d="M676 1338l66 -36l-198 -198l-27 15zM984 908v-908h-55v208q-48 -72 -79 -103q-37 -37 -85 -64q-101 -59 -221 -59q-205 0 -338 154q-115 133 -115 318q0 214 149 354q127 118 304 118q120 0 221 -59q50 -28 85 -63q32 -32 79 -104v208h55zM536 873q-186 0 -301 -148
q-85 -109 -85 -270q0 -189 116 -307q113 -113 277 -113q193 0 306 149q83 110 83 274q0 183 -113 302q-110 113 -283 113z" />
    <glyph glyph-name="acircumflex" unicode="&#xe2;" horiz-adv-x="1134" 
d="M734 1103l-196 184l-196 -184l-33 17l189 206h81l188 -206zM984 908v-908h-55v208q-48 -72 -79 -103q-37 -37 -85 -64q-101 -59 -221 -59q-205 0 -338 154q-115 133 -115 318q0 214 149 354q127 118 304 118q120 0 221 -59q50 -28 85 -63q32 -32 79 -104v208h55zM536 873
q-186 0 -301 -148q-85 -109 -85 -270q0 -189 116 -307q113 -113 277 -113q193 0 306 149q83 110 83 274q0 183 -113 302q-110 113 -283 113z" />
    <glyph glyph-name="atilde" unicode="&#xe3;" horiz-adv-x="1134" 
d="M733 1264l40 -10q-26 -104 -117 -104q-44 0 -122 36q-75 34 -105 34q-61 0 -84 -65l-41 10q29 104 118 104q39 0 126 -40q65 -30 103 -30q62 0 82 65zM984 908v-908h-55v208q-48 -72 -79 -103q-37 -37 -85 -64q-101 -59 -221 -59q-205 0 -338 154q-115 133 -115 318
q0 214 149 354q127 118 304 118q120 0 221 -59q50 -28 85 -63q32 -32 79 -104v208h55zM536 873q-186 0 -301 -148q-85 -109 -85 -270q0 -189 116 -307q113 -113 277 -113q193 0 306 149q83 110 83 274q0 183 -113 302q-110 113 -283 113z" />
    <glyph glyph-name="adieresis" unicode="&#xe4;" horiz-adv-x="1134" 
d="M984 908v-908h-55v208q-48 -72 -79 -103q-37 -37 -85 -64q-101 -59 -221 -59q-205 0 -338 154q-115 133 -115 318q0 214 149 354q127 118 304 118q120 0 221 -59q50 -28 85 -63q32 -32 79 -104v208h55zM536 873q-186 0 -301 -148q-85 -109 -85 -270q0 -189 116 -307
q113 -113 277 -113q193 0 306 149q83 110 83 274q0 183 -113 302q-110 113 -283 113zM366 1256q21 0 36 -15.5t15 -36.5t-15 -36.5t-36 -15.5t-36 16t-15 37q0 20 15.5 35.5t35.5 15.5zM743 1256q21 0 36 -15.5t15 -36.5t-15 -36.5t-36 -15.5t-36 16t-15 37q0 20 15.5 35.5
t35.5 15.5z" />
    <glyph glyph-name="aring" unicode="&#xe5;" horiz-adv-x="1134" 
d="M561 1349q62 0 103 -40q42 -41 42 -99t-42 -99q-43 -41 -102 -41t-102 41q-42 41 -42 100q0 57 43 97q43 41 100 41zM562 1315q-44 0 -75 -31t-31 -76q0 -41 32 -73q31 -31 74 -31q44 0 75 31t31 74q0 44 -31 75t-75 31zM984 908v-908h-55v208q-48 -72 -79 -103
q-37 -37 -85 -64q-101 -59 -221 -59q-205 0 -338 154q-115 133 -115 318q0 214 149 354q127 118 304 118q120 0 221 -59q50 -28 85 -63q32 -32 79 -104v208h55zM536 873q-186 0 -301 -148q-85 -109 -85 -270q0 -189 116 -307q113 -113 277 -113q193 0 306 149q83 110 83 274
q0 183 -113 302q-110 113 -283 113z" />
    <glyph glyph-name="ae" unicode="&#xe6;" horiz-adv-x="1746" 
d="M862 229q-58 -247 -387 -247q-179 0 -288 81q-96 71 -96 213q0 131 94 205t262 74h365q-4 86 -23 136q-68 182 -321 182q-86 0 -150 -21q-67 -21 -143 -72l-25 37q84 58 161.5 83.5t173.5 25.5q149 0 250 -73q49 -34 74 -74t45 -116q41 89 98 145q119 118 285 118
q126 0 228 -72t150 -195q37 -95 39 -228h-784q7 -93 31 -155q44 -113 136 -177t210 -64q97 0 185 44q69 34 135 121l52 -22q-45 -58 -80 -90q-32 -29 -81 -55q-98 -51 -209 -51q-203 0 -328 153q-33 41 -59 94zM812 279v228h-335q-157 0 -246 -60q-84 -59 -84 -170
q0 -137 117 -198q86 -44 213 -44q148 0 236 55q99 62 99 189zM870 479h728q-10 100 -36 166q-31 82 -92 138q-98 90 -231 90q-165 0 -272 -126q-44 -55 -67 -115q-22 -60 -30 -153z" />
    <glyph glyph-name="ccedilla" unicode="&#xe7;" horiz-adv-x="925" 
d="M488 -145l57 -25l-155 -196l-33 16zM851 804l-38 -39q-113 108 -266 108q-198 0 -312 -147q-85 -109 -85 -271q0 -191 116 -307q113 -113 283 -113q164 0 272 116l39 -40q-130 -129 -311 -129q-211 0 -343 154q-115 133 -115 319q0 215 149 353q125 118 310 118
q165 0 301 -122z" />
    <glyph glyph-name="egrave" unicode="&#xe8;" horiz-adv-x="1025" 
d="M530 1104l-197 198l66 36l158 -219zM933 431h-784q5 -69 21 -124q34 -116 121 -189q100 -83 234 -83q201 0 321 165l52 -22q-145 -196 -371 -196q-201 0 -327 153q-109 133 -109 322q0 126 56 235q59 114 161 175q97 59 208 59q126 0 228 -72t150 -195q38 -93 39 -228z
M149 479h728q-10 100 -36 166q-32 83 -92 139q-98 89 -233 89q-155 0 -255 -109q-101 -109 -112 -285z" />
    <glyph glyph-name="eacute" unicode="&#xe9;" horiz-adv-x="1025" 
d="M628 1338l66 -36l-198 -198l-27 15zM933 431h-784q5 -69 21 -124q34 -116 121 -189q100 -83 234 -83q201 0 321 165l52 -22q-145 -196 -371 -196q-201 0 -327 153q-109 133 -109 322q0 126 56 235q59 114 161 175q97 59 208 59q126 0 228 -72t150 -195q38 -93 39 -228z
M149 479h728q-10 100 -36 166q-32 83 -92 139q-98 89 -233 89q-155 0 -255 -109q-101 -109 -112 -285z" />
    <glyph glyph-name="ecircumflex" unicode="&#xea;" horiz-adv-x="1025" 
d="M708 1103l-195 184l-196 -184l-33 17l188 206h81l189 -206zM933 431h-784q5 -69 21 -124q34 -116 121 -189q100 -83 234 -83q201 0 321 165l52 -22q-145 -196 -371 -196q-201 0 -327 153q-109 133 -109 322q0 126 56 235q59 114 161 175q97 59 208 59q126 0 228 -72
t150 -195q38 -93 39 -228zM149 479h728q-10 100 -36 166q-32 83 -92 139q-98 89 -233 89q-155 0 -255 -109q-101 -109 -112 -285z" />
    <glyph glyph-name="edieresis" unicode="&#xeb;" horiz-adv-x="1025" 
d="M933 431h-784q5 -69 21 -124q34 -116 121 -189q100 -83 234 -83q201 0 321 165l52 -22q-145 -196 -371 -196q-201 0 -327 153q-109 133 -109 322q0 126 56 235q59 114 161 175q97 59 208 59q126 0 228 -72t150 -195q38 -93 39 -228zM149 479h728q-10 100 -36 166
q-32 83 -92 139q-98 89 -233 89q-155 0 -255 -109q-101 -109 -112 -285zM324 1256q21 0 36 -15.5t15 -36.5t-15 -36.5t-36 -15.5q-20 0 -35.5 16t-15.5 37q0 20 15.5 35.5t35.5 15.5zM700 1256q21 0 36 -15.5t15 -36.5t-15 -36.5t-36 -15.5t-36 16t-15 37q0 20 15.5 35.5
t35.5 15.5z" />
    <glyph glyph-name="igrave" unicode="&#xec;" horiz-adv-x="354" 
d="M171 1104l-197 198l66 36l159 -219zM149 908h55v-908h-55v908z" />
    <glyph glyph-name="iacute" unicode="&#xed;" horiz-adv-x="354" 
d="M314 1338l66 -36l-197 -198l-28 15zM150 908h55v-908h-55v908z" />
    <glyph glyph-name="icircumflex" unicode="&#xee;" horiz-adv-x="354" 
d="M372 1103l-195 184l-196 -184l-33 17l189 206h81l188 -206zM150 908h55v-908h-55v908z" />
    <glyph glyph-name="idieresis" unicode="&#xef;" horiz-adv-x="354" 
d="M149 908h55v-908h-55v908zM39 1256q21 0 36 -15.5t15 -36.5t-15 -36.5t-36 -15.5q-20 0 -35.5 16t-15.5 37q0 20 15.5 35.5t35.5 15.5zM313 1256q21 0 36 -15.5t15 -36.5t-15 -36.5t-36 -15.5t-36 16t-15 37q0 20 15.5 35.5t35.5 15.5z" />
    <glyph glyph-name="eth" unicode="&#xf0;" horiz-adv-x="1094" 
d="M417 1275l147 75q-133 90 -306 131l25 38q194 -47 332 -143l162 83l32 -31l-155 -81q112 -88 192 -221q156 -258 156 -604q0 -140 -37 -239q-51 -139 -159 -218q-115 -83 -261 -83q-206 0 -339 154q-115 133 -115 319q0 213 149 353q127 118 306 118q136 0 246 -73
q46 -30 78 -63q28 -32 70 -99q-69 421 -335 630l-152 -80zM542 873q-191 0 -306 -148q-86 -110 -86 -277q0 -183 116 -299q114 -114 279 -114q196 0 311 148q85 109 85 272q0 187 -116 305q-113 113 -283 113z" />
    <glyph glyph-name="ntilde" unicode="&#xf1;" horiz-adv-x="1045" 
d="M728 1264l40 -10q-24 -104 -117 -104q-44 0 -122 36q-75 34 -105 34q-61 0 -84 -65l-41 10q29 104 118 104q39 0 126 -40q64 -30 103 -30q62 0 82 65zM205 908v-170q105 188 337 188q166 0 265 -109q47 -52 68 -127.5t21 -194.5v-495h-55v477q0 116 -18.5 185.5
t-61.5 117.5q-86 93 -224 93q-168 0 -260 -113q-38 -47 -55 -117q-17 -73 -17 -189v-454h-55v908h55z" />
    <glyph glyph-name="ograve" unicode="&#xf2;" horiz-adv-x="1091" 
d="M552 1104l-198 198l66 36l159 -219zM553 926q198 0 331 -154q115 -133 115 -317q0 -215 -150 -355q-125 -118 -304 -118q-207 0 -339 154q-115 133 -115 323q0 209 149 349q127 118 313 118zM538 873q-186 0 -303 -148q-85 -109 -85 -270q0 -190 116 -306
q112 -114 279 -114q195 0 310 148q85 109 85 275q0 186 -116 302q-113 113 -286 113z" />
    <glyph glyph-name="oacute" unicode="&#xf3;" horiz-adv-x="1091" 
d="M670 1338l66 -36l-198 -198l-27 15zM553 926q198 0 331 -154q115 -133 115 -317q0 -215 -150 -355q-125 -118 -304 -118q-207 0 -339 154q-115 133 -115 323q0 209 149 349q127 118 313 118zM538 873q-186 0 -303 -148q-85 -109 -85 -270q0 -190 116 -306
q112 -114 279 -114q195 0 310 148q85 109 85 275q0 186 -116 302q-113 113 -286 113z" />
    <glyph glyph-name="ocircumflex" unicode="&#xf4;" horiz-adv-x="1091" 
d="M740 1103l-195 184l-196 -184l-33 17l189 206h81l188 -206zM553 926q198 0 331 -154q115 -133 115 -317q0 -215 -150 -355q-125 -118 -304 -118q-207 0 -339 154q-115 133 -115 323q0 209 149 349q127 118 313 118zM538 873q-186 0 -303 -148q-85 -109 -85 -270
q0 -190 116 -306q112 -114 279 -114q195 0 310 148q85 109 85 275q0 186 -116 302q-113 113 -286 113z" />
    <glyph glyph-name="otilde" unicode="&#xf5;" horiz-adv-x="1091" 
d="M740 1264l40 -10q-26 -104 -117 -104q-44 0 -122 36q-75 34 -105 34q-61 0 -84 -65l-41 10q29 104 118 104q39 0 126 -40q64 -30 103 -30q62 0 82 65zM553 926q198 0 331 -154q115 -133 115 -317q0 -215 -150 -355q-125 -118 -304 -118q-207 0 -339 154
q-115 133 -115 323q0 209 149 349q127 118 313 118zM538 873q-186 0 -303 -148q-85 -109 -85 -270q0 -190 116 -306q112 -114 279 -114q195 0 310 148q85 109 85 275q0 186 -116 302q-113 113 -286 113z" />
    <glyph glyph-name="odieresis" unicode="&#xf6;" horiz-adv-x="1091" 
d="M553 926q198 0 331 -154q115 -133 115 -317q0 -215 -150 -355q-125 -118 -304 -118q-207 0 -339 154q-115 133 -115 323q0 209 149 349q127 118 313 118zM538 873q-186 0 -303 -148q-85 -109 -85 -270q0 -190 116 -306q112 -114 279 -114q195 0 310 148q85 109 85 275
q0 186 -116 302q-113 113 -286 113zM733 1256q21 0 36 -15.5t15 -36.5t-15 -36.5t-36 -15.5t-36 16t-15 37q0 20 15.5 35.5t35.5 15.5zM356 1256q21 0 36 -15t15 -37q0 -21 -15 -36.5t-36 -15.5t-36 16t-15 37q0 20 15.5 35.5t35.5 15.5z" />
    <glyph glyph-name="divide" unicode="&#xf7;" horiz-adv-x="1139" 
d="M170 664h799v-49h-799v49zM570 347q25 0 42 -17.5t17 -42.5t-17.5 -42.5t-42.5 -17.5q-24 0 -41 18t-17 43q0 24 17.5 41.5t41.5 17.5zM570 1050q25 0 42 -17.5t17 -42.5t-17.5 -42.5t-42.5 -17.5q-24 0 -41 18t-17 43q0 24 17.5 41.5t41.5 17.5z" />
    <glyph glyph-name="oslash" unicode="&#xf8;" horiz-adv-x="1118" 
d="M1013 882l-112 -113q112 -131 112 -315q0 -214 -150 -354q-125 -118 -304 -118q-182 0 -315 128l-111 -111l-28 27l113 113q-113 134 -113 317q0 212 149 352q127 118 305 118q184 0 315 -128l111 112zM864 732l-583 -585q112 -112 279 -112q193 0 309 149q85 109 85 268
q0 170 -90 280zM255 177l582 584q-113 112 -279 112q-194 0 -309 -148q-85 -109 -85 -269q0 -167 91 -279z" />
    <glyph glyph-name="ugrave" unicode="&#xf9;" horiz-adv-x="1045" 
d="M533 1104l-197 198l66 36l158 -219zM841 0v171q-106 -189 -337 -189q-168 0 -265 109q-47 52 -68 127.5t-21 194.5v495h55v-477q0 -118 18 -187t62 -116q85 -93 224 -93q167 0 259 113q41 50 57 118q16 67 16 188v454h55v-908h-55z" />
    <glyph glyph-name="uacute" unicode="&#xfa;" horiz-adv-x="1045" 
d="M638 1338l66 -36l-198 -198l-27 15zM841 0v171q-106 -189 -337 -189q-168 0 -265 109q-47 52 -68 127.5t-21 194.5v495h55v-477q0 -118 18 -187t62 -116q85 -93 224 -93q167 0 259 113q41 50 57 118q16 67 16 188v454h55v-908h-55z" />
    <glyph glyph-name="ucircumflex" unicode="&#xfb;" horiz-adv-x="1045" 
d="M719 1103l-196 184l-195 -184l-34 17l189 206h81l188 -206zM841 0v171q-106 -189 -337 -189q-168 0 -265 109q-47 52 -68 127.5t-21 194.5v495h55v-477q0 -118 18 -187t62 -116q85 -93 224 -93q167 0 259 113q41 50 57 118q16 67 16 188v454h55v-908h-55z" />
    <glyph glyph-name="udieresis" unicode="&#xfc;" horiz-adv-x="1045" 
d="M841 0v171q-106 -189 -337 -189q-168 0 -265 109q-47 52 -68 127.5t-21 194.5v495h55v-477q0 -118 18 -187t62 -116q85 -93 224 -93q167 0 259 113q41 50 57 118q16 67 16 188v454h55v-908h-55zM335 1256q21 0 36 -15.5t15 -36.5t-15 -36.5t-36 -15.5q-20 0 -35.5 16
t-15.5 37q0 20 15.5 35.5t35.5 15.5zM711 1256q21 0 36 -15t15 -37q0 -21 -15 -36.5t-36 -15.5t-36 16t-15 37q0 20 15.5 35.5t35.5 15.5z" />
    <glyph glyph-name="yacute" unicode="&#xfd;" horiz-adv-x="863" 
d="M551 1338l66 -36l-197 -198l-27 15zM187 -478l210 492l-375 894h62l342 -828l354 828h61l-598 -1386h-56z" />
    <glyph glyph-name="thorn" unicode="&#xfe;" horiz-adv-x="1136" 
d="M207 -478h-55v1843h55v-665q141 226 385 226q205 0 338 -154q115 -133 115 -317q0 -215 -149 -355q-127 -118 -304 -118q-246 0 -385 226v-686zM585 873q-186 0 -298 -148q-83 -110 -83 -270q0 -188 113 -306q111 -114 276 -114q193 0 308 148q85 109 85 275
q0 186 -116 302q-113 113 -285 113z" />
    <glyph glyph-name="ydieresis" unicode="&#xff;" horiz-adv-x="863" 
d="M187 -478l210 492l-375 894h62l342 -828l354 828h61l-598 -1386h-56zM243 1256q21 0 36 -15.5t15 -36.5t-15 -36.5t-36 -15.5q-20 0 -35.5 16t-15.5 37q0 20 15.5 35.5t35.5 15.5zM620 1256q21 0 36 -15t15 -37q0 -21 -15 -36.5t-36 -15.5t-36 16t-15 37q0 20 15.5 35.5
t35.5 15.5z" />
    <glyph glyph-name="Amacron" unicode="&#x100;" horiz-adv-x="1236" 
d="M378 1594v51h480v-51h-480zM976 413h-717l-165 -413h-60l553 1365h62l553 -1365h-61zM618 1307l-337 -840h673z" />
    <glyph glyph-name="amacron" unicode="&#x101;" horiz-adv-x="1134" 
d="M322 1184v51h481v-51h-481zM984 908v-908h-55v208q-48 -72 -79 -103q-37 -37 -85 -64q-101 -59 -221 -59q-205 0 -338 154q-115 133 -115 318q0 214 149 354q127 118 304 118q120 0 221 -59q50 -28 85 -63q32 -32 79 -104v208h55zM536 873q-186 0 -301 -148
q-85 -109 -85 -270q0 -189 116 -307q113 -113 277 -113q193 0 306 149q83 110 83 274q0 183 -113 302q-110 113 -283 113z" />
    <glyph glyph-name="Abreve" unicode="&#x102;" horiz-adv-x="1236" 
d="M390 1698l48 4q11 -68 60 -109.5t117 -41.5q67 0 116 41t64 110l48 -4q-15 -64 -50 -108q-71 -86 -177 -86q-112 0 -181 86q-35 42 -45 108zM976 413h-717l-165 -413h-60l553 1365h62l553 -1365h-61zM618 1307l-337 -840h673z" />
    <glyph glyph-name="abreve" unicode="&#x103;" horiz-adv-x="1134" 
d="M312 1288l49 4q11 -67 60 -109t117 -42q67 0 116 41t64 110l48 -4q-15 -64 -50 -108q-71 -86 -177 -86q-112 0 -181 86q-36 45 -46 108zM984 908v-908h-55v208q-48 -72 -79 -103q-37 -37 -85 -64q-101 -59 -221 -59q-205 0 -338 154q-115 133 -115 318q0 214 149 354
q127 118 304 118q120 0 221 -59q50 -28 85 -63q32 -32 79 -104v208h55zM536 873q-186 0 -301 -148q-85 -109 -85 -270q0 -189 116 -307q113 -113 277 -113q193 0 306 149q83 110 83 274q0 183 -113 302q-110 113 -283 113z" />
    <glyph glyph-name="Aogonek" unicode="&#x104;" horiz-adv-x="1236" 
d="M1147 0h-6l-165 413h-717l-165 -413h-60l553 1365h62l553 -1365q-68 -82 -68 -138q0 -39 27 -62t72 -23q26 0 53 12l17 -40q-45 -16 -80 -16q-61 0 -101 34.5t-40 88.5q0 64 65 144zM618 1307l-337 -840h673z" />
    <glyph glyph-name="aogonek" unicode="&#x105;" horiz-adv-x="1134" 
d="M929 0v208q-48 -72 -79 -103q-37 -37 -85 -64q-101 -59 -221 -59q-205 0 -338 154q-115 133 -115 318q0 214 149 354q127 118 304 118q120 0 221 -59q50 -28 85 -63q32 -32 79 -104v208h55v-908q-68 -79 -68 -138q0 -39 27 -62t72 -23q26 0 53 12l17 -40q-45 -16 -80 -16
q-61 0 -101 34.5t-40 88.5q0 64 65 144zM536 873q-186 0 -301 -148q-85 -109 -85 -270q0 -189 116 -307q113 -113 277 -113q193 0 306 149q83 110 83 274q0 183 -113 302q-110 113 -283 113z" />
    <glyph glyph-name="Cacute" unicode="&#x106;" horiz-adv-x="1337" 
d="M905 1748l66 -36l-198 -198l-27 15zM1239 1199l-40 -40q-172 169 -406 169q-185 0 -336 -95q-143 -92 -222 -251q-70 -140 -70 -301q0 -283 195 -470q180 -174 434 -174q229 0 415 174l38 -40q-197 -189 -450 -189q-197 0 -360 99q-151 92 -239 250q-92 164 -92 351
q0 186 92 350q91 164 250 258q157 93 346 93q251 0 445 -184z" />
    <glyph glyph-name="cacute" unicode="&#x107;" horiz-adv-x="925" 
d="M636 1338l66 -36l-197 -198l-27 15zM851 804l-38 -39q-113 108 -266 108q-198 0 -312 -147q-85 -109 -85 -271q0 -191 116 -307q113 -113 283 -113q164 0 272 116l39 -40q-130 -129 -311 -129q-211 0 -343 154q-115 133 -115 319q0 215 149 353q125 118 310 118
q165 0 301 -122z" />
    <glyph glyph-name="Ccircumflex" unicode="&#x108;" horiz-adv-x="1337" 
d="M941 1512l-195 184l-196 -184l-33 17l189 206h81l188 -206zM1239 1199l-40 -40q-172 169 -406 169q-185 0 -336 -95q-143 -92 -222 -251q-70 -140 -70 -301q0 -283 195 -470q180 -174 434 -174q229 0 415 174l38 -40q-197 -189 -450 -189q-197 0 -360 99
q-151 92 -239 250q-92 164 -92 351q0 186 92 350q91 164 250 258q157 93 346 93q251 0 445 -184z" />
    <glyph glyph-name="ccircumflex" unicode="&#x109;" horiz-adv-x="925" 
d="M711 1103l-195 184l-196 -184l-33 17l188 206h81l189 -206zM851 804l-38 -39q-113 108 -266 108q-198 0 -312 -147q-85 -109 -85 -271q0 -191 116 -307q113 -113 283 -113q164 0 272 116l39 -40q-130 -129 -311 -129q-211 0 -343 154q-115 133 -115 319q0 215 149 353
q125 118 310 118q165 0 301 -122z" />
    <glyph glyph-name="Cdotaccent" unicode="&#x10a;" horiz-adv-x="1337" 
d="M1239 1199l-40 -40q-172 169 -406 169q-185 0 -336 -95q-143 -92 -222 -251q-70 -140 -70 -301q0 -283 195 -470q180 -174 434 -174q229 0 415 174l38 -40q-197 -189 -450 -189q-197 0 -360 99q-151 92 -239 250q-92 164 -92 351q0 186 92 350q91 164 250 258
q157 93 346 93q251 0 445 -184zM763 1671q21 0 36 -15.5t15 -36.5t-15 -36.5t-36 -15.5t-36 16t-15 37q0 20 15.5 35.5t35.5 15.5z" />
    <glyph glyph-name="cdotaccent" unicode="&#x10b;" horiz-adv-x="925" 
d="M851 804l-38 -39q-113 108 -266 108q-198 0 -312 -147q-85 -109 -85 -271q0 -191 116 -307q113 -113 283 -113q164 0 272 116l39 -40q-130 -129 -311 -129q-211 0 -343 154q-115 133 -115 319q0 215 149 353q125 118 310 118q165 0 301 -122zM522 1256q21 0 36 -15.5
t15 -36.5t-15 -36.5t-36 -15.5t-36 16t-15 37q0 20 15.5 35.5t35.5 15.5z" />
    <glyph glyph-name="Ccaron" unicode="&#x10c;" horiz-adv-x="1337" 
d="M550 1739l196 -184l195 184l34 -16l-188 -207h-81l-189 207zM1239 1199l-40 -40q-172 169 -406 169q-185 0 -336 -95q-143 -92 -222 -251q-70 -140 -70 -301q0 -283 195 -470q180 -174 434 -174q229 0 415 174l38 -40q-197 -189 -450 -189q-197 0 -360 99
q-151 92 -239 250q-92 164 -92 351q0 186 92 350q91 164 250 258q157 93 346 93q251 0 445 -184z" />
    <glyph glyph-name="ccaron" unicode="&#x10d;" horiz-adv-x="925" 
d="M320 1329l196 -184l195 184l34 -17l-189 -206h-81l-188 206zM851 804l-38 -39q-113 108 -266 108q-198 0 -312 -147q-85 -109 -85 -271q0 -191 116 -307q113 -113 283 -113q164 0 272 116l39 -40q-130 -129 -311 -129q-211 0 -343 154q-115 133 -115 319q0 215 149 353
q125 118 310 118q165 0 301 -122z" />
    <glyph glyph-name="Dcaron" unicode="&#x10e;" horiz-adv-x="1267" 
d="M398 1739l196 -184l195 184l34 -16l-189 -207h-81l-188 207zM184 0v1365h245q308 0 502 -154q229 -181 229 -527q0 -349 -229 -530q-193 -154 -502 -154h-245zM436 1310h-194v-1255h194q273 0 450 141q216 172 216 488q0 314 -216 486q-178 140 -450 140z" />
    <glyph glyph-name="dcaron" unicode="&#x10f;" horiz-adv-x="1285" 
d="M1141 1142l73 247l61 -18l-103 -239zM984 1365v-1365h-55v208q-139 -226 -385 -226q-205 0 -338 154q-115 133 -115 319q0 213 149 353q127 118 304 118q244 0 385 -226v665h55zM536 873q-186 0 -301 -148q-85 -109 -85 -270q0 -190 116 -306q112 -114 277 -114
q193 0 306 149q83 110 83 274q0 183 -113 302q-110 113 -283 113z" />
    <glyph glyph-name="Dcroat" unicode="&#x110;" horiz-adv-x="1270" 
d="M188 0v714h-109v52h109v599h245q308 0 501 -154q230 -182 230 -526q0 -348 -230 -531q-193 -154 -501 -154h-245zM246 1310v-544h348v-52h-348v-659h194q274 0 449 141q217 172 217 488q0 314 -217 486q-178 140 -449 140h-194z" />
    <glyph glyph-name="dslash" unicode="&#x111;" horiz-adv-x="1136" 
d="M929 700v406h-257v52h257v207h55v-207h130v-52h-130v-1106h-55v208q-139 -226 -385 -226q-205 0 -338 154q-115 133 -115 319q0 213 149 353q127 118 304 118q246 0 385 -226zM536 873q-186 0 -301 -148q-85 -109 -85 -270q0 -190 116 -306q112 -114 277 -114
q193 0 306 149q83 110 83 274q0 183 -113 302q-110 113 -283 113z" />
    <glyph glyph-name="Emacron" unicode="&#x112;" horiz-adv-x="955" 
d="M276 1594v51h480v-51h-480zM826 1365v-53h-584v-592h520v-54h-520v-611h606v-55h-664v1365h642z" />
    <glyph glyph-name="emacron" unicode="&#x113;" horiz-adv-x="1025" 
d="M272 1184v51h481v-51h-481zM933 431h-784q5 -69 21 -124q34 -116 121 -189q100 -83 234 -83q201 0 321 165l52 -22q-145 -196 -371 -196q-201 0 -327 153q-109 133 -109 322q0 126 56 235q59 114 161 175q97 59 208 59q126 0 228 -72t150 -195q38 -93 39 -228zM149 479
h728q-10 100 -36 166q-32 83 -92 139q-98 89 -233 89q-155 0 -255 -109q-101 -109 -112 -285z" />
    <glyph glyph-name="Ebreve" unicode="&#x114;" horiz-adv-x="955" 
d="M288 1698l48 4q11 -68 60 -109.5t117 -41.5t116.5 40.5t64.5 110.5l47 -4q-15 -64 -50 -108q-69 -86 -177 -86q-112 0 -181 86q-35 42 -45 108zM826 1365v-53h-584v-592h520v-54h-520v-611h606v-55h-664v1365h642z" />
    <glyph glyph-name="ebreve" unicode="&#x115;" horiz-adv-x="1025" 
d="M291 1288l48 4q12 -67 61 -109t116 -42q68 0 116.5 40.5t64.5 110.5l47 -4q-15 -64 -50 -108q-69 -86 -177 -86q-110 0 -181 86q-34 44 -45 108zM933 431h-784q5 -69 21 -124q34 -116 121 -189q100 -83 234 -83q201 0 321 165l52 -22q-145 -196 -371 -196
q-201 0 -327 153q-109 133 -109 322q0 126 56 235q59 114 161 175q97 59 208 59q126 0 228 -72t150 -195q38 -93 39 -228zM149 479h728q-10 100 -36 166q-32 83 -92 139q-98 89 -233 89q-155 0 -255 -109q-101 -109 -112 -285z" />
    <glyph glyph-name="Edotaccent" unicode="&#x116;" horiz-adv-x="955" 
d="M826 1365v-53h-584v-592h520v-54h-520v-611h606v-55h-664v1365h642zM516 1671q21 0 36 -15t15 -37q0 -21 -15 -36.5t-36 -15.5t-36 16t-15 37q0 20 15.5 35.5t35.5 15.5z" />
    <glyph glyph-name="edotaccent" unicode="&#x117;" horiz-adv-x="1025" 
d="M933 431h-784q5 -69 21 -124q34 -116 121 -189q100 -83 234 -83q201 0 321 165l52 -22q-145 -196 -371 -196q-201 0 -327 153q-109 133 -109 322q0 126 56 235q59 114 161 175q97 59 208 59q126 0 228 -72t150 -195q38 -93 39 -228zM149 479h728q-10 100 -36 166
q-32 83 -92 139q-98 89 -233 89q-155 0 -255 -109q-101 -109 -112 -285zM512 1256q21 0 36 -15.5t15 -36.5t-15 -36.5t-36 -15.5q-20 0 -35.5 16t-15.5 37q0 20 15.5 35.5t35.5 15.5z" />
    <glyph glyph-name="Eogonek" unicode="&#x118;" horiz-adv-x="955" 
d="M848 55v-55q-67 -79 -67 -138q0 -39 26.5 -62t71.5 -23q25 0 54 12l16 -40q-45 -16 -79 -16q-61 0 -101 34.5t-40 88.5q0 67 64 144h-609v1365h642v-53h-584v-592h520v-54h-520v-611h606z" />
    <glyph glyph-name="eogonek" unicode="&#x119;" horiz-adv-x="1025" 
d="M545 -17q-53 -70 -53 -121q0 -39 26.5 -62t72.5 -23q26 0 53 12l17 -40q-45 -16 -80 -16q-61 0 -101 34.5t-40 88.5q0 60 52 128q-100 8 -183 57q-106 65 -161 175q-57 112 -57 241q0 126 56 235q59 114 161 175q97 59 208 59q126 0 228 -72t150 -195q38 -93 39 -228
h-784q5 -69 21 -124q34 -115 121 -188q100 -83 234 -83q201 0 321 164l52 -22q-138 -187 -353 -195zM149 479h728q-10 100 -36 166q-32 83 -92 139q-98 89 -233 89q-155 0 -255 -109q-101 -109 -112 -285z" />
    <glyph glyph-name="Ecaron" unicode="&#x11a;" horiz-adv-x="955" 
d="M321 1739l195 -184l196 184l33 -16l-188 -207h-81l-189 207zM826 1365v-53h-584v-592h520v-54h-520v-611h606v-55h-664v1365h642z" />
    <glyph glyph-name="ecaron" unicode="&#x11b;" horiz-adv-x="1025" 
d="M317 1329l196 -184l195 184l34 -17l-189 -206h-81l-188 206zM933 431h-784q5 -69 21 -124q34 -116 121 -189q100 -83 234 -83q201 0 321 165l52 -22q-145 -196 -371 -196q-201 0 -327 153q-109 133 -109 322q0 126 56 235q59 114 161 175q97 59 208 59q126 0 228 -72
t150 -195q38 -93 39 -228zM149 479h728q-10 100 -36 166q-32 83 -92 139q-98 89 -233 89q-155 0 -255 -109q-101 -109 -112 -285z" />
    <glyph glyph-name="Gcircumflex" unicode="&#x11c;" horiz-adv-x="1493" 
d="M953 1512l-196 184l-195 -184l-34 17l189 206h81l188 -206zM898 605v53h485v-31q0 -187 -66 -329q-60 -131 -178 -215q-143 -101 -340 -101q-278 0 -472 185q-105 99 -163 233.5t-58 279.5q0 189 91 352q93 166 251 258q157 93 347 93q253 0 444 -184l-39 -39
q-171 168 -407 168q-184 0 -336 -95q-144 -91 -223 -251q-69 -141 -69 -302q0 -167 76 -309q80 -153 224 -241q150 -93 330 -93q246 0 396 167q66 75 98 169q31 91 36 232h-427z" />
    <glyph glyph-name="gcircumflex" unicode="&#x11d;" horiz-adv-x="1134" 
d="M733 1103l-196 184l-195 -184l-34 17l189 206h81l188 -206zM929 908h55v-925q0 -197 -104 -322q-62 -75 -155.5 -115.5t-203.5 -40.5q-224 0 -379 170l37 39q55 -62 105 -93q102 -63 237 -63q189 0 298 115q110 116 110 310v45v180q-139 -226 -384 -226q-206 0 -339 154
q-115 133 -115 318q0 214 149 354q127 118 304 118q244 0 385 -226v208zM537 873q-185 0 -302 -148q-85 -109 -85 -270q0 -190 116 -306q114 -114 277 -114q193 0 307 149q83 110 83 274q0 183 -113 302q-110 113 -283 113z" />
    <glyph glyph-name="Gbreve" unicode="&#x11e;" horiz-adv-x="1493" 
d="M566 1698l48 4q11 -68 60 -109.5t117 -41.5t116.5 40.5t64.5 110.5l47 -4q-15 -64 -50 -108q-69 -86 -177 -86q-110 0 -181 86q-35 42 -45 108zM898 605v53h485v-31q0 -187 -66 -329q-60 -131 -178 -215q-143 -101 -340 -101q-278 0 -472 185q-105 99 -163 233.5
t-58 279.5q0 189 91 352q93 166 251 258q157 93 347 93q253 0 444 -184l-39 -39q-171 168 -407 168q-184 0 -336 -95q-144 -91 -223 -251q-69 -141 -69 -302q0 -167 76 -309q80 -153 224 -241q150 -93 330 -93q246 0 396 167q66 75 98 169q31 91 36 232h-427z" />
    <glyph glyph-name="gbreve" unicode="&#x11f;" horiz-adv-x="1134" 
d="M312 1288l48 4q12 -67 61 -109t116 -42q68 0 116.5 40.5t64.5 110.5l47 -4q-15 -65 -49 -108q-71 -86 -178 -86q-110 0 -181 86q-35 44 -45 108zM929 908h55v-925q0 -197 -104 -322q-62 -75 -155.5 -115.5t-203.5 -40.5q-224 0 -379 170l37 39q55 -62 105 -93
q102 -63 237 -63q189 0 298 115q110 116 110 310v45v180q-139 -226 -384 -226q-206 0 -339 154q-115 133 -115 318q0 214 149 354q127 118 304 118q244 0 385 -226v208zM537 873q-185 0 -302 -148q-85 -109 -85 -270q0 -190 116 -306q114 -114 277 -114q193 0 307 149
q83 110 83 274q0 183 -113 302q-110 113 -283 113z" />
    <glyph glyph-name="Gdotaccent" unicode="&#x120;" horiz-adv-x="1493" 
d="M898 605v53h485v-31q0 -187 -66 -329q-60 -131 -178 -215q-143 -101 -340 -101q-278 0 -472 185q-105 99 -163 233.5t-58 279.5q0 189 91 352q93 166 251 258q157 93 347 93q253 0 444 -184l-39 -39q-171 168 -407 168q-184 0 -336 -95q-144 -91 -223 -251
q-69 -141 -69 -302q0 -167 76 -309q80 -153 224 -241q150 -93 330 -93q246 0 396 167q66 75 98 169q31 91 36 232h-427zM791 1671q21 0 36 -15.5t15 -36.5t-15 -36.5t-36 -15.5t-36 15.5t-15 37.5q0 20 15.5 35.5t35.5 15.5z" />
    <glyph glyph-name="gdotaccent" unicode="&#x121;" horiz-adv-x="1134" 
d="M929 908h55v-925q0 -197 -104 -322q-62 -75 -155.5 -115.5t-203.5 -40.5q-224 0 -379 170l37 39q55 -62 105 -93q102 -63 237 -63q189 0 298 115q110 116 110 310v45v180q-139 -226 -384 -226q-206 0 -339 154q-115 133 -115 318q0 214 149 354q127 118 304 118
q244 0 385 -226v208zM537 873q-185 0 -302 -148q-85 -109 -85 -270q0 -190 116 -306q114 -114 277 -114q193 0 307 149q83 110 83 274q0 183 -113 302q-110 113 -283 113zM537 1256q21 0 36 -15.5t15 -36.5t-15 -36.5t-36 -15.5q-20 0 -35.5 16t-15.5 37q0 20 15.5 35.5
t35.5 15.5z" />
    <glyph glyph-name="Gcommaaccent" unicode="&#x122;" horiz-adv-x="1493" 
d="M675 -392l73 247l61 -18l-103 -239zM898 605v53h485v-31q0 -187 -66 -329q-60 -131 -178 -215q-143 -101 -340 -101q-278 0 -472 185q-105 99 -163 233.5t-58 279.5q0 189 91 352q93 166 251 258q157 93 347 93q253 0 444 -184l-39 -39q-171 168 -407 168
q-184 0 -336 -95q-144 -91 -223 -251q-69 -141 -69 -302q0 -167 76 -309q80 -153 224 -241q150 -93 330 -93q246 0 396 167q66 75 98 169q31 91 36 232h-427z" />
    <glyph glyph-name="gcommaaccent" unicode="&#x123;" horiz-adv-x="1134" 
d="M661 1331l-73 -248l-61 19l103 238zM929 908h55v-925q0 -197 -104 -322q-62 -75 -155.5 -115.5t-203.5 -40.5q-224 0 -379 170l37 39q55 -62 105 -93q102 -63 237 -63q189 0 298 115q110 116 110 310v45v180q-139 -226 -384 -226q-206 0 -339 154q-115 133 -115 318
q0 214 149 354q127 118 304 118q244 0 385 -226v208zM537 873q-185 0 -302 -148q-85 -109 -85 -270q0 -190 116 -306q114 -114 277 -114q193 0 307 149q83 110 83 274q0 183 -113 302q-110 113 -283 113z" />
    <glyph glyph-name="Hcircumflex" unicode="&#x124;" horiz-adv-x="1331" 
d="M861 1512l-196 184l-196 -184l-33 17l189 206h81l188 -206zM242 1365v-645h846v645h58v-1365h-58v666h-846v-666h-58v1365h58z" />
    <glyph glyph-name="hcircumflex" unicode="&#x125;" horiz-adv-x="1045" 
d="M725 1512l-196 184l-195 -184l-34 17l189 206h81l188 -206zM205 1365v-627q105 188 337 188q168 0 265 -109q47 -52 68 -127.5t21 -194.5v-495h-55v477q0 116 -18.5 185.5t-61.5 117.5q-86 93 -224 93q-168 0 -260 -113q-38 -47 -55 -117q-17 -73 -17 -189v-454h-55v1365
h55z" />
    <glyph glyph-name="Hbar" unicode="&#x126;" horiz-adv-x="1352" 
d="M1287 1106h-130v-1106h-58v666h-846v-666h-58v1106h-130v52h130v207h58v-207h846v207h58v-207h130v-52zM1099 720v386h-846v-386h846z" />
    <glyph glyph-name="hbar" unicode="&#x127;" horiz-adv-x="1047" 
d="M21 1158h130v207h55v-207h257v-52h-257v-368q105 188 337 188q167 0 266 -109q47 -52 68 -127t21 -195v-495h-55v477q0 116 -18.5 185.5t-61.5 117.5q-85 93 -225 93q-167 0 -259 -113q-39 -48 -56 -118q-17 -71 -17 -188v-454h-55v1106h-130v52z" />
    <glyph glyph-name="Itilde" unicode="&#x128;" horiz-adv-x="427" 
d="M409 1673l40 -9q-26 -104 -118 -104q-43 0 -121 36q-74 34 -105 34q-62 0 -85 -65l-40 9q28 105 117 105q40 0 127 -40q64 -30 103 -30q63 0 82 64zM185 1365h58v-1365h-58v1365z" />
    <glyph glyph-name="itilde" unicode="&#x129;" horiz-adv-x="354" 
d="M372 1264l40 -10q-26 -104 -118 -104q-43 0 -121 36q-75 34 -105 34q-61 0 -85 -65l-40 10q29 104 117 104q40 0 127 -40q65 -30 103 -30q62 0 82 65zM150 908h55v-908h-55v908z" />
    <glyph glyph-name="Imacron" unicode="&#x12a;" horiz-adv-x="427" 
d="M-27 1594v51h481v-51h-481zM184 1365h58v-1365h-58v1365z" />
    <glyph glyph-name="imacron" unicode="&#x12b;" horiz-adv-x="354" 
d="M-63 1184v51h481v-51h-481zM150 908h55v-908h-55v908z" />
    <glyph glyph-name="Ibreve" unicode="&#x12c;" horiz-adv-x="427" 
d="M185 1365h58v-1365h-58v1365zM-13 1698l48 4q11 -68 60 -109.5t117 -41.5t116.5 40.5t64.5 110.5l47 -4q-15 -64 -50 -108q-69 -86 -177 -86q-110 0 -181 86q-34 42 -45 108z" />
    <glyph glyph-name="ibreve" unicode="&#x12d;" horiz-adv-x="354" 
d="M149 908h55v-908h-55v908zM-50 1288l48 4q11 -67 60 -109t117 -42t116.5 40.5t64.5 110.5l47 -4q-15 -64 -50 -108q-69 -86 -177 -86q-110 0 -181 86q-35 44 -45 108z" />
    <glyph glyph-name="Iogonek" unicode="&#x12e;" horiz-adv-x="427" 
d="M243 1365v-1365q-68 -82 -68 -139q0 -38 27 -61t72 -23q26 0 53 12l17 -41q-46 -15 -80 -15q-61 0 -101 34.5t-40 87.5q0 65 65 145h-3v1365h58z" />
    <glyph glyph-name="iogonek" unicode="&#x12f;" horiz-adv-x="354" 
d="M205 908v-908q-68 -82 -68 -138q0 -39 27 -62t72 -23q26 0 53 12l17 -40q-45 -16 -80 -16q-61 0 -101 34.5t-40 88.5q0 67 65 144v908h55zM177 1256q21 0 36 -15.5t15 -36.5t-15 -36.5t-36 -15.5t-36 16t-15 37q0 20 15.5 35.5t35.5 15.5z" />
    <glyph glyph-name="Idot" unicode="&#x130;" horiz-adv-x="427" 
d="M184 1365h58v-1365h-58v1365zM213 1671q21 0 36 -15.5t15 -36.5t-15 -36.5t-36 -15.5q-20 0 -35.5 16t-15.5 37q0 20 15.5 35.5t35.5 15.5z" />
    <glyph glyph-name="dotlessi" unicode="&#x131;" horiz-adv-x="354" 
d="M150 908h55v-908h-55v908z" />
    <glyph glyph-name="IJ" unicode="&#x132;" horiz-adv-x="1192" 
d="M184 1365h58v-1365h-58v1365zM949 1365h58v-969q0 -230 -93 -328q-83 -86 -216 -86q-129 0 -262 112l34 40q115 -97 226 -97q253 0 253 359v969z" />
    <glyph glyph-name="ij" unicode="&#x133;" horiz-adv-x="720" 
d="M150 908h55v-908h-55v908zM177 1256q21 0 36 -15.5t15 -36.5t-15 -36.5t-36 -15.5q-20 0 -35.5 16t-15.5 37q0 20 15.5 35.5t35.5 15.5zM337 -478v52q24 -7 48 -7q69 0 99.5 51t30.5 167v1123h55v-1123q0 -273 -175 -273q-28 0 -58 10zM543 1256q21 0 36 -15.5t15 -36.5
t-15 -36.5t-36 -15.5t-36 16t-15 37q0 20 15.5 35.5t35.5 15.5z" />
    <glyph glyph-name="Jcircumflex" unicode="&#x134;" horiz-adv-x="782" 
d="M681 1512l-196 184l-195 -184l-34 17l189 206h81l188 -206zM540 1365h58v-969q0 -231 -94 -328q-81 -86 -215 -86q-129 0 -262 112l34 40q115 -97 226 -97q253 0 253 359v969z" />
    <glyph glyph-name="jcircumflex" unicode="&#x135;" horiz-adv-x="373" 
d="M354 1103l-195 184l-196 -184l-33 17l189 206h81l188 -206zM-10 -478v52q24 -7 48 -7q69 0 99.5 51t30.5 167v1123h55v-1123q0 -273 -175 -273q-28 0 -58 10z" />
    <glyph glyph-name="Kcommaaccent" unicode="&#x136;" horiz-adv-x="1115" 
d="M518 -392l73 247l61 -18l-103 -239zM1045 1365l-495 -551l530 -814h-68l-501 771l-269 -300v-471h-58v1365h58v-821l734 821h69z" />
    <glyph glyph-name="kcommaaccent" unicode="&#x137;" horiz-adv-x="911" 
d="M381 -392l73 247l61 -18l-103 -239zM819 908l-354 -356l423 -552h-68l-391 515l-224 -225v-290h-55v1365h55v-1008l544 551h70z" />
    <glyph glyph-name="kgreenlandic" unicode="&#x138;" horiz-adv-x="911" 
d="M819 908l-354 -356l423 -552h-68l-391 515l-224 -225v-290h-55v908h55v-551l544 551h70z" />
    <glyph glyph-name="Lacute" unicode="&#x139;" horiz-adv-x="840" 
d="M360 1748l66 -36l-198 -198l-27 15zM184 1365h58v-1310h563v-55h-621v1365z" />
    <glyph glyph-name="lacute" unicode="&#x13a;" horiz-adv-x="354" 
d="M314 1772l66 -36l-197 -198l-28 15zM205 1365v-1365h-55v1365h55z" />
    <glyph glyph-name="Lcommaaccent" unicode="&#x13b;" horiz-adv-x="851" 
d="M425 -392l73 247l61 -18l-103 -239zM184 1365h58v-1310h563v-55h-621v1365z" />
    <glyph glyph-name="lcommaaccent" unicode="&#x13c;" horiz-adv-x="354" 
d="M72 -392l73 247l61 -18l-103 -239zM204 1365v-1365h-55v1365h55z" />
    <glyph glyph-name="Lcaron" unicode="&#x13d;" horiz-adv-x="851" 
d="M529 1142l73 247l61 -18l-103 -239zM184 1365h58v-1310h563v-55h-621v1365z" />
    <glyph glyph-name="lcaron" unicode="&#x13e;" horiz-adv-x="507" 
d="M364 1142l73 247l61 -18l-103 -239zM207 1365v-1365h-55v1365h55z" />
    <glyph glyph-name="Ldot" unicode="&#x13f;" horiz-adv-x="851" 
d="M184 1365h58v-1310h563v-55h-621v1365zM621 735q21 0 36 -15.5t15 -36.5t-15 -36.5t-36 -15.5q-20 0 -35.5 16t-15.5 37q0 20 15.5 35.5t35.5 15.5z" />
    <glyph glyph-name="ldot" unicode="&#x140;" horiz-adv-x="563" 
d="M152 1365h55v-1365h-55v1365zM457 735q21 0 36 -15t15 -37q0 -21 -15 -36.5t-36 -15.5t-36 16t-15 37q0 20 15.5 35.5t35.5 15.5z" />
    <glyph glyph-name="Lslash" unicode="&#x141;" horiz-adv-x="890" 
d="M224 0v657l-145 -94v54l145 94v654h58v-616l242 157v-54l-242 -158v-639h563v-55h-621z" />
    <glyph glyph-name="lslash" unicode="&#x142;" horiz-adv-x="477" 
d="M211 0v672l-139 -96v55l139 95v639h55v-601l139 94v-54l-139 -95v-709h-55z" />
    <glyph glyph-name="Nacute" unicode="&#x143;" horiz-adv-x="1461" 
d="M875 1748l66 -36l-197 -198l-28 15zM1197 0l-955 1303v-1303h-58v1365h79l955 -1303v1303h58v-1365h-79z" />
    <glyph glyph-name="nacute" unicode="&#x144;" horiz-adv-x="1045" 
d="M671 1338l67 -36l-198 -198l-27 15zM205 908v-170q105 188 337 188q166 0 265 -109q47 -52 68 -127.5t21 -194.5v-495h-55v477q0 116 -18.5 185.5t-61.5 117.5q-86 93 -224 93q-168 0 -260 -113q-38 -47 -55 -117q-17 -73 -17 -189v-454h-55v908h55z" />
    <glyph glyph-name="Ncommaaccent" unicode="&#x145;" horiz-adv-x="1461" 
d="M661 -392l73 247l61 -18l-103 -239zM1197 0l-955 1303v-1303h-58v1365h79l955 -1303v1303h58v-1365h-79z" />
    <glyph glyph-name="ncommaaccent" unicode="&#x146;" horiz-adv-x="1045" 
d="M454 -392l73 247l61 -18l-103 -239zM205 908v-170q105 188 337 188q166 0 265 -109q47 -52 68 -127.5t21 -194.5v-495h-55v477q0 116 -18.5 185.5t-61.5 117.5q-86 93 -224 93q-168 0 -260 -113q-38 -47 -55 -117q-17 -73 -17 -189v-454h-55v908h55z" />
    <glyph glyph-name="Ncaron" unicode="&#x147;" horiz-adv-x="1461" 
d="M569 1739l195 -184l196 184l33 -16l-188 -207h-81l-189 207zM1197 0l-955 1303v-1303h-58v1365h79l955 -1303v1303h58v-1365h-79z" />
    <glyph glyph-name="ncaron" unicode="&#x148;" horiz-adv-x="1045" 
d="M338 1329l195 -184l196 184l33 -17l-188 -206h-81l-189 206zM205 908v-170q105 188 337 188q166 0 265 -109q47 -52 68 -127.5t21 -194.5v-495h-55v477q0 116 -18.5 185.5t-61.5 117.5q-86 93 -224 93q-168 0 -260 -113q-38 -47 -55 -117q-17 -73 -17 -189v-454h-55v908
h55z" />
    <glyph glyph-name="napostrophe" unicode="&#x149;" horiz-adv-x="1179" 
d="M20 917l143 398l57 -20l-173 -389zM338 908v-170q105 188 337 188q166 0 265 -109q47 -52 68 -127.5t21 -194.5v-495h-55v477q0 116 -18.5 185.5t-61.5 117.5q-86 93 -224 93q-167 0 -259 -113q-39 -48 -56 -118q-17 -71 -17 -188v-454h-55v908h55z" />
    <glyph glyph-name="Eng" unicode="&#x14a;" horiz-adv-x="1461" 
d="M1218 1365h58v-1392q0 -273 -175 -273q-28 0 -58 10v51q25 -6 49 -6q69 0 99 51t30 167v27h-24l-955 1303v-1303h-58v1365h79l955 -1303v1303z" />
    <glyph glyph-name="eng" unicode="&#x14b;" horiz-adv-x="1045" 
d="M205 455v-455h-55v908h55v-170q105 188 337 188q166 0 265 -109q47 -52 68 -127.5t21 -193.5v-523q0 -133 -39 -196q-46 -76 -136 -76q-28 0 -58 10v51q25 -6 48 -6q69 0 99.5 51t30.5 166v504q0 117 -18.5 186t-61.5 117q-86 93 -224 93q-168 0 -260 -113
q-39 -48 -55.5 -117.5t-16.5 -187.5z" />
    <glyph glyph-name="Omacron" unicode="&#x14c;" horiz-adv-x="1571" 
d="M545 1594v51h481v-51h-481zM785 1383q181 0 334 -93q162 -97 253 -258q92 -163 92 -350t-93 -350q-89 -158 -242 -251q-161 -99 -349 -99q-177 0 -339 99q-155 96 -242 251q-93 163 -93 361q0 181 93 339q99 168 252 258q157 93 334 93zM780 1328q-173 0 -319 -95
q-145 -94 -225 -251q-71 -140 -71 -311q0 -156 77 -301q81 -150 226 -241q151 -92 317 -92q168 0 317 92q147 91 226 241q77 145 77 312q0 272 -189 466q-178 180 -436 180z" />
    <glyph glyph-name="omacron" unicode="&#x14d;" horiz-adv-x="1091" 
d="M305 1184v51h480v-51h-480zM553 926q198 0 331 -154q115 -133 115 -317q0 -215 -150 -355q-125 -118 -304 -118q-207 0 -339 154q-115 133 -115 323q0 209 149 349q127 118 313 118zM538 873q-186 0 -303 -148q-85 -109 -85 -270q0 -190 116 -306q112 -114 279 -114
q195 0 310 148q85 109 85 275q0 186 -116 302q-113 113 -286 113z" />
    <glyph glyph-name="Obreve" unicode="&#x14e;" horiz-adv-x="1571" 
d="M557 1698l48 4q11 -68 60.5 -109.5t116.5 -41.5q68 0 116.5 40.5t64.5 110.5l47 -4q-15 -64 -50 -108q-69 -86 -177 -86q-110 0 -181 86q-34 42 -45 108zM785 1383q181 0 334 -93q162 -97 253 -258q92 -163 92 -350t-93 -350q-89 -158 -242 -251q-161 -99 -349 -99
q-177 0 -339 99q-155 96 -242 251q-93 163 -93 361q0 181 93 339q99 168 252 258q157 93 334 93zM780 1328q-173 0 -319 -95q-145 -94 -225 -251q-71 -140 -71 -311q0 -156 77 -301q81 -150 226 -241q151 -92 317 -92q168 0 317 92q147 91 226 241q77 145 77 312
q0 272 -189 466q-178 180 -436 180z" />
    <glyph glyph-name="obreve" unicode="&#x14f;" horiz-adv-x="1091" 
d="M317 1288l48 4q11 -67 60 -109t117 -42q67 0 115.5 40.5t64.5 110.5l48 -4q-15 -64 -50 -108q-71 -86 -177 -86q-112 0 -181 86q-34 44 -45 108zM553 926q198 0 331 -154q115 -133 115 -317q0 -215 -150 -355q-125 -118 -304 -118q-207 0 -339 154q-115 133 -115 323
q0 209 149 349q127 118 313 118zM538 873q-186 0 -303 -148q-85 -109 -85 -270q0 -190 116 -306q112 -114 279 -114q195 0 310 148q85 109 85 275q0 186 -116 302q-113 113 -286 113z" />
    <glyph glyph-name="Ohungarumlaut" unicode="&#x150;" horiz-adv-x="1571" 
d="M1063 1747l61 -34l-198 -198l-22 13zM776 1747l61 -34l-198 -198l-22 13zM785 1383q181 0 334 -93q162 -97 253 -258q92 -163 92 -350t-93 -350q-89 -158 -242 -251q-161 -99 -349 -99q-177 0 -339 99q-155 96 -242 251q-93 163 -93 361q0 181 93 339q99 168 252 258
q157 93 334 93zM780 1328q-173 0 -319 -95q-145 -94 -225 -251q-71 -140 -71 -311q0 -156 77 -301q81 -150 226 -241q151 -92 317 -92q168 0 317 92q147 91 226 241q77 145 77 312q0 272 -189 466q-178 180 -436 180z" />
    <glyph glyph-name="ohungarumlaut" unicode="&#x151;" horiz-adv-x="1091" 
d="M556 1337l61 -34l-198 -198l-22 13zM843 1337l61 -34l-198 -198l-22 13zM553 926q198 0 331 -154q115 -133 115 -317q0 -215 -150 -355q-125 -118 -304 -118q-207 0 -339 154q-115 133 -115 323q0 209 149 349q127 118 313 118zM538 873q-186 0 -303 -148
q-85 -109 -85 -270q0 -190 116 -306q112 -114 279 -114q195 0 310 148q85 109 85 275q0 186 -116 302q-113 113 -286 113z" />
    <glyph glyph-name="OE" unicode="&#x152;" horiz-adv-x="2177" 
d="M1406 963v402h642v-53h-584v-592h519v-54h-519v-611h606v-55h-664v402q-14 -34 -35 -70q-88 -157 -242 -251q-161 -99 -343 -99q-183 0 -345 99q-155 96 -242 251q-93 163 -93 350q0 186 92 350q93 165 253 259q158 92 335 92q256 0 450 -180q110 -101 170 -240z
M781 1329q-174 0 -320 -95q-145 -94 -225 -251q-71 -140 -71 -311q0 -158 77 -301q81 -151 226 -241q150 -93 317 -93q168 0 318 93q147 90 226 241q77 145 77 312q0 274 -189 466q-179 180 -436 180z" />
    <glyph glyph-name="oe" unicode="&#x153;" horiz-adv-x="1875" 
d="M969 628q13 37 27 64q59 114 161 175q97 59 209 59q135 0 242 -83q105 -81 149 -223q24 -79 26 -189h-785q5 -69 21 -124q34 -116 121 -189q100 -83 234 -83q201 0 321 165l52 -22q-145 -196 -370 -196q-141 0 -251 81q-111 82 -157 220q-12 -34 -29 -66
q-62 -114 -170 -175q-102 -60 -225 -60q-206 0 -339 154q-115 133 -115 319q0 213 149 353q127 118 305 118q143 0 259 -81t165 -217zM538 873q-187 0 -302 -148q-86 -109 -86 -270q0 -190 116 -306q112 -114 279 -114q195 0 310 148q85 109 85 276q0 185 -116 301
q-113 113 -286 113zM998 479h730q-11 90 -28 145q-32 99 -108 165q-98 84 -226 84q-156 0 -256 -109q-101 -109 -112 -285z" />
    <glyph glyph-name="Racute" unicode="&#x154;" horiz-adv-x="1048" 
d="M632 1748l66 -36l-197 -198l-27 15zM641 613l335 -613h-65l-326 603q-77 -11 -156 -11h-187v-592h-58v1365h245q132 0 216 -23q82 -22 143 -76q126 -111 126 -293q0 -133 -74 -231q-73 -97 -199 -129zM242 1311v-666h207q200 0 300 82q107 89 107 247q0 157 -106 251
q-98 86 -301 86h-207z" />
    <glyph glyph-name="racute" unicode="&#x155;" horiz-adv-x="575" 
d="M401 1338l67 -36l-198 -198l-27 15zM205 908v-171q91 171 309 171v-51q-166 -6 -237 -101q-72 -96 -72 -311v-445h-55v908h55z" />
    <glyph glyph-name="Rcommaaccent" unicode="&#x156;" horiz-adv-x="1048" 
d="M486 -392l73 247l61 -18l-103 -239zM641 613l335 -613h-65l-326 603q-77 -11 -156 -11h-187v-592h-58v1365h245q132 0 216 -23q82 -22 143 -76q126 -111 126 -293q0 -133 -74 -231q-73 -97 -199 -129zM242 1311v-666h207q200 0 300 82q107 89 107 247q0 157 -106 251
q-98 86 -301 86h-207z" />
    <glyph glyph-name="rcommaaccent" unicode="&#x157;" horiz-adv-x="575" 
d="M85 -392l73 247l61 -18l-103 -239zM205 908v-171q91 171 309 171v-51q-166 -6 -237 -101q-72 -96 -72 -311v-445h-55v908h55z" />
    <glyph glyph-name="Rcaron" unicode="&#x158;" horiz-adv-x="1048" 
d="M323 1739l195 -184l196 184l33 -16l-188 -207h-81l-189 207zM641 613l335 -613h-65l-326 603q-77 -11 -156 -11h-187v-592h-58v1365h245q132 0 216 -23q82 -22 143 -76q126 -111 126 -293q0 -133 -74 -231q-73 -97 -199 -129zM242 1311v-666h207q200 0 300 82
q107 89 107 247q0 157 -106 251q-98 86 -301 86h-207z" />
    <glyph glyph-name="rcaron" unicode="&#x159;" horiz-adv-x="543" 
d="M135 1329l196 -184l195 184l34 -17l-188 -206h-81l-189 206zM204 908v-171q92 171 309 171v-51q-166 -6 -237 -101q-72 -96 -72 -311v-445h-55v908h55z" />
    <glyph glyph-name="Sacute" unicode="&#x15a;" horiz-adv-x="1005" 
d="M642 1748l66 -36l-198 -198l-27 15zM830 1222l-45 -30q-114 138 -270 138q-86 0 -156 -35q-74 -38 -116 -110q-41 -70 -41 -143q0 -181 241 -275l141 -55q155 -61 232 -145q70 -79 70 -198q0 -175 -132 -289q-113 -98 -272 -98q-200 0 -315 154q-40 54 -65 131l56 16
q24 -68 56 -112q101 -134 273 -134q147 0 246 101q95 98 95 229q0 105 -64 173t-219 129l-135 53q-264 105 -264 319q0 166 127 263q103 79 246 79q189 0 311 -161z" />
    <glyph glyph-name="sacute" unicode="&#x15b;" horiz-adv-x="740" 
d="M486 1338l66 -36l-198 -198l-27 15zM605 807l-46 -25q-77 93 -187 93q-88 0 -146 -51t-58 -128t58 -128q26 -23 136 -66l96 -38q99 -39 144.5 -91t45.5 -126q0 -116 -87 -194q-82 -71 -201 -71q-187 0 -279 185l50 22q45 -79 91 -112q61 -43 144 -43q110 0 174 72
q51 58 51 133q0 81 -66 134q-28 21 -137 64l-106 42q-168 66 -168 210q0 107 78 172q79 65 184 65q140 0 229 -119z" />
    <glyph glyph-name="Scircumflex" unicode="&#x15c;" horiz-adv-x="1005" 
d="M685 1512l-195 184l-196 -184l-33 17l188 206h81l189 -206zM830 1222l-45 -30q-114 138 -270 138q-86 0 -156 -35q-74 -38 -116 -110q-41 -70 -41 -143q0 -181 241 -275l141 -55q155 -61 232 -145q70 -79 70 -198q0 -175 -132 -289q-113 -98 -272 -98q-200 0 -315 154
q-40 54 -65 131l56 16q24 -68 56 -112q101 -134 273 -134q147 0 246 101q95 98 95 229q0 105 -64 173t-219 129l-135 53q-264 105 -264 319q0 166 127 263q103 79 246 79q189 0 311 -161z" />
    <glyph glyph-name="scircumflex" unicode="&#x15d;" horiz-adv-x="740" 
d="M557 1103l-196 184l-195 -184l-34 17l189 206h81l188 -206zM605 807l-46 -25q-77 93 -187 93q-88 0 -146 -51t-58 -128t58 -128q26 -23 136 -66l96 -38q99 -39 144.5 -91t45.5 -126q0 -116 -87 -194q-82 -71 -201 -71q-187 0 -279 185l50 22q45 -79 91 -112
q61 -43 144 -43q110 0 174 72q51 58 51 133q0 81 -66 134q-28 21 -137 64l-106 42q-168 66 -168 210q0 107 78 172q79 65 184 65q140 0 229 -119z" />
    <glyph glyph-name="Scedilla" unicode="&#x15e;" horiz-adv-x="1005" 
d="M523 -145l57 -25l-155 -196l-32 16zM830 1222l-45 -30q-114 138 -270 138q-86 0 -156 -35q-74 -38 -116 -110q-41 -70 -41 -143q0 -181 241 -275l141 -55q155 -61 232 -145q70 -79 70 -198q0 -175 -132 -289q-113 -98 -272 -98q-200 0 -315 154q-40 54 -65 131l56 16
q24 -68 56 -112q101 -134 273 -134q147 0 246 101q95 98 95 229q0 105 -64 173t-219 129l-135 53q-264 105 -264 319q0 166 127 263q103 79 246 79q189 0 311 -161z" />
    <glyph glyph-name="scedilla" unicode="&#x15f;" horiz-adv-x="740" 
d="M378 -145l57 -25l-155 -196l-33 16zM605 807l-46 -25q-77 93 -187 93q-88 0 -146 -51t-58 -128t58 -128q26 -23 136 -66l96 -38q99 -39 144.5 -91t45.5 -126q0 -116 -87 -194q-82 -71 -201 -71q-187 0 -279 185l50 22q45 -79 91 -112q61 -43 144 -43q110 0 174 72
q51 58 51 133q0 81 -66 134q-28 21 -137 64l-106 42q-168 66 -168 210q0 107 78 172q79 65 184 65q140 0 229 -119z" />
    <glyph glyph-name="Scaron" unicode="&#x160;" horiz-adv-x="1005" 
d="M294 1739l196 -184l195 184l34 -16l-189 -207h-81l-188 207zM830 1222l-45 -30q-114 138 -270 138q-86 0 -156 -35q-74 -38 -116 -110q-41 -70 -41 -143q0 -181 241 -275l141 -55q155 -61 232 -145q70 -79 70 -198q0 -175 -132 -289q-113 -98 -272 -98q-200 0 -315 154
q-40 54 -65 131l56 16q24 -68 56 -112q101 -134 273 -134q147 0 246 101q95 98 95 229q0 105 -64 173t-219 129l-135 53q-264 105 -264 319q0 166 127 263q103 79 246 79q189 0 311 -161z" />
    <glyph glyph-name="scaron" unicode="&#x161;" horiz-adv-x="740" 
d="M166 1329l195 -184l196 184l33 -17l-188 -206h-81l-189 206zM605 807l-46 -25q-77 93 -187 93q-88 0 -146 -51t-58 -128t58 -128q26 -23 136 -66l96 -38q99 -39 144.5 -91t45.5 -126q0 -116 -87 -194q-82 -71 -201 -71q-187 0 -279 185l50 22q45 -79 91 -112
q61 -43 144 -43q110 0 174 72q51 58 51 133q0 81 -66 134q-28 21 -137 64l-106 42q-168 66 -168 210q0 107 78 172q79 65 184 65q140 0 229 -119z" />
    <glyph glyph-name="Tcommaaccent" unicode="&#x162;" horiz-adv-x="877" 
d="M337 -392l74 247l60 -18l-102 -239zM842 1311h-375v-1311h-58v1311h-375v54h808v-54z" />
    <glyph glyph-name="tcommaaccent" unicode="&#x163;" horiz-adv-x="479" 
d="M168 -392l73 247l61 -18l-103 -239zM178 263v594h-113v51h113v251l55 22v-273h164v-51h-164v-594q0 -116 30 -167t99 -51q24 0 49 6v-51q-30 -10 -58 -10q-175 0 -175 273z" />
    <glyph glyph-name="Tcaron" unicode="&#x164;" horiz-adv-x="877" 
d="M243 1739l196 -184l195 184l34 -16l-189 -207h-81l-188 207zM842 1311h-375v-1311h-58v1311h-375v54h808v-54z" />
    <glyph glyph-name="tcaron" unicode="&#x165;" horiz-adv-x="567" 
d="M424 1142l73 247l61 -18l-103 -239zM178 263v594h-113v51h113v238l55 22v-260h164v-51h-164v-594q0 -116 30 -167t99 -51q24 0 49 6v-51q-30 -10 -58 -10q-175 0 -175 273z" />
    <glyph glyph-name="Tbar" unicode="&#x166;" horiz-adv-x="877" 
d="M658 857h-191v-857h-58v857h-191v51h191v403h-375v54h808v-54h-375v-403h191v-51z" />
    <glyph glyph-name="tbar" unicode="&#x167;" horiz-adv-x="479" 
d="M233 1168v-260h164v-51h-164v-260h164v-51h-164v-283q0 -116 30 -167t99 -51q24 0 49 6v-51q-30 -10 -58 -10q-175 0 -175 273v283h-113v51h113v260h-113v51h113v238z" />
    <glyph glyph-name="Utilde" unicode="&#x168;" horiz-adv-x="1298" 
d="M844 1673l40 -9q-26 -104 -118 -104q-43 0 -121 36q-74 34 -105 34q-62 0 -85 -65l-40 9q29 105 117 105q40 0 127 -40q64 -30 103 -30q63 0 82 64zM184 1365h58v-850q0 -119 12 -183t45 -117q47 -77 142 -127q97 -51 208 -51q153 0 272 93q79 62 107 142t28 243v850h58
v-895q0 -109 -19 -178q-20 -73 -65 -131q-67 -87 -172 -134q-100 -45 -209 -45q-158 0 -286 89q-97 67 -138 159q-41 93 -41 240v895z" />
    <glyph glyph-name="utilde" unicode="&#x169;" horiz-adv-x="1045" 
d="M718 1264l40 -10q-26 -104 -117 -104q-44 0 -122 36q-75 34 -105 34q-61 0 -84 -65l-41 10q29 104 118 104q39 0 126 -40q65 -30 103 -30q62 0 82 65zM841 0v171q-106 -189 -337 -189q-168 0 -265 109q-47 52 -68 127.5t-21 194.5v495h55v-477q0 -118 18 -187t62 -116
q85 -93 224 -93q167 0 259 113q41 50 57 118q16 67 16 188v454h55v-908h-55z" />
    <glyph glyph-name="Umacron" unicode="&#x16a;" horiz-adv-x="1298" 
d="M409 1594v51h480v-51h-480zM184 1365h58v-850q0 -119 12 -183t45 -117q47 -77 142 -127q97 -51 208 -51q153 0 272 93q79 62 107 142t28 243v850h58v-895q0 -109 -19 -178q-20 -73 -65 -131q-67 -87 -172 -134q-100 -45 -209 -45q-158 0 -286 89q-97 67 -138 159
q-41 93 -41 240v895z" />
    <glyph glyph-name="umacron" unicode="&#x16b;" horiz-adv-x="1045" 
d="M283 1184v51h480v-51h-480zM841 0v171q-106 -189 -337 -189q-168 0 -265 109q-47 52 -68 127.5t-21 194.5v495h55v-477q0 -118 18 -187t62 -116q85 -93 224 -93q167 0 259 113q41 50 57 118q16 67 16 188v454h55v-908h-55z" />
    <glyph glyph-name="Ubreve" unicode="&#x16c;" horiz-adv-x="1298" 
d="M420 1698l49 4q11 -68 60 -109.5t117 -41.5q67 0 115.5 40.5t64.5 110.5l48 -4q-15 -64 -50 -108q-71 -86 -177 -86q-112 0 -181 86q-36 44 -46 108zM184 1365h58v-850q0 -119 12 -183t45 -117q47 -77 142 -127q97 -51 208 -51q153 0 272 93q79 62 107 142t28 243v850h58
v-895q0 -109 -19 -178q-20 -73 -65 -131q-67 -87 -172 -134q-100 -45 -209 -45q-158 0 -286 89q-97 67 -138 159q-41 93 -41 240v895z" />
    <glyph glyph-name="ubreve" unicode="&#x16d;" horiz-adv-x="1045" 
d="M295 1288l48 4q11 -67 60 -109t117 -42t116.5 40.5t63.5 110.5l48 -4q-15 -64 -50 -108q-71 -86 -177 -86q-112 0 -181 86q-34 44 -45 108zM841 0v171q-106 -189 -337 -189q-168 0 -265 109q-47 52 -68 127.5t-21 194.5v495h55v-477q0 -118 18 -187t62 -116
q85 -93 224 -93q167 0 259 113q41 50 57 118q16 67 16 188v454h55v-908h-55z" />
    <glyph glyph-name="Uring" unicode="&#x16e;" horiz-adv-x="1298" 
d="M184 1365h58v-850q0 -119 12 -183t45 -117q47 -77 142 -127q97 -51 208 -51q153 0 272 93q79 62 107 142t28 243v850h58v-895q0 -109 -19 -178q-20 -73 -65 -131q-67 -87 -172 -134q-100 -45 -209 -45q-158 0 -286 89q-97 67 -138 159q-41 93 -41 240v895zM648 1759
q62 0 103 -40q42 -41 42 -100t-42 -99q-43 -41 -102 -41q-60 0 -102 42q-42 40 -42 100q0 57 43 97q43 41 100 41zM649 1725q-44 0 -75 -31t-31 -76q0 -43 31.5 -74t74.5 -31q44 0 75 31t31 75t-31 75t-75 31z" />
    <glyph glyph-name="uring" unicode="&#x16f;" horiz-adv-x="1045" 
d="M522 1349q62 0 103 -40q42 -41 42 -99t-42 -99q-43 -41 -102 -41t-102 41q-42 41 -42 100q0 57 43 97q43 41 100 41zM523 1315q-44 0 -75 -31t-31 -76q0 -41 32 -73q31 -31 74 -31q44 0 75 31t31 74q0 44 -31 75t-75 31zM841 0v171q-106 -189 -337 -189q-168 0 -265 109
q-47 52 -68 127.5t-21 194.5v495h55v-477q0 -118 18 -187t62 -116q85 -93 224 -93q167 0 259 113q41 50 57 118q16 67 16 188v454h55v-908h-55z" />
    <glyph glyph-name="Uhungarumlaut" unicode="&#x170;" horiz-adv-x="1298" 
d="M906 1747l60 -34l-197 -198l-22 13zM619 1747l61 -34l-198 -198l-22 13zM184 1365h58v-850q0 -119 12 -183t45 -117q47 -77 142 -127q97 -51 208 -51q153 0 272 93q79 62 107 142t28 243v850h58v-895q0 -109 -19 -178q-20 -73 -65 -131q-67 -87 -172 -134
q-100 -45 -209 -45q-158 0 -286 89q-97 67 -138 159q-41 93 -41 240v895z" />
    <glyph glyph-name="uhungarumlaut" unicode="&#x171;" horiz-adv-x="1045" 
d="M790 1337l61 -34l-198 -198l-22 13zM504 1337l60 -34l-197 -198l-22 13zM841 0v171q-106 -189 -337 -189q-168 0 -265 109q-47 52 -68 127.5t-21 194.5v495h55v-477q0 -118 18 -187t62 -116q85 -93 224 -93q167 0 259 113q41 50 57 118q16 67 16 188v454h55v-908h-55z
" />
    <glyph glyph-name="Uogonek" unicode="&#x172;" horiz-adv-x="1298" 
d="M687 -16q-54 -67 -54 -122q0 -39 26.5 -62t72.5 -23q26 0 53 12l17 -40q-45 -16 -80 -16q-61 0 -101 34.5t-40 88.5q0 61 51 127q-177 6 -304 115q-91 78 -123 185q-21 71 -21 187v895h58v-850q0 -119 12 -183t45 -117q47 -77 142 -127q97 -51 208 -51q153 0 272 93
q79 62 107 142t28 243v850h58v-895q0 -159 -47 -251q-51 -98 -154 -162t-226 -73z" />
    <glyph glyph-name="uogonek" unicode="&#x173;" horiz-adv-x="1045" 
d="M896 908v-908q-68 -82 -68 -138q0 -39 27 -62t72 -23q26 0 53 12l17 -40q-45 -16 -80 -16q-61 0 -101 34.5t-40 88.5q0 64 65 144v171q-106 -189 -337 -189q-168 0 -265 109q-47 52 -68 127.5t-21 194.5v495h55v-477q0 -118 18 -187t62 -116q85 -93 224 -93
q167 0 259 113q41 50 57 118q16 67 16 188v454h55z" />
    <glyph glyph-name="Wcircumflex" unicode="&#x174;" horiz-adv-x="1786" 
d="M1088 1512l-195 184l-196 -184l-33 17l188 206h81l188 -206zM1262 0l-369 1308l-370 -1308h-77l-412 1365h60l391 -1307l367 1307h82l366 -1307l392 1307h60l-413 -1365h-77z" />
    <glyph glyph-name="wcircumflex" unicode="&#x175;" horiz-adv-x="1394" 
d="M893 1103l-196 184l-195 -184l-34 17l189 206h81l188 -206zM432 0h-73l-337 908h61l312 -859l265 859h74l265 -861l313 861h60l-336 -908h-73l-266 847z" />
    <glyph glyph-name="Ycircumflex" unicode="&#x176;" horiz-adv-x="966" 
d="M679 1512l-196 184l-195 -184l-34 17l189 206h81l188 -206zM453 0v575l-433 790h63l399 -735l400 735h62l-433 -790v-575h-58z" />
    <glyph glyph-name="ycircumflex" unicode="&#x177;" horiz-adv-x="863" 
d="M629 1103l-195 184l-196 -184l-33 17l188 206h81l188 -206zM187 -478l210 492l-375 894h62l342 -828l354 828h61l-598 -1386h-56z" />
    <glyph glyph-name="Ydieresis" unicode="&#x178;" horiz-adv-x="966" 
d="M453 0v575l-433 790h63l399 -735l400 735h62l-433 -790v-575h-58zM671 1671q21 0 36 -15.5t15 -36.5t-15 -36.5t-36 -15.5t-36 15.5t-15 37.5q0 20 15.5 35.5t35.5 15.5zM294 1671q21 0 36 -15t15 -37q0 -21 -15 -36.5t-36 -15.5t-36 16t-15 37q0 20 15.5 35.5t35.5 15.5
z" />
    <glyph glyph-name="Zacute" unicode="&#x179;" horiz-adv-x="1038" 
d="M629 1748l66 -36l-197 -198l-27 15zM950 1290l-831 -1235h847v-55h-898v76l834 1235h-768v54h816v-75z" />
    <glyph glyph-name="zacute" unicode="&#x17a;" horiz-adv-x="857" 
d="M552 1338l66 -36l-197 -198l-27 15zM781 848l-645 -796h667v-52h-724v60l647 797h-614v51h669v-49v-11z" />
    <glyph glyph-name="Zdotaccent" unicode="&#x17b;" horiz-adv-x="1038" 
d="M950 1290l-831 -1235h847v-55h-898v76l834 1235h-768v54h816v-75zM552 1671q21 0 36 -15t15 -37q0 -21 -15 -36.5t-36 -15.5t-36 16t-15 37q0 20 15.5 35.5t35.5 15.5z" />
    <glyph glyph-name="zdotaccent" unicode="&#x17c;" horiz-adv-x="857" 
d="M781 848l-645 -796h667v-52h-724v60l647 797h-614v51h669v-49v-11zM441 1256q21 0 36 -15.5t15 -36.5t-15 -36.5t-36 -15.5t-36 16t-15 37q0 20 15.5 35.5t35.5 15.5z" />
    <glyph glyph-name="Zcaron" unicode="&#x17d;" horiz-adv-x="1038" 
d="M357 1739l196 -184l195 184l34 -16l-189 -207h-81l-188 207zM950 1290l-831 -1235h847v-55h-898v76l834 1235h-768v54h816v-75z" />
    <glyph glyph-name="zcaron" unicode="&#x17e;" horiz-adv-x="857" 
d="M246 1329l196 -184l195 184l34 -17l-189 -206h-81l-188 206zM781 848l-645 -796h667v-52h-724v60l647 797h-614v51h669v-49v-11z" />
    <glyph glyph-name="longs" unicode="&#x17f;" horiz-adv-x="441" 
d="M242 1103v-1103h-55v857h-102v51h102v195q0 133 39 196q46 76 136 76q28 0 58 -10v-51q-26 6 -48 6q-69 0 -99.5 -51t-30.5 -166z" />
    <glyph glyph-name="florin" unicode="&#x192;" horiz-adv-x="918" 
d="M38 -393l11 53q16 -2 21 -2q149 0 187 188l206 1011h-99l11 51h98l42 205q52 262 247 262q5 0 33 -2l-11 -54q-10 1 -21 1q-150 0 -187 -187l-46 -225h171l-11 -51h-170l-202 -991q-52 -262 -246 -262q-14 0 -34 3z" />
    <glyph glyph-name="Ohorn" unicode="&#x1a0;" horiz-adv-x="1550" 
d="M1303 1132q72 42 100.5 81t28.5 98q0 76 -65 146l44 22q72 -69 72 -171q0 -66 -32 -115q-31 -47 -116 -104q129 -181 129 -409q0 -186 -93 -349q-88 -156 -242 -250q-161 -99 -343 -99q-183 0 -345 99q-153 93 -242 251q-93 163 -93 350q0 186 92 350q93 164 253 258
q157 93 334 93q255 0 448 -177q38 -36 70 -74zM780 1328q-173 0 -319 -95q-145 -94 -225 -251q-71 -140 -71 -311q0 -156 77 -301q81 -150 226 -241q151 -92 317 -92q168 0 317 92q147 91 226 241q77 145 77 312q0 272 -189 466q-178 180 -436 180z" />
    <glyph glyph-name="ohorn" unicode="&#x1a1;" horiz-adv-x="1139" 
d="M937 696q96 62 96 158q0 78 -66 147l44 21q73 -67 73 -170q0 -116 -124 -203q39 -93 39 -194q0 -215 -150 -355q-125 -118 -304 -118q-206 0 -339 154q-115 133 -115 319q0 213 149 353q127 118 305 118q202 0 334 -148q32 -37 58 -82zM538 873q-186 0 -303 -148
q-85 -109 -85 -270q0 -190 116 -306q112 -114 279 -114q195 0 310 148q85 109 85 275q0 186 -116 302q-113 113 -286 113z" />
    <glyph glyph-name="Uhorn" unicode="&#x1af;" horiz-adv-x="1344" 
d="M1114 1365v-246q72 43 95 64q56 51 56 128q0 76 -65 147l44 21q72 -69 72 -170q0 -86 -62 -151q-30 -31 -140 -97v-590q0 -110 -19 -179q-20 -73 -65 -131q-67 -87 -172 -134q-100 -45 -209 -45q-158 0 -286 89q-97 67 -138 159q-41 93 -41 241v894h58v-850
q0 -119 12 -183t45 -117q47 -77 142 -127q97 -51 208 -51q153 0 272 93q78 61 107 142q28 80 28 243v850h58z" />
    <glyph glyph-name="uhorn" unicode="&#x1b0;" horiz-adv-x="1145" 
d="M896 908v-242q69 41 88 59q56 51 56 128t-65 147l43 22q73 -69 73 -170q0 -75 -41 -127q-40 -50 -154 -117v-608h-55v171q-106 -189 -337 -189q-168 0 -265 109q-47 52 -68 127.5t-21 194.5v495h55v-477q0 -118 18 -187t62 -116q85 -93 224 -93q167 0 259 113
q41 50 57 118q16 67 16 188v454h55z" />
    <glyph glyph-name="uni01C4" unicode="&#x1c4;" horiz-adv-x="2305" 
d="M184 0v1365h245q308 0 502 -154q229 -181 229 -527q0 -349 -229 -530q-193 -154 -502 -154h-245zM436 1310h-194v-1255h194q273 0 450 141q216 172 216 488q0 314 -216 486q-178 140 -450 140zM1624 1739l196 -184l195 184l34 -16l-189 -207h-81l-188 207zM2217 1290
l-831 -1235h847v-55h-898v76l834 1235h-768v54h816v-75z" />
    <glyph glyph-name="uni01C5" unicode="&#x1c5;" horiz-adv-x="2124" 
d="M184 0v1365h245q308 0 502 -154q229 -181 229 -527q0 -349 -229 -530q-193 -154 -502 -154h-245zM436 1310h-194v-1255h194q273 0 450 141q216 172 216 488q0 314 -216 486q-178 140 -450 140zM1513 1329l196 -184l195 184l33 -17l-188 -206h-81l-188 206zM2048 848
l-646 -796h668v-52h-724v60l647 797h-614v51h669v-49v-11z" />
    <glyph glyph-name="uni01C6" unicode="&#x1c6;" horiz-adv-x="1991" 
d="M984 1365v-1365h-55v208q-139 -226 -385 -226q-205 0 -338 154q-115 133 -115 319q0 213 149 353q127 118 304 118q244 0 385 -226v665h55zM536 873q-186 0 -301 -148q-85 -109 -85 -270q0 -190 116 -306q112 -114 277 -114q193 0 306 149q83 110 83 274q0 183 -113 302
q-110 113 -283 113zM1380 1329l195 -184l196 184l33 -17l-188 -206h-81l-189 206zM1914 848l-645 -796h667v-52h-723v60l646 797h-614v51h669v-49v-11z" />
    <glyph glyph-name="uni01C7" unicode="&#x1c7;" horiz-adv-x="1591" 
d="M184 1365h58v-1310h563v-55h-621v1365zM1391 1365h58v-969q0 -230 -93 -328q-83 -86 -216 -86q-129 0 -262 112l34 40q115 -97 226 -97q253 0 253 359v969z" />
    <glyph glyph-name="uni01C8" unicode="&#x1c8;" horiz-adv-x="1224" 
d="M184 1365h58v-1310h563v-55h-621v1365zM841 -478v52q24 -7 48 -7q69 0 99.5 51t30.5 167v1123h55v-1123q0 -273 -175 -273q-28 0 -58 10zM1047 1256q21 0 36 -15.5t15 -36.5t-15 -36.5t-36 -15.5t-36 16t-15 37q0 20 15.5 35.5t35.5 15.5z" />
    <glyph glyph-name="uni01C9" unicode="&#x1c9;" horiz-adv-x="730" 
d="M207 1365v-1365h-55v1365h55zM348 -478v52q24 -7 48 -7q69 0 99.5 51t30.5 167v1123h55v-1123q0 -273 -175 -273q-28 0 -58 10zM554 1256q21 0 36 -15.5t15 -36.5t-15 -36.5t-36 -15.5t-36 16t-15 37q0 20 15.5 35.5t35.5 15.5z" />
    <glyph glyph-name="uni01CA" unicode="&#x1ca;" horiz-adv-x="2200" 
d="M1197 0l-955 1303v-1303h-58v1365h79l955 -1303v1303h58v-1365h-79zM2001 1365h58v-969q0 -230 -93 -328q-83 -86 -216 -86q-129 0 -262 112l34 40q115 -97 226 -97q253 0 253 359v969z" />
    <glyph glyph-name="uni01CB" unicode="&#x1cb;" horiz-adv-x="1834" 
d="M1197 0l-955 1303v-1303h-58v1365h79l955 -1303v1303h58v-1365h-79zM1451 -478v52q24 -7 48 -7q69 0 99.5 51t30.5 167v1123h55v-1123q0 -273 -175 -273q-28 0 -58 10zM1656 1256q21 0 36 -15.5t15 -36.5t-15 -36.5t-36 -15.5t-36 16t-15 37q0 20 15.5 35.5t35.5 15.5z
" />
    <glyph glyph-name="uni01CC" unicode="&#x1cc;" horiz-adv-x="1418" 
d="M205 908v-170q105 188 337 188q166 0 265 -109q47 -52 68 -127.5t21 -194.5v-495h-55v477q0 116 -18.5 185.5t-61.5 117.5q-86 93 -224 93q-168 0 -260 -113q-38 -47 -55 -117q-17 -73 -17 -189v-454h-55v908h55zM1036 -478v52q24 -7 48 -7q69 0 99.5 51t30.5 167v1123
h55v-1123q0 -273 -175 -273q-28 0 -58 10zM1241 1256q21 0 36 -15.5t15 -36.5t-15 -36.5t-36 -15.5q-20 0 -35.5 16t-15.5 37q0 20 15.5 35.5t35.5 15.5z" />
    <glyph glyph-name="uni01CD" unicode="&#x1cd;" horiz-adv-x="1236" 
d="M422 1739l196 -184l195 184l34 -16l-188 -207h-81l-189 207zM976 413h-717l-165 -413h-60l553 1365h62l553 -1365h-61zM618 1307l-337 -840h673z" />
    <glyph glyph-name="uni01CE" unicode="&#x1ce;" horiz-adv-x="1134" 
d="M342 1329l196 -184l196 184l33 -17l-188 -206h-81l-189 206zM984 908v-908h-55v208q-48 -72 -79 -103q-37 -37 -85 -64q-101 -59 -221 -59q-205 0 -338 154q-115 133 -115 318q0 214 149 354q127 118 304 118q120 0 221 -59q50 -28 85 -63q32 -32 79 -104v208h55z
M536 873q-186 0 -301 -148q-85 -109 -85 -270q0 -189 116 -307q113 -113 277 -113q193 0 306 149q83 110 83 274q0 183 -113 302q-110 113 -283 113z" />
    <glyph glyph-name="uni01CF" unicode="&#x1cf;" horiz-adv-x="427" 
d="M17 1739l196 -184l195 184l34 -16l-188 -207h-81l-189 207zM184 1365h58v-1365h-58v1365z" />
    <glyph glyph-name="uni01D0" unicode="&#x1d0;" horiz-adv-x="354" 
d="M-19 1329l196 -184l195 184l34 -17l-188 -206h-81l-189 206zM150 908h55v-908h-55v908z" />
    <glyph glyph-name="uni01D1" unicode="&#x1d1;" horiz-adv-x="1571" 
d="M590 1739l196 -184l195 184l33 -16l-188 -207h-81l-188 207zM785 1383q181 0 334 -93q162 -97 253 -258q92 -163 92 -350t-93 -350q-89 -158 -242 -251q-161 -99 -349 -99q-177 0 -339 99q-155 96 -242 251q-93 163 -93 361q0 181 93 339q99 168 252 258q157 93 334 93z
M780 1328q-173 0 -319 -95q-145 -94 -225 -251q-71 -140 -71 -311q0 -156 77 -301q81 -150 226 -241q151 -92 317 -92q168 0 317 92q147 91 226 241q77 145 77 312q0 272 -189 466q-178 180 -436 180z" />
    <glyph glyph-name="uni01D2" unicode="&#x1d2;" horiz-adv-x="1091" 
d="M349 1329l196 -184l195 184l34 -17l-188 -206h-81l-189 206zM553 926q198 0 331 -154q115 -133 115 -317q0 -215 -150 -355q-125 -118 -304 -118q-207 0 -339 154q-115 133 -115 323q0 209 149 349q127 118 313 118zM538 873q-186 0 -303 -148q-85 -109 -85 -270
q0 -190 116 -306q112 -114 279 -114q195 0 310 148q85 109 85 275q0 186 -116 302q-113 113 -286 113z" />
    <glyph glyph-name="uni01D3" unicode="&#x1d3;" horiz-adv-x="1298" 
d="M453 1739l196 -184l195 184l34 -16l-188 -207h-82l-188 207zM184 1365h58v-850q0 -119 12 -183t45 -117q47 -77 142 -127q97 -51 208 -51q153 0 272 93q79 62 107 142t28 243v850h58v-895q0 -109 -19 -178q-20 -73 -65 -131q-67 -87 -172 -134q-100 -45 -209 -45
q-158 0 -286 89q-97 67 -138 159q-41 93 -41 240v895z" />
    <glyph glyph-name="uni01D4" unicode="&#x1d4;" horiz-adv-x="1045" 
d="M327 1329l196 -184l196 184l33 -17l-188 -206h-81l-189 206zM841 0v171q-106 -189 -337 -189q-168 0 -265 109q-47 52 -68 127.5t-21 194.5v495h55v-477q0 -118 18 -187t62 -116q85 -93 224 -93q167 0 259 113q41 50 57 118q16 67 16 188v454h55v-908h-55z" />
    <glyph glyph-name="Gcaron" unicode="&#x1e6;" horiz-adv-x="1493" 
d="M596 1739l196 -184l195 184l34 -16l-189 -207h-81l-188 207zM898 605v53h485v-31q0 -187 -66 -329q-60 -131 -178 -215q-143 -101 -340 -101q-278 0 -472 185q-105 99 -163 233.5t-58 279.5q0 189 91 352q93 166 251 258q157 93 347 93q253 0 444 -184l-39 -39
q-171 168 -407 168q-184 0 -336 -95q-144 -91 -223 -251q-69 -141 -69 -302q0 -167 76 -309q80 -153 224 -241q150 -93 330 -93q246 0 396 167q66 75 98 169q31 91 36 232h-427z" />
    <glyph glyph-name="gcaron" unicode="&#x1e7;" horiz-adv-x="1134" 
d="M342 1329l196 -184l195 184l34 -17l-189 -206h-81l-188 206zM929 908h55v-925q0 -197 -104 -322q-62 -75 -155.5 -115.5t-203.5 -40.5q-224 0 -379 170l37 39q55 -62 105 -93q102 -63 237 -63q189 0 298 115q110 116 110 310v45v180q-139 -226 -384 -226q-206 0 -339 154
q-115 133 -115 318q0 214 149 354q127 118 304 118q244 0 385 -226v208zM537 873q-185 0 -302 -148q-85 -109 -85 -270q0 -190 116 -306q114 -114 277 -114q193 0 307 149q83 110 83 274q0 183 -113 302q-110 113 -283 113z" />
    <glyph glyph-name="uni01F4" unicode="&#x1f4;" horiz-adv-x="1493" 
d="M916 1748l66 -36l-197 -198l-27 15zM898 605v53h485v-31q0 -187 -66 -329q-60 -131 -178 -215q-143 -101 -340 -101q-278 0 -472 185q-105 99 -163 233.5t-58 279.5q0 189 91 352q93 166 251 258q157 93 347 93q253 0 444 -184l-39 -39q-171 168 -407 168
q-184 0 -336 -95q-144 -91 -223 -251q-69 -141 -69 -302q0 -167 76 -309q80 -153 224 -241q150 -93 330 -93q246 0 396 167q66 75 98 169q31 91 36 232h-427z" />
    <glyph glyph-name="uni01F5" unicode="&#x1f5;" horiz-adv-x="1134" 
d="M659 1338l66 -36l-197 -198l-28 15zM929 908h55v-925q0 -197 -104 -322q-62 -75 -155.5 -115.5t-203.5 -40.5q-224 0 -379 170l37 39q55 -62 105 -93q102 -63 237 -63q189 0 298 115q110 116 110 310v45v180q-139 -226 -384 -226q-206 0 -339 154q-115 133 -115 318
q0 214 149 354q127 118 304 118q244 0 385 -226v208zM537 873q-185 0 -302 -148q-85 -109 -85 -270q0 -190 116 -306q114 -114 277 -114q193 0 307 149q83 110 83 274q0 183 -113 302q-110 113 -283 113z" />
    <glyph glyph-name="Aringacute" unicode="&#x1fa;" horiz-adv-x="1236" 
d="M661 2120l66 -36l-198 -198l-27 15zM617 1759q62 0 103 -40q42 -41 42 -100t-42 -99q-43 -41 -102 -41q-60 0 -102 42q-42 40 -42 100q0 57 43 97q43 41 100 41zM618 1725q-44 0 -75 -31t-31 -76q0 -43 31.5 -74t74.5 -31q44 0 75 31t31 75t-31 75t-75 31zM976 413h-717
l-165 -413h-60l553 1365h62l553 -1365h-61zM618 1307l-337 -840h673z" />
    <glyph glyph-name="aringacute" unicode="&#x1fb;" horiz-adv-x="1134" 
d="M564 1349q62 0 103 -40q42 -41 42 -99t-42 -99q-43 -41 -102 -41t-102 41q-42 41 -42 100q0 57 43 97q43 41 100 41zM565 1315q-44 0 -75 -31t-31 -76q0 -41 32 -73q31 -31 74 -31q44 0 75 31t31 74q0 44 -31 75t-75 31zM608 1748l66 -36l-198 -198l-27 15zM984 908v-908
h-55v208q-48 -72 -79 -103q-37 -37 -85 -64q-101 -59 -221 -59q-205 0 -338 154q-115 133 -115 318q0 214 149 354q127 118 304 118q120 0 221 -59q50 -28 85 -63q32 -32 79 -104v208h55zM536 873q-186 0 -301 -148q-85 -109 -85 -270q0 -189 116 -307q113 -113 277 -113
q193 0 306 149q83 110 83 274q0 183 -113 302q-110 113 -283 113z" />
    <glyph glyph-name="AEacute" unicode="&#x1fc;" horiz-adv-x="1724" 
d="M1190 1748l66 -36l-198 -198l-27 15zM954 0v413h-650l-209 -413h-61l694 1365h868v-53h-584v-592h519v-54h-519v-611h606v-55h-664zM331 467h623v845h-197z" />
    <glyph glyph-name="aeacute" unicode="&#x1fd;" horiz-adv-x="1746" 
d="M985 1338l66 -36l-198 -198l-27 15zM862 229q-58 -247 -387 -247q-179 0 -288 81q-96 71 -96 213q0 131 94 205t262 74h365q-4 86 -23 136q-68 182 -321 182q-86 0 -150 -21q-67 -21 -143 -72l-25 37q84 58 161.5 83.5t173.5 25.5q149 0 250 -73q49 -34 74 -74t45 -116
q41 89 98 145q119 118 285 118q126 0 228 -72t150 -195q37 -95 39 -228h-784q7 -93 31 -155q44 -113 136 -177t210 -64q97 0 185 44q69 34 135 121l52 -22q-45 -58 -80 -90q-32 -29 -81 -55q-98 -51 -209 -51q-203 0 -328 153q-33 41 -59 94zM812 279v228h-335
q-157 0 -246 -60q-84 -59 -84 -170q0 -137 117 -198q86 -44 213 -44q148 0 236 55q99 62 99 189zM870 479h728q-10 100 -36 166q-31 82 -92 138q-98 90 -231 90q-165 0 -272 -126q-44 -55 -67 -115q-22 -60 -30 -153z" />
    <glyph glyph-name="Oslashacute" unicode="&#x1fe;" horiz-adv-x="1586" 
d="M918 1748l66 -36l-198 -198l-27 15zM1256 1192l168 174l31 -30l-169 -175q186 -209 186 -480q0 -187 -93 -350q-88 -156 -242 -250q-161 -99 -343 -99q-261 0 -464 191l-168 -174l-31 30l169 175q-186 208 -186 478q0 186 92 350q93 164 253 258q157 93 334 93
q260 0 463 -191zM338 243l881 911q-179 174 -427 174q-175 0 -324 -95q-145 -93 -225 -251q-71 -140 -71 -300q0 -254 166 -439zM1248 1122l-880 -910q185 -175 426 -175q168 0 317 92q147 93 226 241q77 143 77 311q0 257 -166 441z" />
    <glyph glyph-name="oslashacute" unicode="&#x1ff;" horiz-adv-x="1118" 
d="M684 1338l66 -36l-198 -198l-27 15zM1013 882l-112 -113q112 -131 112 -315q0 -214 -150 -354q-125 -118 -304 -118q-182 0 -315 128l-111 -111l-28 27l113 113q-113 134 -113 317q0 212 149 352q127 118 305 118q184 0 315 -128l111 112zM864 732l-583 -585
q112 -112 279 -112q193 0 309 149q85 109 85 268q0 170 -90 280zM255 177l582 584q-113 112 -279 112q-194 0 -309 -148q-85 -109 -85 -269q0 -167 91 -279z" />
    <glyph glyph-name="uni0200" unicode="&#x200;" horiz-adv-x="1236" 
d="M768 1515l-197 198l60 34l159 -219zM481 1515l-197 198l60 34l160 -219zM976 413h-717l-165 -413h-60l553 1365h62l553 -1365h-61zM618 1307l-337 -840h673z" />
    <glyph glyph-name="uni0201" unicode="&#x201;" horiz-adv-x="1134" 
d="M356 1105l-197 198l60 34l159 -219zM643 1105l-198 198l61 34l159 -219zM984 908v-908h-55v208q-48 -72 -79 -103q-37 -37 -85 -64q-101 -59 -221 -59q-205 0 -338 154q-115 133 -115 318q0 214 149 354q127 118 304 118q120 0 221 -59q50 -28 85 -63q32 -32 79 -104v208
h55zM536 873q-186 0 -301 -148q-85 -109 -85 -270q0 -189 116 -307q113 -113 277 -113q193 0 306 149q83 110 83 274q0 183 -113 302q-110 113 -283 113z" />
    <glyph glyph-name="Scommaaccent" unicode="&#x218;" horiz-adv-x="1005" 
d="M513 -145l56 -25l-154 -196l-33 16zM830 1222l-45 -30q-114 138 -270 138q-86 0 -156 -35q-74 -38 -116 -110q-41 -70 -41 -143q0 -181 241 -275l141 -55q155 -61 232 -145q70 -79 70 -198q0 -175 -132 -289q-113 -98 -272 -98q-200 0 -315 154q-40 54 -65 131l56 16
q24 -68 56 -112q101 -134 273 -134q147 0 246 101q95 98 95 229q0 105 -64 173t-219 129l-135 53q-264 105 -264 319q0 166 127 263q103 79 246 79q189 0 311 -161z" />
    <glyph glyph-name="scommaaccent" unicode="&#x219;" horiz-adv-x="740" 
d="M290 -392l73 247l61 -18l-103 -239zM605 807l-46 -25q-77 93 -187 93q-88 0 -146 -51t-58 -128t58 -128q26 -23 136 -66l96 -38q99 -39 144.5 -91t45.5 -126q0 -116 -87 -194q-82 -71 -201 -71q-187 0 -279 185l50 22q45 -79 91 -112q61 -43 144 -43q110 0 174 72
q51 58 51 133q0 81 -66 134q-28 21 -137 64l-106 42q-168 66 -168 210q0 107 78 172q79 65 184 65q140 0 229 -119z" />
    <glyph glyph-name="uni021A" unicode="&#x21a;" horiz-adv-x="877" 
d="M337 -392l74 247l60 -18l-102 -239zM842 1311h-375v-1311h-58v1311h-375v54h808v-54z" />
    <glyph glyph-name="uni021B" unicode="&#x21b;" horiz-adv-x="479" 
d="M168 -392l73 247l61 -18l-103 -239zM178 263v594h-113v51h113v251l55 22v-273h164v-51h-164v-594q0 -116 30 -167t99 -51q24 0 49 6v-51q-30 -10 -58 -10q-175 0 -175 273z" />
    <glyph glyph-name="uni0226" unicode="&#x226;" horiz-adv-x="1236" 
d="M976 413h-717l-165 -413h-60l553 1365h62l553 -1365h-61zM618 1307l-337 -840h673zM618 1671q21 0 36 -15.5t15 -36.5t-15 -36.5t-36 -15.5t-36 16t-15 37q0 20 15.5 35.5t35.5 15.5z" />
    <glyph glyph-name="uni0227" unicode="&#x227;" horiz-adv-x="1134" 
d="M984 908v-908h-55v208q-48 -72 -79 -103q-37 -37 -85 -64q-101 -59 -221 -59q-205 0 -338 154q-115 133 -115 318q0 214 149 354q127 118 304 118q120 0 221 -59q50 -28 85 -63q32 -32 79 -104v208h55zM536 873q-186 0 -301 -148q-85 -109 -85 -270q0 -189 116 -307
q113 -113 277 -113q193 0 306 149q83 110 83 274q0 183 -113 302q-110 113 -283 113zM538 1256q21 0 36 -15t15 -37q0 -21 -15 -36.5t-36 -15.5t-36 16t-15 37q0 20 15.5 35.5t35.5 15.5z" />
    <glyph glyph-name="uni0237" unicode="&#x237;" horiz-adv-x="373" 
d="M-10 -478v52q24 -7 48 -7q69 0 99.5 51t30.5 167v1123h55v-1123q0 -273 -175 -273q-28 0 -58 10z" />
    <glyph glyph-name="uni02BB" unicode="&#x2bb;" horiz-adv-x="405" 
d="M315 1394l-143 -398l-57 21l173 388z" />
    <glyph glyph-name="afii57929" unicode="&#x2bc;" horiz-adv-x="480" 
d="M137 992l147 415l60 -22l-173 -407z" />
    <glyph glyph-name="circumflex" unicode="&#x2c6;" horiz-adv-x="975" 
d="M682 1103l-195 184l-196 -184l-33 17l189 206h81l188 -206z" />
    <glyph glyph-name="caron" unicode="&#x2c7;" horiz-adv-x="975" 
d="M291 1329l196 -184l195 184l34 -17l-188 -206h-81l-189 206z" />
    <glyph glyph-name="uni02C9" unicode="&#x2c9;" horiz-adv-x="975" 
d="M247 1184v51h481v-51h-481z" />
    <glyph glyph-name="breve" unicode="&#x2d8;" horiz-adv-x="975" 
d="M261 1288l48 4q11 -67 60 -109t117 -42t116.5 40.5t64.5 110.5l47 -4q-15 -64 -50 -108q-69 -86 -177 -86q-110 0 -181 86q-34 44 -45 108z" />
    <glyph glyph-name="dotaccent" unicode="&#x2d9;" horiz-adv-x="975" 
d="M487 1256q21 0 36 -15.5t15 -36.5t-15 -36.5t-36 -15.5q-20 0 -35.5 16t-15.5 37q0 20 15.5 35.5t35.5 15.5z" />
    <glyph glyph-name="ring" unicode="&#x2da;" horiz-adv-x="975" 
d="M486 1349q62 0 103 -40q42 -41 42 -99t-42 -99q-43 -41 -102 -41t-102 41q-42 41 -42 100q0 57 43 97q43 41 100 41zM487 1315q-44 0 -75 -31t-31 -76q0 -41 32 -73q31 -31 74 -31q44 0 75 31t31 74q0 44 -31 75t-75 31z" />
    <glyph glyph-name="ogonek" unicode="&#x2db;" horiz-adv-x="975" 
d="M780 0h56q-68 -80 -68 -138q0 -39 26.5 -62t72.5 -23q26 0 53 12l17 -40q-45 -16 -80 -16q-61 0 -101 34.5t-40 88.5q0 65 64 144z" />
    <glyph glyph-name="tilde" unicode="&#x2dc;" horiz-adv-x="975" 
d="M682 1264l40 -10q-26 -104 -118 -104q-43 0 -121 36q-75 34 -105 34q-61 0 -85 -65l-40 10q29 104 117 104q40 0 127 -40q64 -30 103 -30q62 0 82 65z" />
    <glyph glyph-name="hungarumlaut" unicode="&#x2dd;" horiz-adv-x="975" 
d="M478 1337l61 -34l-198 -198l-22 13zM765 1337l60 -34l-197 -198l-22 13z" />
    <glyph glyph-name="uni0309" unicode="&#x309;" horiz-adv-x="975" 
d="M573 1516h-51q4 8 12 18l17 28q42 68 42 100q0 70 -111 70q-22 0 -52 -6l-14 35q43 10 78 10q69 0 107 -26t38 -73q0 -40 -22 -77l-29 -50q-13 -23 -15 -29z" />
    <glyph glyph-name="uni0323" unicode="&#x323;" horiz-adv-x="975" 
d="M487 -176q21 0 36 -15.5t15 -36.5t-15 -36.5t-36 -15.5q-20 0 -35.5 16t-15.5 37q0 20 15.5 35.5t35.5 15.5z" />
    <glyph glyph-name="uni037E" unicode="&#x37e;" horiz-adv-x="413" 
d="M69 -272l147 415l60 -22l-173 -407zM242 783q21 0 36 -15.5t15 -36.5t-15 -36.5t-36 -15.5t-36 15.5t-15 37.5q0 20 15.5 35.5t35.5 15.5z" />
    <glyph glyph-name="uni0387" unicode="&#x387;" horiz-adv-x="406" 
d="M203 735q21 0 36 -15.5t15 -36.5t-15 -36.5t-36 -15.5q-20 0 -35.5 16t-15.5 37q0 20 15.5 35.5t35.5 15.5z" />
    <glyph glyph-name="uni1E1E" unicode="&#x1e1e;" horiz-adv-x="871" 
d="M776 1365v-53h-534v-592h487v-54h-487v-666h-58v1365h592zM480 1671q21 0 36 -15.5t15 -36.5t-15 -36.5t-36 -15.5t-36 16t-15 37q0 20 15.5 35.5t35.5 15.5z" />
    <glyph glyph-name="uni1E1F" unicode="&#x1e1f;" horiz-adv-x="485" 
d="M85 908h102v195q0 133 39 196q46 76 136 76q28 0 58 -10v-51q-26 6 -48 6q-69 0 -99.5 -51t-30.5 -166v-195h182v-51h-182v-857h-55v857h-102v51zM305 1671q21 0 36 -15.5t15 -36.5t-15 -36.5t-36 -15.5t-36 16t-15 37q0 20 15.5 35.5t35.5 15.5z" />
    <glyph glyph-name="Wgrave" unicode="&#x1e80;" horiz-adv-x="1786" 
d="M913 1514l-197 198l66 36l158 -219zM1262 0l-369 1308l-370 -1308h-77l-412 1365h60l391 -1307l367 1307h82l366 -1307l392 1307h60l-413 -1365h-77z" />
    <glyph glyph-name="wgrave" unicode="&#x1e81;" horiz-adv-x="1394" 
d="M704 1104l-198 198l67 36l158 -219zM432 0h-73l-337 908h61l312 -859l265 859h74l265 -861l313 861h60l-336 -908h-73l-266 847z" />
    <glyph glyph-name="Wacute" unicode="&#x1e82;" horiz-adv-x="1786" 
d="M1017 1748l66 -36l-197 -198l-27 15zM1262 0l-369 1308l-370 -1308h-77l-412 1365h60l391 -1307l367 1307h82l366 -1307l392 1307h60l-413 -1365h-77z" />
    <glyph glyph-name="wacute" unicode="&#x1e83;" horiz-adv-x="1394" 
d="M760 1338l66 -36l-197 -198l-27 15zM432 0h-73l-337 908h61l312 -859l265 859h74l265 -861l313 861h60l-336 -908h-73l-266 847z" />
    <glyph glyph-name="Wdieresis" unicode="&#x1e84;" horiz-adv-x="1786" 
d="M1262 0l-369 1308l-370 -1308h-77l-412 1365h60l391 -1307l367 1307h82l366 -1307l392 1307h60l-413 -1365h-77zM1081 1671q21 0 36 -15.5t15 -36.5t-15 -36.5t-36 -15.5t-36 16t-15 37q0 20 15.5 35.5t35.5 15.5zM704 1671q21 0 36 -15.5t15 -36.5t-15 -36.5t-36 -15.5
t-36 16t-15 37q0 20 15.5 35.5t35.5 15.5z" />
    <glyph glyph-name="wdieresis" unicode="&#x1e85;" horiz-adv-x="1394" 
d="M432 0h-73l-337 908h61l312 -859l265 859h74l265 -861l313 861h60l-336 -908h-73l-266 847zM509 1256q21 0 36 -15t15 -37q0 -21 -15 -36.5t-36 -15.5t-36 16t-15 37q0 20 15.5 35.5t35.5 15.5zM885 1256q21 0 36 -15.5t15 -36.5t-15 -36.5t-36 -15.5t-36 16t-15 37
q0 20 15.5 35.5t35.5 15.5z" />
    <glyph glyph-name="uni1EA0" unicode="&#x1ea0;" horiz-adv-x="1236" 
d="M976 413h-717l-165 -413h-60l553 1365h62l553 -1365h-61zM618 1307l-337 -840h673zM618 -176q21 0 36 -15.5t15 -36.5t-15 -36.5t-36 -15.5t-36 16t-15 37q0 20 15.5 35.5t35.5 15.5z" />
    <glyph glyph-name="uni1EA1" unicode="&#x1ea1;" horiz-adv-x="1134" 
d="M984 908v-908h-55v208q-48 -72 -79 -103q-37 -37 -85 -64q-101 -59 -221 -59q-205 0 -338 154q-115 133 -115 318q0 214 149 354q127 118 304 118q120 0 221 -59q50 -28 85 -63q32 -32 79 -104v208h55zM536 873q-186 0 -301 -148q-85 -109 -85 -270q0 -189 116 -307
q113 -113 277 -113q193 0 306 149q83 110 83 274q0 183 -113 302q-110 113 -283 113zM562 -176q21 0 36 -15.5t15 -36.5t-15 -36.5t-36 -15.5t-36 16t-15 37q0 20 15.5 35.5t35.5 15.5z" />
    <glyph glyph-name="uni1EA2" unicode="&#x1ea2;" horiz-adv-x="1236" 
d="M667 1516h-50q2 6 11 18l18 28q24 38 35 62q7 15 7 38q0 70 -112 70q-21 0 -51 -6l-14 35q41 10 78 10q68 0 106.5 -26t38.5 -73q0 -37 -23 -77l-28 -50q-12 -19 -16 -29zM976 413h-717l-165 -413h-60l553 1365h62l553 -1365h-61zM618 1307l-337 -840h673z" />
    <glyph glyph-name="uni1EA3" unicode="&#x1ea3;" horiz-adv-x="1134" 
d="M984 908v-908h-55v208q-48 -72 -79 -103q-37 -37 -85 -64q-101 -59 -221 -59q-205 0 -338 154q-115 133 -115 318q0 214 149 354q127 118 304 118q120 0 221 -59q50 -28 85 -63q32 -32 79 -104v208h55zM536 873q-186 0 -301 -148q-85 -109 -85 -270q0 -189 116 -307
q113 -113 277 -113q193 0 306 149q83 110 83 274q0 183 -113 302q-110 113 -283 113zM606 1104h-50q2 4 11 19l18 28q41 67 41 100q0 70 -111 70q-24 0 -52 -7l-14 35q47 11 78 11q69 0 107 -26t38 -73q0 -41 -22 -78l-29 -50q-10 -17 -15 -29z" />
    <glyph glyph-name="uni1EA4" unicode="&#x1ea4;" horiz-adv-x="1236" 
d="M578 1735h81l188 -206l-34 -17l-195 184l-196 -184l-33 17zM976 413h-717l-165 -413h-60l553 1365h62l553 -1365h-61zM618 1307l-337 -840h673zM954 1860l66 -35l-197 -199l-28 16z" />
    <glyph glyph-name="uni1EA5" unicode="&#x1ea5;" horiz-adv-x="1134" 
d="M498 1292h81l188 -206l-33 -17l-196 184l-196 -184l-33 17zM939 1548l66 -36l-197 -198l-27 15zM984 908v-908h-55v208q-48 -72 -79 -103q-37 -37 -85 -64q-101 -59 -221 -59q-205 0 -338 154q-115 133 -115 318q0 214 149 354q127 118 304 118q120 0 221 -59
q50 -28 85 -63q32 -32 79 -104v208h55zM536 873q-186 0 -301 -148q-85 -109 -85 -270q0 -189 116 -307q113 -113 277 -113q193 0 306 149q83 110 83 274q0 183 -113 302q-110 113 -283 113z" />
    <glyph glyph-name="uni1EA6" unicode="&#x1ea6;" horiz-adv-x="1236" 
d="M813 1512l-195 184l-196 -184l-33 17l189 206h81l188 -206zM973 1626l-197 199l66 35l158 -218zM976 413h-717l-165 -413h-60l553 1365h62l553 -1365h-61zM618 1307l-337 -840h673z" />
    <glyph glyph-name="uni1EA7" unicode="&#x1ea7;" horiz-adv-x="1134" 
d="M805 1314l-198 198l66 36l159 -219zM734 1069l-196 184l-196 -184l-33 17l189 206h81l188 -206zM984 908v-908h-55v208q-48 -72 -79 -103q-37 -37 -85 -64q-101 -59 -221 -59q-205 0 -338 154q-115 133 -115 318q0 214 149 354q127 118 304 118q120 0 221 -59
q50 -28 85 -63q32 -32 79 -104v208h55zM536 873q-186 0 -301 -148q-85 -109 -85 -270q0 -189 116 -307q113 -113 277 -113q193 0 306 149q83 110 83 274q0 183 -113 302q-110 113 -283 113z" />
    <glyph glyph-name="uni1EA8" unicode="&#x1ea8;" horiz-adv-x="1236" 
d="M578 1735h81l188 -206l-34 -17l-195 184l-196 -184l-33 17zM976 413h-717l-165 -413h-60l553 1365h62l553 -1365h-61zM618 1307l-337 -840h673zM980 1616h-50q2 3 6 9.5t6 9.5l17 28q42 67 42 100q0 70 -112 70q-24 0 -51 -7l-14 36q41 10 78 10q68 0 106.5 -26t38.5 -73
q0 -38 -23 -78l-28 -50q-13 -23 -16 -29z" />
    <glyph glyph-name="uni1EA9" unicode="&#x1ea9;" horiz-adv-x="1134" 
d="M498 1292h81l188 -206l-33 -17l-196 184l-196 -184l-33 17zM984 908v-908h-55v208q-48 -72 -79 -103q-37 -37 -85 -64q-101 -59 -221 -59q-205 0 -338 154q-115 133 -115 318q0 214 149 354q127 118 304 118q120 0 221 -59q50 -28 85 -63q32 -32 79 -104v208h55zM536 873
q-186 0 -301 -148q-85 -109 -85 -270q0 -189 116 -307q113 -113 277 -113q193 0 306 149q83 110 83 274q0 183 -113 302q-110 113 -283 113zM839 1303h-50q2 4 11 19l18 28q24 38 35 62q7 15 7 38q0 70 -112 70q-24 0 -51 -7l-15 36q41 10 79 10q68 0 106.5 -26t38.5 -73
q0 -37 -23 -78l-29 -49q-10 -19 -15 -30z" />
    <glyph glyph-name="uni1EAA" unicode="&#x1eaa;" horiz-adv-x="1236" 
d="M813 1461l-195 184l-196 -184l-33 17l189 206h81l188 -206zM976 413h-717l-165 -413h-60l553 1365h62l553 -1365h-61zM618 1307l-337 -840h673zM812 1913l41 -10q-26 -104 -118 -104q-43 0 -122 36q-74 34 -105 34q-61 0 -84 -65l-40 10q29 104 117 104q39 0 126 -40
q66 -30 103 -30q62 0 82 65z" />
    <glyph glyph-name="uni1EAB" unicode="&#x1eab;" horiz-adv-x="1134" 
d="M733 1069l-195 184l-196 -184l-33 17l188 206h81l189 -206zM984 908v-908h-55v208q-48 -72 -79 -103q-37 -37 -85 -64q-101 -59 -221 -59q-205 0 -338 154q-115 133 -115 318q0 214 149 354q127 118 304 118q120 0 221 -59q50 -28 85 -63q32 -32 79 -104v208h55zM536 873
q-186 0 -301 -148q-85 -109 -85 -270q0 -189 116 -307q113 -113 277 -113q193 0 306 149q83 110 83 274q0 183 -113 302q-110 113 -283 113zM732 1559l40 -10q-26 -104 -118 -104q-43 0 -121 36q-74 34 -105 34q-61 0 -85 -65l-40 9q29 105 117 105q40 0 127 -40
q66 -30 103 -30q61 0 82 65z" />
    <glyph glyph-name="uni1EAC" unicode="&#x1eac;" horiz-adv-x="1236" 
d="M813 1512l-195 184l-196 -184l-33 17l189 206h81l188 -206zM976 413h-717l-165 -413h-60l553 1365h62l553 -1365h-61zM618 1307l-337 -840h673zM618 -176q21 0 36 -15.5t15 -36.5t-15 -36.5t-36 -15.5t-36 16t-15 37q0 20 15.5 35.5t35.5 15.5z" />
    <glyph glyph-name="uni1EAD" unicode="&#x1ead;" horiz-adv-x="1134" 
d="M734 1103l-196 184l-196 -184l-33 17l189 206h81l188 -206zM984 908v-908h-55v208q-48 -72 -79 -103q-37 -37 -85 -64q-101 -59 -221 -59q-205 0 -338 154q-115 133 -115 318q0 214 149 354q127 118 304 118q120 0 221 -59q50 -28 85 -63q32 -32 79 -104v208h55zM536 873
q-186 0 -301 -148q-85 -109 -85 -270q0 -189 116 -307q113 -113 277 -113q193 0 306 149q83 110 83 274q0 183 -113 302q-110 113 -283 113zM562 -176q21 0 36 -15.5t15 -36.5t-15 -36.5t-36 -15.5t-36 16t-15 37q0 20 15.5 35.5t35.5 15.5z" />
    <glyph glyph-name="uni1EAE" unicode="&#x1eae;" horiz-adv-x="1236" 
d="M390 1646l48 4q11 -67 60 -108.5t117 -41.5t116.5 40.5t63.5 110.5l48 -4q-15 -64 -50 -108q-69 -86 -177 -86q-112 0 -181 86q-34 42 -45 107zM736 1911l66 -35l-198 -198l-27 15zM976 413h-717l-165 -413h-60l553 1365h62l553 -1365h-61zM618 1307l-337 -840h673z" />
    <glyph glyph-name="uni1EAF" unicode="&#x1eaf;" horiz-adv-x="1134" 
d="M669 1548l67 -36l-198 -198l-27 15zM312 1254l49 4q11 -67 60 -109t117 -42q67 0 115.5 40.5t64.5 110.5l48 -4q-15 -64 -50 -108q-71 -86 -177 -86q-112 0 -181 86q-36 45 -46 108zM984 908v-908h-55v208q-48 -72 -79 -103q-37 -37 -85 -64q-101 -59 -221 -59
q-205 0 -338 154q-115 133 -115 318q0 214 149 354q127 118 304 118q120 0 221 -59q50 -28 85 -63q32 -32 79 -104v208h55zM536 873q-186 0 -301 -148q-85 -109 -85 -270q0 -189 116 -307q113 -113 277 -113q193 0 306 149q83 110 83 274q0 183 -113 302q-110 113 -283 113z
" />
    <glyph glyph-name="uni1EB0" unicode="&#x1eb0;" horiz-adv-x="1236" 
d="M390 1646l48 4q11 -67 60 -108.5t117 -41.5t116.5 40.5t63.5 110.5l48 -4q-15 -64 -50 -108q-69 -86 -177 -86q-112 0 -181 86q-34 42 -45 107zM622 1678l-198 198l67 35l158 -218zM976 413h-717l-165 -413h-60l553 1365h62l553 -1365h-61zM618 1307l-337 -840h673z" />
    <glyph glyph-name="uni1EB1" unicode="&#x1eb1;" horiz-adv-x="1134" 
d="M538 1314l-198 198l67 36l158 -219zM312 1254l49 4q11 -67 60 -109t117 -42q67 0 115.5 40.5t64.5 110.5l48 -4q-15 -64 -50 -108q-71 -86 -177 -86q-112 0 -181 86q-36 45 -46 108zM984 908v-908h-55v208q-48 -72 -79 -103q-37 -37 -85 -64q-101 -59 -221 -59
q-205 0 -338 154q-115 133 -115 318q0 214 149 354q127 118 304 118q120 0 221 -59q50 -28 85 -63q32 -32 79 -104v208h55zM536 873q-186 0 -301 -148q-85 -109 -85 -270q0 -189 116 -307q113 -113 277 -113q193 0 306 149q83 110 83 274q0 183 -113 302q-110 113 -283 113z
" />
    <glyph glyph-name="uni1EB2" unicode="&#x1eb2;" horiz-adv-x="1236" 
d="M390 1646l48 4q11 -67 60 -108.5t117 -41.5t116.5 40.5t63.5 110.5l48 -4q-15 -64 -50 -108q-69 -86 -177 -86q-112 0 -181 86q-34 42 -45 107zM976 413h-717l-165 -413h-60l553 1365h62l553 -1365h-61zM618 1307l-337 -840h673zM647 1667h-51q2 3 6 9.5t6 9.5l17 28
q42 67 42 100q0 70 -112 70q-24 0 -51 -7l-14 36q41 10 78 10q69 0 107 -26t38 -73q0 -40 -22 -78l-29 -49q-10 -19 -15 -30z" />
    <glyph glyph-name="uni1EB3" unicode="&#x1eb3;" horiz-adv-x="1134" 
d="M312 1254l49 4q11 -67 60 -109t117 -42q67 0 115.5 40.5t64.5 110.5l48 -4q-15 -64 -50 -108q-71 -86 -177 -86q-112 0 -181 86q-36 45 -46 108zM984 908v-908h-55v208q-48 -72 -79 -103q-37 -37 -85 -64q-101 -59 -221 -59q-205 0 -338 154q-115 133 -115 318
q0 214 149 354q127 118 304 118q120 0 221 -59q50 -28 85 -63q32 -32 79 -104v208h55zM536 873q-186 0 -301 -148q-85 -109 -85 -270q0 -189 116 -307q113 -113 277 -113q193 0 306 149q83 110 83 274q0 183 -113 302q-110 113 -283 113zM569 1303h-50q2 3 6 9.5t6 9.5
l17 28q42 68 42 100q0 70 -112 70q-24 0 -51 -7l-14 36q41 10 78 10q69 0 107 -26t38 -73q0 -37 -23 -78l-28 -49q-15 -29 -16 -30z" />
    <glyph glyph-name="uni1EB4" unicode="&#x1eb4;" horiz-adv-x="1236" 
d="M390 1646l48 4q11 -67 60 -108.5t117 -41.5t116.5 40.5t63.5 110.5l48 -4q-15 -64 -50 -108q-69 -86 -177 -86q-112 0 -181 86q-34 42 -45 107zM976 413h-717l-165 -413h-60l553 1365h62l553 -1365h-61zM618 1307l-337 -840h673zM812 1913l41 -10q-26 -104 -118 -104
q-43 0 -122 36q-74 34 -105 34q-61 0 -84 -65l-40 10q29 104 117 104q39 0 126 -40q66 -30 103 -30q62 0 82 65z" />
    <glyph glyph-name="uni1EB5" unicode="&#x1eb5;" horiz-adv-x="1134" 
d="M312 1254l48 4q11 -67 60.5 -109t116.5 -42q68 0 116.5 40.5t64.5 110.5l47 -4q-15 -64 -50 -108q-69 -86 -177 -86q-110 0 -181 86q-35 44 -45 108zM984 908v-908h-55v208q-48 -72 -79 -103q-37 -37 -85 -64q-101 -59 -221 -59q-205 0 -338 154q-115 133 -115 318
q0 214 149 354q127 118 304 118q120 0 221 -59q50 -28 85 -63q32 -32 79 -104v208h55zM536 873q-186 0 -301 -148q-85 -109 -85 -270q0 -189 116 -307q113 -113 277 -113q193 0 306 149q83 110 83 274q0 183 -113 302q-110 113 -283 113zM732 1549l40 -10
q-26 -104 -118 -104q-42 0 -121 36q-75 34 -105 34q-61 0 -85 -65l-40 10q29 104 117 104q40 0 127 -40q64 -30 103 -30q62 0 82 65z" />
    <glyph glyph-name="uni1EB6" unicode="&#x1eb6;" horiz-adv-x="1236" 
d="M390 1698l48 4q11 -68 60 -109.5t117 -41.5q67 0 116 41t64 110l48 -4q-15 -64 -50 -108q-71 -86 -177 -86q-112 0 -181 86q-35 42 -45 108zM976 413h-717l-165 -413h-60l553 1365h62l553 -1365h-61zM618 1307l-337 -840h673zM618 -176q21 0 36 -15.5t15 -36.5t-15 -36.5
t-36 -15.5t-36 16t-15 37q0 20 15.5 35.5t35.5 15.5z" />
    <glyph glyph-name="uni1EB7" unicode="&#x1eb7;" horiz-adv-x="1134" 
d="M309 1288l48 4q12 -67 61 -109t116 -42q68 0 116.5 40.5t64.5 110.5l47 -4q-15 -64 -50 -108q-69 -86 -177 -86q-110 0 -181 86q-34 44 -45 108zM984 908v-908h-55v208q-48 -72 -79 -103q-37 -37 -85 -64q-101 -59 -221 -59q-205 0 -338 154q-115 133 -115 318
q0 214 149 354q127 118 304 118q120 0 221 -59q50 -28 85 -63q32 -32 79 -104v208h55zM536 873q-186 0 -301 -148q-85 -109 -85 -270q0 -189 116 -307q113 -113 277 -113q193 0 306 149q83 110 83 274q0 183 -113 302q-110 113 -283 113zM562 -176q21 0 36 -15.5t15 -36.5
t-15 -36.5t-36 -15.5t-36 16t-15 37q0 20 15.5 35.5t35.5 15.5z" />
    <glyph glyph-name="uni1EB8" unicode="&#x1eb8;" horiz-adv-x="955" 
d="M826 1365v-53h-584v-592h520v-54h-520v-611h606v-55h-664v1365h642zM542 -176q21 0 36 -15.5t15 -36.5t-15 -36.5t-36 -15.5t-36 15.5t-15 37.5q0 20 15.5 35.5t35.5 15.5z" />
    <glyph glyph-name="uni1EB9" unicode="&#x1eb9;" horiz-adv-x="1025" 
d="M933 431h-784q5 -69 21 -124q34 -116 121 -189q100 -83 234 -83q201 0 321 165l52 -22q-145 -196 -371 -196q-201 0 -327 153q-109 133 -109 322q0 126 56 235q59 114 161 175q97 59 208 59q126 0 228 -72t150 -195q38 -93 39 -228zM149 479h728q-10 100 -36 166
q-32 83 -92 139q-98 89 -233 89q-155 0 -255 -109q-101 -109 -112 -285zM527 -176q21 0 36 -15.5t15 -36.5t-15 -36.5t-36 -15.5t-36 16t-15 37q0 20 15.5 35.5t35.5 15.5z" />
    <glyph glyph-name="uni1EBA" unicode="&#x1eba;" horiz-adv-x="955" 
d="M826 1365v-53h-584v-592h520v-54h-520v-611h606v-55h-664v1365h642zM561 1516h-50q2 6 11 18l18 28q24 38 35 62q7 15 7 38q0 70 -112 70q-21 0 -51 -6l-14 35q41 10 78 10q68 0 106.5 -26t38.5 -73q0 -37 -23 -77l-28 -50q-12 -19 -16 -29z" />
    <glyph glyph-name="uni1EBB" unicode="&#x1ebb;" horiz-adv-x="1025" 
d="M933 431h-784q5 -69 21 -124q34 -116 121 -189q100 -83 234 -83q201 0 321 165l52 -22q-145 -196 -371 -196q-201 0 -327 153q-109 133 -109 322q0 126 56 235q59 114 161 175q97 59 208 59q126 0 228 -72t150 -195q38 -93 39 -228zM149 479h728q-10 100 -36 166
q-32 83 -92 139q-98 89 -233 89q-155 0 -255 -109q-101 -109 -112 -285zM574 1104h-51q2 3 6 9.5t6 9.5l17 28q42 66 42 100q0 70 -111 70q-25 0 -52 -7l-14 35q47 11 78 11q69 0 107 -26t38 -73q0 -40 -22 -78l-29 -50q-10 -17 -15 -29z" />
    <glyph glyph-name="uni1EBC" unicode="&#x1ebc;" horiz-adv-x="955" 
d="M826 1365v-53h-584v-592h520v-54h-520v-611h606v-55h-664v1365h642zM671 1673l40 -9q-24 -104 -117 -104q-44 0 -122 36q-74 34 -105 34q-61 0 -84 -65l-41 9q28 105 118 105q40 0 126 -40q64 -30 103 -30q63 0 82 64z" />
    <glyph glyph-name="uni1EBD" unicode="&#x1ebd;" horiz-adv-x="1025" 
d="M933 431h-784q5 -69 21 -124q34 -116 121 -189q100 -83 234 -83q201 0 321 165l52 -22q-145 -196 -371 -196q-201 0 -327 153q-109 133 -109 322q0 126 56 235q59 114 161 175q97 59 208 59q126 0 228 -72t150 -195q38 -93 39 -228zM149 479h728q-10 100 -36 166
q-32 83 -92 139q-98 89 -233 89q-155 0 -255 -109q-101 -109 -112 -285zM706 1264l41 -10q-26 -104 -118 -104q-43 0 -122 36q-74 34 -104 34q-62 0 -85 -65l-40 10q29 104 117 104q40 0 126 -40q66 -30 104 -30q61 0 81 65z" />
    <glyph glyph-name="uni1EBE" unicode="&#x1ebe;" horiz-adv-x="955" 
d="M452 1735h81l188 -206l-33 -17l-196 184l-195 -184l-34 17zM826 1365v-53h-584v-592h520v-54h-520v-611h606v-55h-664v1365h642zM828 1860l66 -35l-197 -199l-27 16z" />
    <glyph glyph-name="uni1EBF" unicode="&#x1ebf;" horiz-adv-x="1025" 
d="M918 1548l66 -36l-197 -198l-28 15zM476 1292h81l189 -206l-34 -17l-195 184l-196 -184l-33 17zM933 431h-784q5 -69 21 -124q34 -116 121 -189q100 -83 234 -83q201 0 321 165l52 -22q-145 -196 -371 -196q-201 0 -327 153q-109 133 -109 322q0 126 56 235
q59 114 161 175q97 59 208 59q126 0 228 -72t150 -195q38 -93 39 -228zM149 479h728q-10 100 -36 166q-32 83 -92 139q-98 89 -233 89q-155 0 -255 -109q-101 -109 -112 -285z" />
    <glyph glyph-name="uni1EC0" unicode="&#x1ec0;" horiz-adv-x="955" 
d="M688 1512l-196 184l-195 -184l-34 17l189 206h81l188 -206zM848 1626l-198 199l66 35l159 -218zM826 1365v-53h-584v-592h520v-54h-520v-611h606v-55h-664v1365h642z" />
    <glyph glyph-name="uni1EC1" unicode="&#x1ec1;" horiz-adv-x="1025" 
d="M783 1314l-197 198l66 36l158 -219zM712 1069l-195 184l-196 -184l-33 17l188 206h81l189 -206zM933 431h-784q5 -69 21 -124q34 -116 121 -189q100 -83 234 -83q201 0 321 165l52 -22q-145 -196 -371 -196q-201 0 -327 153q-109 133 -109 322q0 126 56 235
q59 114 161 175q97 59 208 59q126 0 228 -72t150 -195q38 -93 39 -228zM149 479h728q-10 100 -36 166q-32 83 -92 139q-98 89 -233 89q-155 0 -255 -109q-101 -109 -112 -285z" />
    <glyph glyph-name="uni1EC2" unicode="&#x1ec2;" horiz-adv-x="955" 
d="M452 1735h81l188 -206l-33 -17l-196 184l-195 -184l-34 17zM826 1365v-53h-584v-592h520v-54h-520v-611h606v-55h-664v1365h642zM855 1616h-51q2 3 6 9.5t6 9.5l17 28q42 66 42 100q0 70 -111 70q-25 0 -52 -7l-14 36q41 10 78 10q69 0 107 -26t38 -73q0 -40 -22 -78
l-29 -50q-10 -17 -15 -29z" />
    <glyph glyph-name="uni1EC3" unicode="&#x1ec3;" horiz-adv-x="1025" 
d="M476 1292h81l189 -206l-34 -17l-195 184l-196 -184l-33 17zM933 431h-784q5 -69 21 -124q34 -116 121 -189q100 -83 234 -83q201 0 321 165l52 -22q-145 -196 -371 -196q-201 0 -327 153q-109 133 -109 322q0 126 56 235q59 114 161 175q97 59 208 59q126 0 228 -72
t150 -195q38 -93 39 -228zM149 479h728q-10 100 -36 166q-32 83 -92 139q-98 89 -233 89q-155 0 -255 -109q-101 -109 -112 -285zM818 1303h-51q2 3 6 9.5t6 9.5l17 28q42 68 42 100q0 70 -111 70q-24 0 -52 -7l-14 36q41 10 78 10q69 0 107 -26t38 -73q0 -40 -22 -78
l-29 -49q-11 -19 -15 -30z" />
    <glyph glyph-name="uni1EC4" unicode="&#x1ec4;" horiz-adv-x="955" 
d="M688 1461l-196 184l-195 -184l-34 17l189 206h81l188 -206zM826 1365v-53h-584v-592h520v-54h-520v-611h606v-55h-664v1365h642zM681 1913l40 -10q-26 -104 -117 -104q-42 0 -122 36q-74 34 -105 34q-61 0 -84 -65l-41 10q29 104 118 104q39 0 126 -40q64 -30 103 -30
q62 0 82 65z" />
    <glyph glyph-name="uni1EC5" unicode="&#x1ec5;" horiz-adv-x="1025" 
d="M712 1069l-195 184l-196 -184l-33 17l188 206h81l189 -206zM933 431h-784q5 -69 21 -124q34 -116 121 -189q100 -83 234 -83q201 0 321 165l52 -22q-145 -196 -371 -196q-201 0 -327 153q-109 133 -109 322q0 126 56 235q59 114 161 175q97 59 208 59q126 0 228 -72
t150 -195q38 -93 39 -228zM149 479h728q-10 100 -36 166q-32 83 -92 139q-98 89 -233 89q-155 0 -255 -109q-101 -109 -112 -285zM706 1549l41 -10q-26 -104 -118 -104q-43 0 -122 36q-74 34 -104 34q-62 0 -85 -65l-40 10q29 104 117 104q40 0 126 -40q66 -30 104 -30
q61 0 81 65z" />
    <glyph glyph-name="uni1EC6" unicode="&#x1ec6;" horiz-adv-x="955" 
d="M712 1512l-196 184l-195 -184l-34 17l189 206h81l188 -206zM826 1365v-53h-584v-592h520v-54h-520v-611h606v-55h-664v1365h642zM542 -176q21 0 36 -15.5t15 -36.5t-15 -36.5t-36 -15.5t-36 15.5t-15 37.5q0 20 15.5 35.5t35.5 15.5z" />
    <glyph glyph-name="uni1EC7" unicode="&#x1ec7;" horiz-adv-x="1025" 
d="M712 1103l-195 184l-196 -184l-33 17l188 206h81l189 -206zM933 431h-784q5 -69 21 -124q34 -116 121 -189q100 -83 234 -83q201 0 321 165l52 -22q-145 -196 -371 -196q-201 0 -327 153q-109 133 -109 322q0 126 56 235q59 114 161 175q97 59 208 59q126 0 228 -72
t150 -195q38 -93 39 -228zM149 479h728q-10 100 -36 166q-32 83 -92 139q-98 89 -233 89q-155 0 -255 -109q-101 -109 -112 -285zM527 -176q21 0 36 -15.5t15 -36.5t-15 -36.5t-36 -15.5t-36 16t-15 37q0 20 15.5 35.5t35.5 15.5z" />
    <glyph glyph-name="uni1EC8" unicode="&#x1ec8;" horiz-adv-x="427" 
d="M184 1365h58v-1365h-58v1365zM254 1516h-51q5 8 12 18l17 28q42 68 42 100q0 70 -111 70q-22 0 -52 -6l-14 35q43 10 78 10q69 0 107 -26t38 -73q0 -40 -22 -77l-29 -50q-13 -23 -15 -29z" />
    <glyph glyph-name="uni1EC9" unicode="&#x1ec9;" horiz-adv-x="354" 
d="M149 908h55v-908h-55v908zM222 1104h-51q2 3 6 9.5t6 9.5l17 28q42 66 42 100q0 70 -111 70q-24 0 -52 -7l-14 35q47 11 78 11q69 0 107 -26t38 -73q0 -40 -22 -78l-29 -50q-10 -17 -15 -29z" />
    <glyph glyph-name="uni1ECA" unicode="&#x1eca;" horiz-adv-x="427" 
d="M184 1365h58v-1365h-58v1365zM213 -176q21 0 36 -15.5t15 -36.5t-15 -36.5t-36 -15.5q-20 0 -35.5 16t-15.5 37q0 20 15.5 35.5t35.5 15.5z" />
    <glyph glyph-name="uni1ECB" unicode="&#x1ecb;" horiz-adv-x="354" 
d="M150 908h55v-908h-55v908zM177 1256q21 0 36 -15.5t15 -36.5t-15 -36.5t-36 -15.5q-20 0 -35.5 16t-15.5 37q0 20 15.5 35.5t35.5 15.5zM177 -176q21 0 36 -15.5t15 -36.5t-15 -36.5t-36 -15.5q-20 0 -35.5 16t-15.5 37q0 20 15.5 35.5t35.5 15.5z" />
    <glyph glyph-name="uni1ECC" unicode="&#x1ecc;" horiz-adv-x="1571" 
d="M785 1383q181 0 334 -93q162 -97 253 -258q92 -163 92 -350t-93 -350q-89 -158 -242 -251q-161 -99 -349 -99q-177 0 -339 99q-155 96 -242 251q-93 163 -93 361q0 181 93 339q99 168 252 258q157 93 334 93zM780 1328q-173 0 -319 -95q-145 -94 -225 -251
q-71 -140 -71 -311q0 -156 77 -301q81 -150 226 -241q151 -92 317 -92q168 0 317 92q147 91 226 241q77 145 77 312q0 272 -189 466q-178 180 -436 180zM785 -176q21 0 36 -15.5t15 -36.5t-15 -36.5t-36 -15.5t-36 15.5t-15 37.5q0 20 15.5 35.5t35.5 15.5z" />
    <glyph glyph-name="uni1ECD" unicode="&#x1ecd;" horiz-adv-x="1091" 
d="M553 926q198 0 331 -154q115 -133 115 -317q0 -215 -150 -355q-125 -118 -304 -118q-207 0 -339 154q-115 133 -115 323q0 209 149 349q127 118 313 118zM538 873q-186 0 -303 -148q-85 -109 -85 -270q0 -190 116 -306q112 -114 279 -114q195 0 310 148q85 109 85 275
q0 186 -116 302q-113 113 -286 113zM545 -176q21 0 36 -15.5t15 -36.5t-15 -36.5t-36 -15.5t-36 16t-15 37q0 20 15.5 35.5t35.5 15.5z" />
    <glyph glyph-name="uni1ECE" unicode="&#x1ece;" horiz-adv-x="1571" 
d="M785 1383q181 0 334 -93q162 -97 253 -258q92 -163 92 -350t-93 -350q-89 -158 -242 -251q-161 -99 -349 -99q-177 0 -339 99q-155 96 -242 251q-93 163 -93 361q0 181 93 339q99 168 252 258q157 93 334 93zM780 1328q-173 0 -319 -95q-145 -94 -225 -251
q-71 -140 -71 -311q0 -156 77 -301q81 -150 226 -241q151 -92 317 -92q168 0 317 92q147 91 226 241q77 145 77 312q0 272 -189 466q-178 180 -436 180zM830 1516h-50q2 6 11 18l18 28q24 38 35 62q7 15 7 38q0 70 -112 70q-22 0 -52 -6l-14 35q43 10 79 10q68 0 106.5 -26
t38.5 -73q0 -36 -23 -77l-29 -50q-13 -23 -15 -29z" />
    <glyph glyph-name="uni1ECF" unicode="&#x1ecf;" horiz-adv-x="1091" 
d="M553 926q198 0 331 -154q115 -133 115 -317q0 -215 -150 -355q-125 -118 -304 -118q-207 0 -339 154q-115 133 -115 323q0 209 149 349q127 118 313 118zM538 873q-186 0 -303 -148q-85 -109 -85 -270q0 -190 116 -306q112 -114 279 -114q195 0 310 148q85 109 85 275
q0 186 -116 302q-113 113 -286 113zM590 1104h-50q2 4 11 19l18 28q42 67 42 100q0 70 -112 70q-24 0 -51 -7l-15 35q47 11 79 11q68 0 106.5 -26.5t38.5 -72.5q0 -37 -23 -78l-28 -50q-10 -15 -16 -29z" />
    <glyph glyph-name="uni1ED0" unicode="&#x1ed0;" horiz-adv-x="1571" 
d="M745 1735h81l188 -206l-33 -17l-195 184l-196 -184l-33 17zM785 1383q181 0 334 -93q162 -97 253 -258q92 -163 92 -350t-93 -350q-89 -158 -242 -251q-161 -99 -349 -99q-177 0 -339 99q-155 96 -242 251q-93 163 -93 361q0 181 93 339q99 168 252 258q157 93 334 93z
M780 1328q-173 0 -319 -95q-145 -94 -225 -251q-71 -140 -71 -311q0 -156 77 -301q81 -150 226 -241q151 -92 317 -92q168 0 317 92q147 91 226 241q77 145 77 312q0 272 -189 466q-178 180 -436 180zM1122 1860l66 -35l-198 -199l-27 16z" />
    <glyph glyph-name="uni1ED1" unicode="&#x1ed1;" horiz-adv-x="1091" 
d="M946 1548l66 -36l-197 -198l-27 15zM505 1292h81l188 -206l-34 -17l-195 184l-196 -184l-33 17zM553 926q198 0 331 -154q115 -133 115 -317q0 -215 -150 -355q-125 -118 -304 -118q-207 0 -339 154q-115 133 -115 323q0 209 149 349q127 118 313 118zM538 873
q-186 0 -303 -148q-85 -109 -85 -270q0 -190 116 -306q112 -114 279 -114q195 0 310 148q85 109 85 275q0 186 -116 302q-113 113 -286 113z" />
    <glyph glyph-name="uni1ED2" unicode="&#x1ed2;" horiz-adv-x="1571" 
d="M981 1512l-195 184l-196 -184l-33 17l188 206h81l188 -206zM1141 1626l-198 199l66 35l159 -218zM785 1383q181 0 334 -93q162 -97 253 -258q92 -163 92 -350t-93 -350q-89 -158 -242 -251q-161 -99 -349 -99q-177 0 -339 99q-155 96 -242 251q-93 163 -93 361
q0 181 93 339q99 168 252 258q157 93 334 93zM780 1328q-173 0 -319 -95q-145 -94 -225 -251q-71 -140 -71 -311q0 -156 77 -301q81 -150 226 -241q151 -92 317 -92q168 0 317 92q147 91 226 241q77 145 77 312q0 272 -189 466q-178 180 -436 180z" />
    <glyph glyph-name="uni1ED3" unicode="&#x1ed3;" horiz-adv-x="1091" 
d="M811 1314l-197 198l66 36l159 -219zM740 1069l-195 184l-196 -184l-33 17l189 206h81l188 -206zM553 926q198 0 331 -154q115 -133 115 -317q0 -215 -150 -355q-125 -118 -304 -118q-207 0 -339 154q-115 133 -115 323q0 209 149 349q127 118 313 118zM538 873
q-186 0 -303 -148q-85 -109 -85 -270q0 -190 116 -306q112 -114 279 -114q195 0 310 148q85 109 85 275q0 186 -116 302q-113 113 -286 113z" />
    <glyph glyph-name="uni1ED4" unicode="&#x1ed4;" horiz-adv-x="1571" 
d="M745 1735h81l188 -206l-33 -17l-195 184l-196 -184l-33 17zM785 1383q181 0 334 -93q162 -97 253 -258q92 -163 92 -350t-93 -350q-89 -158 -242 -251q-161 -99 -349 -99q-177 0 -339 99q-155 96 -242 251q-93 163 -93 361q0 181 93 339q99 168 252 258q157 93 334 93z
M780 1328q-173 0 -319 -95q-145 -94 -225 -251q-71 -140 -71 -311q0 -156 77 -301q81 -150 226 -241q151 -92 317 -92q168 0 317 92q147 91 226 241q77 145 77 312q0 272 -189 466q-178 180 -436 180zM1148 1616h-50q2 4 11 19l18 28q24 38 35 62q7 15 7 38q0 70 -112 70
q-25 0 -52 -7l-14 36q41 10 79 10q68 0 106.5 -26t38.5 -73q0 -37 -23 -78l-29 -50q-10 -17 -15 -29z" />
    <glyph glyph-name="uni1ED5" unicode="&#x1ed5;" horiz-adv-x="1091" 
d="M505 1292h81l188 -206l-34 -17l-195 184l-196 -184l-33 17zM553 926q198 0 331 -154q115 -133 115 -317q0 -215 -150 -355q-125 -118 -304 -118q-207 0 -339 154q-115 133 -115 323q0 209 149 349q127 118 313 118zM538 873q-186 0 -303 -148q-85 -109 -85 -270
q0 -190 116 -306q112 -114 279 -114q195 0 310 148q85 109 85 275q0 186 -116 302q-113 113 -286 113zM846 1303h-50q2 4 11 19l18 28q24 38 35 62q7 15 7 38q0 70 -112 70q-24 0 -52 -7l-14 36q41 10 79 10q68 0 106.5 -26t38.5 -73q0 -37 -23 -78l-29 -49q-11 -19 -15 -30
z" />
    <glyph glyph-name="uni1ED6" unicode="&#x1ed6;" horiz-adv-x="1571" 
d="M981 1461l-195 184l-196 -184l-33 17l188 206h81l188 -206zM785 1383q181 0 334 -93q162 -97 253 -258q92 -163 92 -350t-93 -350q-89 -158 -242 -251q-161 -99 -349 -99q-177 0 -339 99q-155 96 -242 251q-93 163 -93 361q0 181 93 339q99 168 252 258q157 93 334 93z
M780 1328q-173 0 -319 -95q-145 -94 -225 -251q-71 -140 -71 -311q0 -156 77 -301q81 -150 226 -241q151 -92 317 -92q168 0 317 92q147 91 226 241q77 145 77 312q0 272 -189 466q-178 180 -436 180zM979 1916l40 -9q-24 -104 -117 -104q-41 0 -122 35q-75 34 -105 34
q-61 0 -84 -65l-41 10q29 104 118 104q39 0 126 -40q67 -29 103 -29q63 0 82 64z" />
    <glyph glyph-name="uni1ED7" unicode="&#x1ed7;" horiz-adv-x="1091" 
d="M740 1069l-195 184l-196 -184l-33 17l189 206h81l188 -206zM553 926q198 0 331 -154q115 -133 115 -317q0 -215 -150 -355q-125 -118 -304 -118q-207 0 -339 154q-115 133 -115 323q0 209 149 349q127 118 313 118zM538 873q-186 0 -303 -148q-85 -109 -85 -270
q0 -190 116 -306q112 -114 279 -114q195 0 310 148q85 109 85 275q0 186 -116 302q-113 113 -286 113zM739 1555l41 -9q-26 -104 -118 -104q-42 0 -122 36q-74 34 -105 34q-61 0 -84 -65l-40 9q29 105 117 105q40 0 126 -40q66 -30 103 -30q63 0 82 64z" />
    <glyph glyph-name="uni1ED8" unicode="&#x1ed8;" horiz-adv-x="1571" 
d="M981 1512l-195 184l-196 -184l-33 17l188 206h81l188 -206zM785 1383q181 0 334 -93q162 -97 253 -258q92 -163 92 -350t-93 -350q-89 -158 -242 -251q-161 -99 -349 -99q-177 0 -339 99q-155 96 -242 251q-93 163 -93 361q0 181 93 339q99 168 252 258q157 93 334 93z
M780 1328q-173 0 -319 -95q-145 -94 -225 -251q-71 -140 -71 -311q0 -156 77 -301q81 -150 226 -241q151 -92 317 -92q168 0 317 92q147 91 226 241q77 145 77 312q0 272 -189 466q-178 180 -436 180zM785 -176q21 0 36 -15.5t15 -36.5t-15 -36.5t-36 -15.5t-36 15.5
t-15 37.5q0 20 15.5 35.5t35.5 15.5z" />
    <glyph glyph-name="uni1ED9" unicode="&#x1ed9;" horiz-adv-x="1091" 
d="M740 1103l-195 184l-196 -184l-33 17l189 206h81l188 -206zM553 926q198 0 331 -154q115 -133 115 -317q0 -215 -150 -355q-125 -118 -304 -118q-207 0 -339 154q-115 133 -115 323q0 209 149 349q127 118 313 118zM538 873q-186 0 -303 -148q-85 -109 -85 -270
q0 -190 116 -306q112 -114 279 -114q195 0 310 148q85 109 85 275q0 186 -116 302q-113 113 -286 113zM545 -176q21 0 36 -15.5t15 -36.5t-15 -36.5t-36 -15.5t-36 16t-15 37q0 20 15.5 35.5t35.5 15.5z" />
    <glyph glyph-name="uni1EDA" unicode="&#x1eda;" horiz-adv-x="1550" 
d="M910 1748l66 -36l-197 -198l-27 15zM1303 1132q72 42 100.5 81t28.5 98q0 76 -65 146l44 22q72 -69 72 -171q0 -66 -32 -115q-31 -47 -116 -104q129 -181 129 -409q0 -186 -93 -349q-88 -156 -242 -250q-161 -99 -343 -99q-183 0 -345 99q-153 93 -242 251
q-93 163 -93 350q0 186 92 350q93 164 253 258q157 93 334 93q255 0 448 -177q38 -36 70 -74zM780 1328q-173 0 -319 -95q-145 -94 -225 -251q-71 -140 -71 -311q0 -156 77 -301q81 -150 226 -241q151 -92 317 -92q168 0 317 92q147 91 226 241q77 145 77 312
q0 272 -189 466q-178 180 -436 180z" />
    <glyph glyph-name="uni1EDB" unicode="&#x1edb;" horiz-adv-x="1139" 
d="M640 1338l66 -36l-197 -198l-27 15zM937 696q96 62 96 158q0 78 -66 147l44 21q73 -67 73 -170q0 -116 -124 -203q39 -93 39 -194q0 -215 -150 -355q-125 -118 -304 -118q-206 0 -339 154q-115 133 -115 319q0 213 149 353q127 118 305 118q202 0 334 -148q32 -37 58 -82
zM538 873q-186 0 -303 -148q-85 -109 -85 -270q0 -190 116 -306q112 -114 279 -114q195 0 310 148q85 109 85 275q0 186 -116 302q-113 113 -286 113z" />
    <glyph glyph-name="uni1EDC" unicode="&#x1edc;" horiz-adv-x="1550" 
d="M792 1514l-197 198l66 36l158 -219zM1303 1132q72 42 100.5 81t28.5 98q0 76 -65 146l44 22q72 -69 72 -171q0 -66 -32 -115q-31 -47 -116 -104q129 -181 129 -409q0 -186 -93 -349q-88 -156 -242 -250q-161 -99 -343 -99q-183 0 -345 99q-153 93 -242 251
q-93 163 -93 350q0 186 92 350q93 164 253 258q157 93 334 93q255 0 448 -177q38 -36 70 -74zM780 1328q-173 0 -319 -95q-145 -94 -225 -251q-71 -140 -71 -311q0 -156 77 -301q81 -150 226 -241q151 -92 317 -92q168 0 317 92q147 91 226 241q77 145 77 312
q0 272 -189 466q-178 180 -436 180z" />
    <glyph glyph-name="uni1EDD" unicode="&#x1edd;" horiz-adv-x="1139" 
d="M552 1104l-198 198l66 36l159 -219zM937 696q96 62 96 158q0 78 -66 147l44 21q73 -67 73 -170q0 -116 -124 -203q39 -93 39 -194q0 -215 -150 -355q-125 -118 -304 -118q-206 0 -339 154q-115 133 -115 319q0 213 149 353q127 118 305 118q202 0 334 -148q32 -37 58 -82
zM538 873q-186 0 -303 -148q-85 -109 -85 -270q0 -190 116 -306q112 -114 279 -114q195 0 310 148q85 109 85 275q0 186 -116 302q-113 113 -286 113z" />
    <glyph glyph-name="uni1EDE" unicode="&#x1ede;" horiz-adv-x="1550" 
d="M1303 1132q72 42 100.5 81t28.5 98q0 76 -65 146l44 22q72 -69 72 -171q0 -66 -32 -115q-31 -47 -116 -104q129 -181 129 -409q0 -186 -93 -349q-88 -156 -242 -250q-161 -99 -343 -99q-183 0 -345 99q-153 93 -242 251q-93 163 -93 350q0 186 92 350q93 164 253 258
q157 93 334 93q255 0 448 -177q38 -36 70 -74zM780 1328q-173 0 -319 -95q-145 -94 -225 -251q-71 -140 -71 -311q0 -156 77 -301q81 -150 226 -241q151 -92 317 -92q168 0 317 92q147 91 226 241q77 145 77 312q0 272 -189 466q-178 180 -436 180zM840 1516h-51q5 8 12 18
l17 28q42 68 42 100q0 70 -111 70q-22 0 -52 -6l-14 35q43 10 78 10q69 0 107 -26t38 -73q0 -40 -22 -77l-29 -50q-13 -23 -15 -29z" />
    <glyph glyph-name="uni1EDF" unicode="&#x1edf;" horiz-adv-x="1139" 
d="M937 696q96 62 96 158q0 78 -66 147l44 21q73 -67 73 -170q0 -116 -124 -203q39 -93 39 -194q0 -215 -150 -355q-125 -118 -304 -118q-206 0 -339 154q-115 133 -115 319q0 213 149 353q127 118 305 118q202 0 334 -148q32 -37 58 -82zM538 873q-186 0 -303 -148
q-85 -109 -85 -270q0 -190 116 -306q112 -114 279 -114q195 0 310 148q85 109 85 275q0 186 -116 302q-113 113 -286 113zM606 1104h-50q1 2 4.5 8t6.5 11l18 28q42 67 42 100q0 70 -112 70q-24 0 -51 -7l-14 35q46 11 78 11q68 0 106.5 -26t38.5 -73q0 -37 -23 -78l-28 -50
q-10 -15 -16 -29z" />
    <glyph glyph-name="uni1EE0" unicode="&#x1ee0;" horiz-adv-x="1550" 
d="M1303 1132q72 42 100.5 81t28.5 98q0 76 -65 146l44 22q72 -69 72 -171q0 -66 -32 -115q-31 -47 -116 -104q129 -181 129 -409q0 -186 -93 -349q-88 -156 -242 -250q-161 -99 -343 -99q-183 0 -345 99q-153 93 -242 251q-93 163 -93 350q0 186 92 350q93 164 253 258
q157 93 334 93q255 0 448 -177q38 -36 70 -74zM780 1328q-173 0 -319 -95q-145 -94 -225 -251q-71 -140 -71 -311q0 -156 77 -301q81 -150 226 -241q151 -92 317 -92q168 0 317 92q147 91 226 241q77 145 77 312q0 272 -189 466q-178 180 -436 180zM989 1673l40 -9
q-24 -104 -117 -104q-44 0 -122 36q-74 34 -105 34q-61 0 -84 -65l-41 9q28 105 118 105q39 0 126 -40q64 -30 103 -30q63 0 82 64z" />
    <glyph glyph-name="uni1EE1" unicode="&#x1ee1;" horiz-adv-x="1139" 
d="M937 696q96 62 96 158q0 78 -66 147l44 21q73 -67 73 -170q0 -116 -124 -203q39 -93 39 -194q0 -215 -150 -355q-125 -118 -304 -118q-206 0 -339 154q-115 133 -115 319q0 213 149 353q127 118 305 118q202 0 334 -148q32 -37 58 -82zM538 873q-186 0 -303 -148
q-85 -109 -85 -270q0 -190 116 -306q112 -114 279 -114q195 0 310 148q85 109 85 275q0 186 -116 302q-113 113 -286 113zM729 1264l40 -10q-24 -104 -117 -104q-44 0 -122 36q-74 34 -105 34q-61 0 -84 -65l-41 10q29 104 118 104q40 0 126 -40q64 -30 103 -30q62 0 82 65z
" />
    <glyph glyph-name="uni1EE2" unicode="&#x1ee2;" horiz-adv-x="1550" 
d="M1303 1132q72 42 100.5 81t28.5 98q0 76 -65 146l44 22q72 -69 72 -171q0 -66 -32 -115q-31 -47 -116 -104q129 -181 129 -409q0 -186 -93 -349q-88 -156 -242 -250q-161 -99 -343 -99q-183 0 -345 99q-153 93 -242 251q-93 163 -93 350q0 186 92 350q93 164 253 258
q157 93 334 93q255 0 448 -177q38 -36 70 -74zM780 1328q-173 0 -319 -95q-145 -94 -225 -251q-71 -140 -71 -311q0 -156 77 -301q81 -150 226 -241q151 -92 317 -92q168 0 317 92q147 91 226 241q77 145 77 312q0 272 -189 466q-178 180 -436 180zM785 -176q21 0 36 -15.5
t15 -36.5t-15 -36.5t-36 -15.5t-36 15.5t-15 37.5q0 20 15.5 35.5t35.5 15.5z" />
    <glyph glyph-name="uni1EE3" unicode="&#x1ee3;" horiz-adv-x="1139" 
d="M937 696q96 62 96 158q0 78 -66 147l44 21q73 -67 73 -170q0 -116 -124 -203q39 -93 39 -194q0 -215 -150 -355q-125 -118 -304 -118q-206 0 -339 154q-115 133 -115 319q0 213 149 353q127 118 305 118q202 0 334 -148q32 -37 58 -82zM538 873q-186 0 -303 -148
q-85 -109 -85 -270q0 -190 116 -306q112 -114 279 -114q195 0 310 148q85 109 85 275q0 186 -116 302q-113 113 -286 113zM545 -176q21 0 36 -15.5t15 -36.5t-15 -36.5t-36 -15.5t-36 16t-15 37q0 20 15.5 35.5t35.5 15.5z" />
    <glyph glyph-name="uni1EE4" unicode="&#x1ee4;" horiz-adv-x="1298" 
d="M184 1365h58v-850q0 -119 12 -183t45 -117q47 -77 142 -127q97 -51 208 -51q153 0 272 93q79 62 107 142t28 243v850h58v-895q0 -109 -19 -178q-20 -73 -65 -131q-67 -87 -172 -134q-100 -45 -209 -45q-158 0 -286 89q-97 67 -138 159q-41 93 -41 240v895zM649 -176
q21 0 36 -15.5t15 -36.5t-15 -36.5t-36 -15.5t-36 16t-15 37q0 20 15.5 35.5t35.5 15.5z" />
    <glyph glyph-name="uni1EE5" unicode="&#x1ee5;" horiz-adv-x="1045" 
d="M841 0v171q-106 -189 -337 -189q-168 0 -265 109q-47 52 -68 127.5t-21 194.5v495h55v-477q0 -118 18 -187t62 -116q85 -93 224 -93q167 0 259 113q41 50 57 118q16 67 16 188v454h55v-908h-55zM523 -176q21 0 36 -15t15 -37q0 -21 -15 -36.5t-36 -15.5t-36 16t-15 37
q0 20 15.5 35.5t35.5 15.5z" />
    <glyph glyph-name="uni1EE6" unicode="&#x1ee6;" horiz-adv-x="1298" 
d="M184 1365h58v-850q0 -119 12 -183t45 -117q47 -77 142 -127q97 -51 208 -51q153 0 272 93q79 62 107 142t28 243v850h58v-895q0 -109 -19 -178q-20 -73 -65 -131q-67 -87 -172 -134q-100 -45 -209 -45q-158 0 -286 89q-97 67 -138 159q-41 93 -41 240v895zM694 1516h-50
q2 6 11 18l18 28q26 43 35 62q7 15 7 38q0 70 -112 70q-23 0 -51 -6l-15 35q43 10 79 10q68 0 106.5 -26t38.5 -73q0 -36 -23 -77l-28 -50q-12 -19 -16 -29z" />
    <glyph glyph-name="uni1EE7" unicode="&#x1ee7;" horiz-adv-x="1045" 
d="M841 0v171q-106 -189 -337 -189q-168 0 -265 109q-47 52 -68 127.5t-21 194.5v495h55v-477q0 -118 18 -187t62 -116q85 -93 224 -93q167 0 259 113q41 50 57 118q16 67 16 188v454h55v-908h-55zM568 1104h-50q2 4 11 19l18 28q42 67 42 100q0 70 -112 70q-24 0 -51 -7
l-15 35q47 11 79 11q68 0 106.5 -26t38.5 -73q0 -37 -23 -78l-28 -50q-10 -15 -16 -29z" />
    <glyph glyph-name="uni1EE8" unicode="&#x1ee8;" horiz-adv-x="1344" 
d="M774 1748l66 -36l-198 -198l-27 15zM1114 1365v-246q72 43 95 64q56 51 56 128q0 76 -65 147l44 21q72 -69 72 -170q0 -86 -62 -151q-30 -31 -140 -97v-590q0 -110 -19 -179q-20 -73 -65 -131q-67 -87 -172 -134q-100 -45 -209 -45q-158 0 -286 89q-97 67 -138 159
q-41 93 -41 241v894h58v-850q0 -119 12 -183t45 -117q47 -77 142 -127q97 -51 208 -51q153 0 272 93q78 61 107 142q28 80 28 243v850h58z" />
    <glyph glyph-name="uni1EE9" unicode="&#x1ee9;" horiz-adv-x="1145" 
d="M638 1338l66 -36l-198 -198l-27 15zM896 908v-242q69 41 88 59q56 51 56 128t-65 147l43 22q73 -69 73 -170q0 -75 -41 -127q-40 -50 -154 -117v-608h-55v171q-106 -189 -337 -189q-168 0 -265 109q-47 52 -68 127.5t-21 194.5v495h55v-477q0 -118 18 -187t62 -116
q85 -93 224 -93q167 0 259 113q41 50 57 118q16 67 16 188v454h55z" />
    <glyph glyph-name="uni1EEA" unicode="&#x1eea;" horiz-adv-x="1344" 
d="M656 1514l-198 198l66 36l159 -219zM1114 1365v-246q72 43 95 64q56 51 56 128q0 76 -65 147l44 21q72 -69 72 -170q0 -86 -62 -151q-30 -31 -140 -97v-590q0 -110 -19 -179q-20 -73 -65 -131q-67 -87 -172 -134q-100 -45 -209 -45q-158 0 -286 89q-97 67 -138 159
q-41 93 -41 241v894h58v-850q0 -119 12 -183t45 -117q47 -77 142 -127q97 -51 208 -51q153 0 272 93q78 61 107 142q28 80 28 243v850h58z" />
    <glyph glyph-name="uni1EEB" unicode="&#x1eeb;" horiz-adv-x="1145" 
d="M520 1104l-198 198l66 36l159 -219zM896 908v-242q69 41 88 59q56 51 56 128t-65 147l43 22q73 -69 73 -170q0 -75 -41 -127q-40 -50 -154 -117v-608h-55v171q-106 -189 -337 -189q-168 0 -265 109q-47 52 -68 127.5t-21 194.5v495h55v-477q0 -118 18 -187t62 -116
q85 -93 224 -93q167 0 259 113q41 50 57 118q16 67 16 188v454h55z" />
    <glyph glyph-name="uni1EEC" unicode="&#x1eec;" horiz-adv-x="1344" 
d="M1114 1365v-246q72 43 95 64q56 51 56 128q0 76 -65 147l44 21q72 -69 72 -170q0 -86 -62 -151q-30 -31 -140 -97v-590q0 -110 -19 -179q-20 -73 -65 -131q-67 -87 -172 -134q-100 -45 -209 -45q-158 0 -286 89q-97 67 -138 159q-41 93 -41 241v894h58v-850
q0 -119 12 -183t45 -117q47 -77 142 -127q97 -51 208 -51q153 0 272 93q78 61 107 142q28 80 28 243v850h58zM716 1516h-50q4 8 12 18l17 28q42 68 42 100q0 70 -112 70q-21 0 -51 -6l-14 35q41 10 78 10q68 0 106.5 -26t38.5 -73q0 -37 -23 -77l-28 -50q-3 -5 -8.5 -15
t-7.5 -14z" />
    <glyph glyph-name="uni1EED" unicode="&#x1eed;" horiz-adv-x="1145" 
d="M896 908v-242q69 41 88 59q56 51 56 128t-65 147l43 22q73 -69 73 -170q0 -75 -41 -127q-40 -50 -154 -117v-608h-55v171q-106 -189 -337 -189q-168 0 -265 109q-47 52 -68 127.5t-21 194.5v495h55v-477q0 -118 18 -187t62 -116q85 -93 224 -93q167 0 259 113
q41 50 57 118q16 67 16 188v454h55zM567 1104h-50q2 4 11 19l18 28q24 38 35 62q7 15 7 38q0 70 -112 70q-24 0 -51 -7l-15 35q47 11 79 11q68 0 106.5 -26t38.5 -73q0 -37 -23 -78l-28 -50q-10 -15 -16 -29z" />
    <glyph glyph-name="uni1EEE" unicode="&#x1eee;" horiz-adv-x="1344" 
d="M1114 1365v-246q72 43 95 64q56 51 56 128q0 76 -65 147l44 21q72 -69 72 -170q0 -86 -62 -151q-30 -31 -140 -97v-590q0 -110 -19 -179q-20 -73 -65 -131q-67 -87 -172 -134q-100 -45 -209 -45q-158 0 -286 89q-97 67 -138 159q-41 93 -41 241v894h58v-850
q0 -119 12 -183t45 -117q47 -77 142 -127q97 -51 208 -51q153 0 272 93q78 61 107 142q28 80 28 243v850h58zM852 1673l41 -9q-26 -104 -118 -104q-43 0 -122 36q-74 34 -104 34q-62 0 -85 -65l-40 9q28 105 117 105q40 0 126 -40q66 -30 104 -30q62 0 81 64z" />
    <glyph glyph-name="uni1EEF" unicode="&#x1eef;" horiz-adv-x="1145" 
d="M896 908v-242q69 41 88 59q56 51 56 128t-65 147l43 22q73 -69 73 -170q0 -75 -41 -127q-40 -50 -154 -117v-608h-55v171q-106 -189 -337 -189q-168 0 -265 109q-47 52 -68 127.5t-21 194.5v495h55v-477q0 -118 18 -187t62 -116q85 -93 224 -93q167 0 259 113
q41 50 57 118q16 67 16 188v454h55zM718 1264l40 -10q-26 -104 -117 -104q-44 0 -122 36q-75 34 -105 34q-61 0 -84 -65l-41 10q29 104 118 104q39 0 126 -40q65 -30 103 -30q62 0 82 65z" />
    <glyph glyph-name="uni1EF0" unicode="&#x1ef0;" horiz-adv-x="1344" 
d="M1114 1365v-246q72 43 95 64q56 51 56 128q0 76 -65 147l44 21q72 -69 72 -170q0 -86 -62 -151q-30 -31 -140 -97v-590q0 -110 -19 -179q-20 -73 -65 -131q-67 -87 -172 -134q-100 -45 -209 -45q-158 0 -286 89q-97 67 -138 159q-41 93 -41 241v894h58v-850
q0 -119 12 -183t45 -117q47 -77 142 -127q97 -51 208 -51q153 0 272 93q78 61 107 142q28 80 28 243v850h58zM649 -176q21 0 36 -15.5t15 -36.5t-15 -36.5t-36 -15.5t-36 16t-15 37q0 20 15.5 35.5t35.5 15.5z" />
    <glyph glyph-name="uni1EF1" unicode="&#x1ef1;" horiz-adv-x="1145" 
d="M896 908v-242q69 41 88 59q56 51 56 128t-65 147l43 22q73 -69 73 -170q0 -75 -41 -127q-40 -50 -154 -117v-608h-55v171q-106 -189 -337 -189q-168 0 -265 109q-47 52 -68 127.5t-21 194.5v495h55v-477q0 -118 18 -187t62 -116q85 -93 224 -93q167 0 259 113
q41 50 57 118q16 67 16 188v454h55zM504 -176q21 0 36 -15.5t15 -36.5t-15 -36.5t-36 -15.5t-36 16t-15 37q0 20 15.5 35.5t35.5 15.5z" />
    <glyph glyph-name="Ygrave" unicode="&#x1ef2;" horiz-adv-x="966" 
d="M503 1514l-197 198l66 36l158 -219zM453 0v575l-433 790h63l399 -735l400 735h62l-433 -790v-575h-58z" />
    <glyph glyph-name="ygrave" unicode="&#x1ef3;" horiz-adv-x="863" 
d="M452 1104l-197 198l66 36l158 -219zM187 -478l210 492l-375 894h62l342 -828l354 828h61l-598 -1386h-56z" />
    <glyph glyph-name="uni1EF4" unicode="&#x1ef4;" horiz-adv-x="966" 
d="M453 0v575l-433 790h63l399 -735l400 735h62l-433 -790v-575h-58zM482 -176q21 0 36 -15.5t15 -36.5t-15 -36.5t-36 -15.5t-36 16t-15 37q0 20 15.5 35.5t35.5 15.5z" />
    <glyph glyph-name="uni1EF5" unicode="&#x1ef5;" horiz-adv-x="863" 
d="M187 -478l210 492l-375 894h62l342 -828l354 828h61l-598 -1386h-56zM635 -176q21 0 36 -15.5t15 -36.5t-15 -36.5t-36 -15.5t-36 16t-15 37q0 20 15.5 35.5t35.5 15.5z" />
    <glyph glyph-name="uni1EF6" unicode="&#x1ef6;" horiz-adv-x="966" 
d="M453 0v575l-433 790h63l399 -735l400 735h62l-433 -790v-575h-58zM528 1516h-51q5 8 12 18l17 28q42 68 42 100q0 70 -112 70q-21 0 -51 -6l-14 35q43 10 78 10q68 0 106.5 -26t38.5 -73q0 -39 -22 -77l-29 -50q-13 -23 -15 -29z" />
    <glyph glyph-name="uni1EF7" unicode="&#x1ef7;" horiz-adv-x="863" 
d="M187 -478l210 492l-375 894h62l342 -828l354 828h61l-598 -1386h-56zM477 1104h-51q2 3 6 9.5t6 9.5l17 28q42 66 42 100q0 70 -111 70q-25 0 -52 -7l-14 35q47 11 78 11q69 0 107 -26t38 -73q0 -40 -22 -78l-29 -50q-10 -17 -15 -29z" />
    <glyph glyph-name="uni1EF8" unicode="&#x1ef8;" horiz-adv-x="966" 
d="M453 0v575l-433 790h63l399 -735l400 735h62l-433 -790v-575h-58zM677 1673l40 -9q-26 -104 -118 -104q-43 0 -121 36q-74 34 -105 34q-62 0 -85 -65l-40 9q28 105 117 105q40 0 127 -40q65 -30 103 -30q63 0 82 64z" />
    <glyph glyph-name="uni1EF9" unicode="&#x1ef9;" horiz-adv-x="863" 
d="M187 -478l210 492l-375 894h62l342 -828l354 828h61l-598 -1386h-56zM626 1264l40 -10q-24 -104 -117 -104q-44 0 -122 36q-75 34 -105 34q-61 0 -84 -65l-41 10q29 104 118 104q39 0 126 -40q64 -30 103 -30q62 0 82 65z" />
    <glyph glyph-name="uni2002" unicode="&#x2002;" horiz-adv-x="1065" 
 />
    <glyph glyph-name="uni2003" unicode="&#x2003;" horiz-adv-x="2089" 
 />
    <glyph glyph-name="uni2004" unicode="&#x2004;" horiz-adv-x="724" 
 />
    <glyph glyph-name="uni2005" unicode="&#x2005;" horiz-adv-x="553" 
 />
    <glyph glyph-name="uni2006" unicode="&#x2006;" horiz-adv-x="177" 
 />
    <glyph glyph-name="uni2007" unicode="&#x2007;" horiz-adv-x="1180" 
 />
    <glyph glyph-name="uni2009" unicode="&#x2009;" horiz-adv-x="297" 
 />
    <glyph glyph-name="uni200A" unicode="&#x200a;" horiz-adv-x="109" 
 />
    <glyph glyph-name="uni2011" unicode="&#x2011;" horiz-adv-x="481" 
d="M96 447v49h290v-49h-290z" />
    <glyph glyph-name="figuredash" unicode="&#x2012;" horiz-adv-x="1118" 
d="M259 447v49h599v-49h-599z" />
    <glyph glyph-name="endash" unicode="&#x2013;" horiz-adv-x="1118" 
d="M259 447v49h599v-49h-599z" />
    <glyph glyph-name="emdash" unicode="&#x2014;" horiz-adv-x="1223" 
d="M96 447v49h1032v-49h-1032z" />
    <glyph glyph-name="afii00208" unicode="&#x2015;" horiz-adv-x="1223" 
d="M96 447v49h1032v-49h-1032z" />
    <glyph glyph-name="underscoredbl" unicode="&#x2017;" horiz-adv-x="972" 
d="M20 -222v42h931v-42h-931zM20 -404v42h931v-42h-931z" />
    <glyph glyph-name="quoteleft" unicode="&#x2018;" horiz-adv-x="480" 
d="M344 1393l-147 -415l-60 22l173 407z" />
    <glyph glyph-name="quoteright" unicode="&#x2019;" horiz-adv-x="412" 
d="M89 992l147 415l60 -22l-173 -407z" />
    <glyph glyph-name="quotesinglbase" unicode="&#x201a;" horiz-adv-x="412" 
d="M89 -272l147 415l60 -22l-173 -407z" />
    <glyph glyph-name="quotereversed" unicode="&#x201b;" horiz-adv-x="412" 
d="M115 1385l60 22l147 -415l-34 -14z" />
    <glyph glyph-name="quotedblleft" unicode="&#x201c;" horiz-adv-x="780" 
d="M344 1395l-147 -415l-60 22l173 407zM644 1395l-147 -415l-60 22l172 407z" />
    <glyph glyph-name="quotedblright" unicode="&#x201d;" horiz-adv-x="780" 
d="M437 992l146 415l61 -22l-173 -407zM137 992l147 415l60 -22l-173 -407z" />
    <glyph glyph-name="quotedblbase" unicode="&#x201e;" horiz-adv-x="780" 
d="M137 -272l147 415l60 -22l-173 -407zM437 -272l146 415l61 -22l-173 -407z" />
    <glyph glyph-name="dagger" unicode="&#x2020;" horiz-adv-x="1103" 
d="M522 876v485h58v-485h321v-54h-321v-1198h-58v1198h-321v54h321z" />
    <glyph glyph-name="daggerdbl" unicode="&#x2021;" horiz-adv-x="1103" 
d="M201 876h321v485h58v-485h321v-54h-321v-659h321v-54h-321v-486h-58v486h-321v54h321v659h-321v54z" />
    <glyph glyph-name="bullet" unicode="&#x2022;" horiz-adv-x="942" 
d="M475 929q106 0 179 -82q63 -71 63 -164q0 -109 -81 -183q-70 -63 -165 -63q-109 0 -183 81q-63 70 -63 167q0 106 82 181q69 63 168 63z" />
    <glyph glyph-name="ellipsis" unicode="&#x2026;" horiz-adv-x="1469" 
d="M225 90q21 0 36 -15.5t15 -36.5t-15 -36.5t-36 -15.5q-20 0 -35.5 16t-15.5 37q0 20 15.5 35.5t35.5 15.5zM734 90q21 0 36 -15.5t15 -36.5t-15 -36.5t-36 -15.5q-20 0 -35.5 16t-15.5 37q0 20 15.5 35.5t35.5 15.5zM1244 90q21 0 36 -15t15 -37q0 -21 -15 -36.5
t-36 -15.5q-20 0 -35.5 16t-15.5 37q0 20 15.5 35.5t35.5 15.5z" />
    <glyph glyph-name="perthousand" unicode="&#x2030;" horiz-adv-x="2589" 
d="M1434 822q298 0 298 -416q0 -184 -59 -290q-71 -125 -244 -125q-295 0 -295 421q0 410 300 410zM1434 766q-241 0 -241 -364q0 -355 240 -355t240 359q0 360 -239 360zM519 19l780 1348l36 -21l-780 -1348zM423 1376q298 0 298 -415q0 -184 -59 -290q-71 -125 -244 -125
q-295 0 -295 421q0 409 300 409zM423 1320q-241 0 -241 -363q0 -355 240 -355t240 359t-239 359zM2168 822q298 0 298 -416q0 -184 -59 -290q-71 -125 -244 -125q-295 0 -295 421q0 410 300 410zM2168 766q-241 0 -241 -364q0 -355 240 -355t240 359q0 360 -239 360z" />
    <glyph glyph-name="minute" unicode="&#x2032;" horiz-adv-x="296" 
d="M-48 992l147 415l60 -22l-173 -407z" />
    <glyph glyph-name="second" unicode="&#x2033;" horiz-adv-x="595" 
d="M252 992l146 415l61 -22l-173 -407zM-48 992l147 415l60 -22l-173 -407z" />
    <glyph glyph-name="guilsinglleft" unicode="&#x2039;" horiz-adv-x="514" 
d="M390 756l-238 -302l237 -294l-33 -26l-260 320l261 328z" />
    <glyph glyph-name="guilsinglright" unicode="&#x203a;" horiz-adv-x="514" 
d="M124 160l238 294l-238 302l33 26l261 -328l-261 -320z" />
    <glyph glyph-name="uni203E" unicode="&#x203e;" horiz-adv-x="972" 
d="M20 1614v42h931v-42h-931z" />
    <glyph glyph-name="slash.aalt" unicode="&#x2044;" horiz-adv-x="352" 
d="M-232 19l780 1348l36 -21l-780 -1348z" />
    <glyph glyph-name="zerosuperior" unicode="&#x2070;" 
d="M392 1653q172 0 243 -125q60 -103 60 -290q0 -415 -298 -415q-170 0 -241 125q-59 106 -59 296q0 409 295 409zM397 1597q-241 0 -241 -364q0 -354 240 -354t240 359t-239 359z" />
    <glyph glyph-name="foursuperior" unicode="&#x2074;" 
d="M469 1649l49 -30l-336 -547h318v221h59v-221h107v-56h-107v-184h-59v184h-387v53z" />
    <glyph glyph-name="fivesuperior" unicode="&#x2075;" 
d="M298 1586l-52 -253q64 23 120 23q131 0 210 -91q63 -72 63 -173q0 -115 -77 -192t-194 -77q-157 0 -247 127l47 33q72 -103 199 -103q100 0 154 57q59 62 59 153q0 88 -61 148q-63 63 -158 63q-78 0 -143 -53l-48 10l80 384h346v-56h-298z" />
    <glyph glyph-name="sixsuperior" unicode="&#x2076;" 
d="M182 1271l275 378l47 -34l-207 -284q51 14 93 14q134 0 214 -87q63 -69 63 -164q0 -121 -90 -202q-77 -69 -183 -69q-120 0 -201 85q-74 77 -74 185q0 93 63 178zM393 1291q-92 0 -153 -58q-62 -59 -62 -145t63 -148q61 -61 151 -61q92 0 154 62t62 151q0 84 -60 140
q-64 59 -155 59z" />
    <glyph glyph-name="sevensuperior" unicode="&#x2077;" 
d="M207 855l400 731h-446v56h513v-54l-415 -761z" />
    <glyph glyph-name="eightsuperior" unicode="&#x2078;" 
d="M269 1264q-48 30 -75 77.5t-27 100.5q0 101 80 164q59 47 149 47q102 0 167 -62q62 -62 62 -149q0 -54 -27 -101.5t-75 -76.5q130 -73 130 -207q0 -113 -85 -179q-73 -55 -172 -55q-118 0 -192 73q-65 63 -65 162q0 133 130 206zM394 1231q-84 0 -140 -50t-56 -127
q0 -75 56 -125t142 -50q84 0 142 50q56 50 56 125q0 78 -56 128q-55 49 -144 49zM394 1598q-73 0 -122 -44q-48 -45 -48 -114q0 -65 50 -109q49 -45 122 -45q76 0 126 48q46 43 46 109q0 68 -49 111q-50 44 -125 44z" />
    <glyph glyph-name="ninesuperior" unicode="&#x2079;" 
d="M610 1205l-275 -378l-47 34l208 286q-49 -13 -94 -13q-135 0 -215 86q-62 68 -62 164q0 119 90 200q77 69 183 69q110 0 186 -67q89 -77 89 -201q0 -93 -63 -180zM400 1597q-93 0 -154 -61q-62 -62 -62 -151q0 -86 57 -140q60 -57 158 -57q92 0 153 58q62 59 62 143
q0 86 -62 148q-62 60 -152 60z" />
    <glyph glyph-name="zeroinferior" unicode="&#x2080;" 
d="M392 556q172 0 243 -125q60 -103 60 -290q0 -415 -298 -415q-170 0 -241 125q-59 106 -59 296q0 409 295 409zM397 500q-241 0 -241 -363q0 -355 240 -355t240 359t-239 359z" />
    <glyph glyph-name="oneinferior" unicode="&#x2081;" 
d="M457 545v-810h-59v748l-145 -82l-29 48l170 96h63z" />
    <glyph glyph-name="twoinferior" unicode="&#x2082;" 
d="M649 -265h-502v61l312 329q109 115 109 206q0 73 -52 122t-131 49q-117 0 -166 -99q-11 -25 -19 -50l-55 16q57 188 247 188q101 0 168 -64t67 -161q0 -59 -30.5 -117t-101.5 -134l-275 -290h429v-56z" />
    <glyph glyph-name="threeinferior" unicode="&#x2083;" 
d="M356 134v54h53q69 0 109 49q38 47 38 108q0 69 -48 112.5t-125 43.5q-94 0 -158 -79l-50 27q8 10 9 11q76 96 200 96q96 0 158 -52q72 -58 72 -158q0 -118 -97 -182q117 -66 117 -202q0 -106 -68 -171q-70 -65 -179 -65q-192 0 -249 173l56 15q14 -33 24 -50
q51 -82 167 -82q87 0 138.5 48t51.5 129q0 78 -47 126.5t-121 48.5h-51z" />
    <glyph glyph-name="fourinferior" unicode="&#x2084;" 
d="M469 553l49 -30l-336 -547h318v221h59v-221h107v-56h-107v-185h-59v185h-387v53z" />
    <glyph glyph-name="fiveinferior" unicode="&#x2085;" 
d="M298 489l-52 -253q64 23 120 23q131 0 210 -91q63 -72 63 -173q0 -117 -77 -194q-76 -76 -194 -76q-157 0 -247 127l47 33q73 -103 199 -103q100 0 154 57q59 62 59 153q0 88 -61 148q-63 63 -158 63q-79 0 -143 -52l-48 10l80 384h346v-56h-298z" />
    <glyph glyph-name="sixinferior" unicode="&#x2086;" 
d="M182 175l275 377l47 -34l-207 -284q51 14 93 14q134 0 214 -87q63 -68 63 -164q0 -121 -90 -202q-77 -69 -183 -69q-120 0 -201 85q-74 77 -74 185q0 92 63 179zM393 194q-92 0 -153 -58q-62 -59 -62 -145q0 -87 63 -148q61 -61 151 -61q93 0 154 61q62 62 62 152
q0 85 -60 140q-64 59 -155 59z" />
    <glyph glyph-name="seveninferior" unicode="&#x2087;" 
d="M207 -243l400 732h-446v56h513v-54l-415 -761z" />
    <glyph glyph-name="eightinferior" unicode="&#x2088;" 
d="M269 167q-48 29 -75 76.5t-27 101.5q0 101 80 164q59 47 149 47q103 0 167 -63q62 -62 62 -148q0 -54 -27 -101.5t-75 -76.5q130 -73 130 -207q0 -113 -85 -179q-73 -55 -172 -55q-118 0 -192 73q-65 63 -65 162q0 133 130 206zM394 134q-84 0 -140 -50q-56 -51 -56 -127
t56 -126q55 -49 142 -49q86 0 142 49q56 50 56 126q0 78 -56 128q-55 49 -144 49zM394 501q-73 0 -122 -44q-48 -45 -48 -114q0 -65 50 -109q50 -45 122 -45q76 0 126 48q46 43 46 109q0 68 -49 111q-50 44 -125 44z" />
    <glyph glyph-name="nineinferior" unicode="&#x2089;" 
d="M610 107l-275 -377l-47 34l208 286q-49 -13 -94 -13q-135 0 -215 86q-62 68 -62 164q0 119 90 200q77 69 183 69q110 0 186 -67q89 -77 89 -201q0 -94 -63 -181zM400 500q-93 0 -154 -61q-62 -62 -62 -151q0 -86 57 -141q61 -56 158 -56q92 0 153 58q62 59 62 143
q0 86 -62 148q-62 60 -152 60z" />
    <glyph glyph-name="franc" unicode="&#x20a3;" horiz-adv-x="1314" 
d="M834 763v-170q92 171 309 170v-50q-166 -6 -237 -101q-72 -96 -72 -312v-300h-55v763h55zM858 1365v-53h-534v-592h387v-54h-387v-666h-58v1365h592z" />
    <glyph glyph-name="lira" unicode="&#x20a4;" horiz-adv-x="1131" 
d="M800 802h-456l8 -41l34 -166l6 -32h408v-52h-397q14 -73 14 -128q0 -94 -43.5 -171t-142.5 -160h777v-52h-834v74q101 85 133 133q55 79 55 166q0 55 -15 138h-173v52h163l-10 47l-36 173l-2.5 10t-1.5 9h-113v52h105q-7 63 -7 116q0 152 56 247q47 80 146 127
q82 39 176 39q184 0 297 -161l-46 -31q-105 139 -257 139q-122 0 -210 -74q-107 -92 -107 -289q0 -43 8 -113h465v-52z" />
    <glyph glyph-name="peseta" unicode="&#x20a7;" horiz-adv-x="1233" 
d="M314 0v959h-123v48h123v358h245q184 0 276 -53q126 -73 162 -232q9 -40 10 -73h123v-48h-123q-11 -186 -122 -277t-326 -91h-187v-591h-58zM949 959h-577v-314h207q142 0 223 48q136 81 147 266zM372 1312v-305h577q-9 150 -103 227.5t-267 77.5h-207z" />
    <glyph glyph-name="uni20AB" unicode="&#x20ab;" horiz-adv-x="1169" 
d="M672 1158h257v207h55v-207h130v-52h-130v-1106h-55v208q-139 -226 -385 -226q-205 0 -338 154q-115 133 -115 319q0 213 149 353q127 118 304 118q246 0 385 -226v406h-257v52zM536 873q-186 0 -301 -148q-85 -109 -85 -270q0 -190 116 -306q112 -114 277 -114
q193 0 306 149q83 110 83 274q0 183 -113 302q-110 113 -283 113zM100 -222v42h1000v-42h-1000z" />
    <glyph glyph-name="Euro" unicode="&#x20ac;" horiz-adv-x="1604" 
d="M1280 802h-894q-10 -51 -10 -122q0 -61 10 -117h800l-20 -52h-769q12 -54 40 -114q64 -136 184 -230q167 -130 380 -130q108 0 196 32q85 31 194 112v-68q-172 -131 -384 -131q-235 0 -416 139q-192 146 -254 390h-180l20 52h150q-10 56 -10 118t10 121h-170l20 52h161
q17 65 43 124q76 166 217 272q178 133 408 133q247 0 434 -176l-20 -52q-193 173 -422 173q-213 0 -381 -132q-167 -133 -220 -342h904z" />
    <glyph glyph-name="uni20B4" unicode="&#x20b4;" horiz-adv-x="1232" 
d="M279 511h-88v52h123q74 86 234 149l141 55q43 18 74 35h-572v52h650q89 77 89 189q0 108 -80 194q-87 94 -233 94q-158 0 -270 -139l-45 30q123 161 311 161q167 0 276 -104q97 -94 97 -237q0 -109 -64 -188h119v-52h-174q-66 -49 -145 -80l-135 -53q-133 -53 -194 -106
h648v-52h-695q-42 -63 -42 -144q0 -155 124 -255q92 -75 217 -75q119 0 203.5 63t125.5 183l56 -16q-25 -79 -65 -131q-115 -154 -316 -154q-183 0 -301 126q-102 110 -102 261q0 79 33 142z" />
    <glyph glyph-name="uni2101" unicode="&#x2101;" horiz-adv-x="1950" 
d="M835 603l-79 193h-440l-100 -240h-52l340 809h64l298 -707zM335 842h402l-201 486zM1741 715l-39 -24q-70 81 -164 81q-53 0 -92 -19q-41 -20 -66.5 -58t-25.5 -81q0 -100 142 -154l87 -32q99 -37 144 -86t45 -119q0 -105 -83 -173q-70 -58 -173 -58q-89 0 -152 45.5
t-90 130.5l51 14q48 -144 195 -144q85 0 144 56q56 54 56 128q0 57 -38.5 95.5t-129.5 72.5l-83 31q-166 61 -166 191q0 100 81 158q65 47 155 47q125 0 202 -102zM665 19l780 1348l36 -21l-780 -1348z" />
    <glyph glyph-name="afii61248" unicode="&#x2105;" horiz-adv-x="2191" 
d="M875 1262l-33 -32q-106 97 -249 97q-182 0 -291 -130q-86 -104 -86 -236q0 -162 118 -268q109 -98 259 -98q141 0 253 99l34 -32q-125 -113 -286 -113q-196 0 -322 138q-108 117 -108 274q0 183 141 306q121 106 289 106q156 0 281 -111zM1603 817q185 0 314 -137
q111 -118 111 -276q0 -181 -140 -304q-123 -108 -289 -108q-111 0 -212 59q-95 55 -151 147q-58 97 -58 212q0 175 143 301q121 106 282 106zM1600 771q-170 0 -282 -130q-88 -101 -88 -243q0 -156 120 -262q110 -98 253 -98q167 0 281 125q92 101 92 241q0 156 -115 265
q-107 102 -261 102zM688 19l780 1348l36 -21l-780 -1348z" />
    <glyph glyph-name="uni2117" unicode="&#x2117;" horiz-adv-x="1795" 
d="M873 611h-134v-390h-53v922h187q90 0 146.5 -15.5t97.5 -52.5q86 -77 86 -201q0 -73 -34 -133t-93 -92q-73 -38 -203 -38zM739 1094v-434h147q132 0 196 54q68 57 68 160q0 107 -67.5 163.5t-196.5 56.5h-147zM911 1458q198 0 374 -104q180 -105 284 -284t104 -387
q0 -207 -104 -388q-103 -179 -284 -283t-388 -104q-208 0 -386 103q-181 103 -284 281q-104 181 -104 393q0 335 257 572q218 201 531 201zM887 1410q-187 0 -352 -99q-170 -101 -266 -267q-98 -170 -98 -365q0 -194 98 -363q97 -166 266 -263q167 -97 362 -97t365 98
q168 97 266 265q97 169 97 370q0 314 -241 534q-205 187 -497 187z" />
    <glyph glyph-name="trademark" unicode="&#x2122;" horiz-adv-x="1457" 
d="M703 738h-49v640h63l259 -442l260 442h64v-640h-49v572l-247 -422h-55l-246 422v-572zM569 1334h-181v-596h-49v596h-182v44h412v-44z" />
    <glyph glyph-name="Omega" unicode="&#x2126;" horiz-adv-x="1654" 
d="M1037 0v179q66 25 107 48q150 86 230 221q78 132 78 287q0 149 -72 278q-79 143 -227 229q-151 86 -327 86q-175 0 -326 -86q-148 -86 -227 -229q-72 -129 -72 -278q0 -189 110 -337t305 -219v-179h-437v55h379v86q-52 24 -80 39q-153 87 -243 233q-92 152 -92 323
q0 170 92 322q92 150 254 239q158 86 337 86q180 0 338 -86q164 -89 254 -239q92 -151 92 -322q0 -196 -108 -350q-110 -157 -307 -245v-86h379v-55h-437z" />
    <glyph glyph-name="estimated" unicode="&#x212e;" horiz-adv-x="1533" 
d="M1369 691h-1069v-334q52 -132 96 -185q126 -146 377 -146q357 0 502 288h35q-63 -139 -151 -211q-149 -121 -388 -121q-290 0 -449 186q-158 184 -158 506q0 342 174 529q168 180 438 180q224 0 381 -123q168 -131 202 -396q9 -78 10 -173zM300 730h955v298
q-30 73 -55 107q-148 204 -430 204q-130 0 -224 -42.5t-165 -134.5q-29 -36 -81 -131v-301z" />
    <glyph glyph-name="onethird" unicode="&#x2153;" horiz-adv-x="1707" 
d="M351 23l780 1348l36 -20l-780 -1349zM1241 400v53h53q68 0 109 50q38 47 38 108q0 69 -48 112.5t-125 43.5q-94 0 -159 -80l-49 28q47 58 95 82.5t114 24.5q96 0 158 -52q72 -59 72 -158q0 -118 -97 -182q117 -67 117 -203q0 -106 -68 -171q-70 -65 -179 -65
q-194 0 -249 174l56 15q12 -31 23 -50q53 -83 168 -83q87 0 138.5 48t51.5 129q0 78 -47 127t-122 49h-50zM378 1365v-810h-59v747l-145 -81l-29 48l170 96h63z" />
    <glyph glyph-name="twothirds" unicode="&#x2154;" horiz-adv-x="1707" 
d="M451 19l780 1348l36 -21l-780 -1348zM1244 400v53h53q68 0 109 50q38 47 38 108q0 69 -48 112.5t-125 43.5q-93 0 -158 -80l-50 28q47 58 95 82.5t114 24.5q102 0 166 -58t64 -152q0 -118 -97 -182q117 -67 117 -203q0 -106 -68 -171q-70 -65 -179 -65q-193 0 -249 174
l56 15q14 -35 24 -50q51 -83 167 -83q87 0 138.5 48t51.5 129q0 77 -47 127q-46 49 -121 49h-51zM632 554h-502v61l312 329q109 115 109 206q0 73 -52 122t-131 49q-116 0 -166 -99q-10 -21 -19 -49l-55 15q57 188 247 188q101 0 168 -64t67 -161q0 -60 -30.5 -118
t-101.5 -133l-275 -290h429v-56z" />
    <glyph glyph-name="onefifth" unicode="&#x2155;" horiz-adv-x="1707" 
d="M351 19l780 1348l36 -21l-780 -1348zM1160 754l-52 -253q63 24 120 24q131 0 210 -91q63 -72 63 -173q0 -116 -77 -193t-194 -77q-157 0 -247 127l47 33q72 -103 199 -103q100 0 154 57q59 62 59 153q0 88 -61 148q-63 63 -158 63q-79 0 -143 -52l-48 9l80 384h346v-56
h-298zM378 1365v-810h-59v747l-145 -81l-29 48l170 96h63z" />
    <glyph glyph-name="twofifth" unicode="&#x2156;" horiz-adv-x="1707" 
d="M458 13l780 1348l36 -21l-780 -1348zM1164 754l-52 -253q63 24 120 24q131 0 210 -91q63 -72 63 -173q0 -116 -77 -193t-194 -77q-157 0 -247 127l47 33q72 -103 199 -103q100 0 154 57q59 62 59 153q0 88 -61 148q-63 63 -158 63q-79 0 -143 -52l-48 9l79 384h347v-56
h-298zM631 554h-502v61l312 329q109 115 109 206q0 73 -52 122t-131 49q-117 0 -166 -99q-10 -21 -19 -49l-55 15q57 188 247 188q101 0 168 -64t67 -161q0 -60 -30.5 -118t-101.5 -133l-275 -290h429v-56z" />
    <glyph glyph-name="threefifth" unicode="&#x2157;" horiz-adv-x="1707" 
d="M413 19l780 1348l36 -21l-780 -1348zM1160 754l-52 -253q64 24 120 24q131 0 210 -91q63 -72 63 -173q0 -116 -77 -193t-194 -77q-157 0 -247 127l47 33q72 -103 199 -103q100 0 154 57q59 62 59 153q0 88 -61 148q-63 63 -158 63q-79 0 -143 -52l-48 9l80 384h346v-56
h-298zM346 954v53h53q68 0 109 50q38 47 38 108q0 69 -48 112.5t-125 43.5q-93 0 -158 -80l-50 28q2 2 5 5.5t4 5.5q76 96 200 96q96 0 158 -52q72 -58 72 -158q0 -118 -97 -182q117 -66 117 -202q0 -106 -68 -171q-70 -65 -179 -65q-192 0 -249 173l56 15q14 -33 24 -50
q51 -82 167 -82q87 0 138.5 48t51.5 129q0 78 -47 126.5t-121 48.5h-51z" />
    <glyph glyph-name="fourfifth" unicode="&#x2158;" horiz-adv-x="1707" 
d="M450 19l779 1348l36 -21l-780 -1348zM1167 754l-52 -253q65 24 120 24q131 0 210 -91q63 -72 63 -173q0 -117 -76 -193q-77 -77 -195 -77q-157 0 -247 127l47 33q72 -103 199 -103q100 0 154 57q59 62 59 153q0 88 -61 148q-63 63 -158 63q-79 0 -143 -52l-48 9l80 384
h346v-56h-298zM484 1372l49 -30l-336 -547h318v221h59v-221h107v-56h-107v-185h-59v185h-387v53z" />
    <glyph glyph-name="onesixth" unicode="&#x2159;" horiz-adv-x="1707" 
d="M379 19l780 1348l36 -21l-780 -1348zM1015 440l275 378l47 -34l-207 -284q51 14 93 14q135 0 214 -88q63 -68 63 -164q0 -120 -90 -202q-76 -69 -183 -69q-120 0 -201 85q-74 77 -74 185q0 93 63 179zM1226 460q-92 0 -153 -58q-62 -59 -62 -145q0 -87 63 -148
q64 -62 152 -62q91 0 153 62t62 151q0 86 -60 141q-64 59 -155 59zM379 1365v-810h-59v747l-145 -81l-29 48l170 96h63z" />
    <glyph glyph-name="fivesixth" unicode="&#x215a;" horiz-adv-x="1707" 
d="M460 19l780 1348l36 -21l-780 -1348zM1015 440l275 378l47 -34l-207 -284q51 14 93 14q134 0 215 -88q62 -68 62 -164q0 -120 -90 -202q-76 -69 -183 -69q-120 0 -201 85q-74 77 -74 185q0 92 63 179zM1226 460q-92 0 -153 -58q-62 -59 -62 -145q0 -87 63 -148
q62 -62 151 -62q92 0 154 62t62 151q0 86 -60 141q-64 59 -155 59zM306 1309l-52 -253q66 23 120 23q131 0 210 -91q63 -72 63 -173q0 -116 -77 -193t-194 -77q-156 0 -247 127l47 33q72 -103 199 -103q100 0 154 57q59 62 59 153q0 88 -61 148q-63 63 -158 63
q-82 0 -143 -52l-48 10l80 384h346v-56h-298z" />
    <glyph glyph-name="oneeighth" unicode="&#x215b;" horiz-adv-x="1707" 
d="M352 19l780 1348l36 -21l-780 -1348zM1134 432q-47 30 -74 77.5t-27 101.5q0 102 79 163q60 48 149 48q103 0 167 -63q62 -62 62 -148q0 -54 -27 -101.5t-74 -77.5q62 -35 95.5 -88.5t33.5 -117.5q0 -114 -85 -180q-71 -55 -172 -55q-118 0 -192 73q-65 63 -65 162
q0 133 130 206zM1259 399q-84 0 -140 -50q-56 -51 -56 -127q0 -75 56 -125t142 -50q84 0 142 50q56 50 56 125q0 78 -56 128q-55 49 -144 49zM1260 767q-74 0 -122 -45t-48 -113q0 -66 50 -110q50 -45 121 -45q78 0 126 48q46 45 46 109q0 69 -49 112q-50 44 -124 44z
M379 1363v-810h-59v748l-145 -82l-29 49l170 95h63z" />
    <glyph glyph-name="threeeighths" unicode="&#x215c;" horiz-adv-x="1707" 
d="M408 19l779 1348l36 -21l-780 -1348zM1117 432q-47 30 -74 77.5t-27 101.5q0 100 79 163q60 48 149 48q102 0 167 -63q62 -62 62 -148q0 -54 -27 -101.5t-74 -77.5q130 -73 130 -206q0 -114 -85 -180q-71 -55 -172 -55q-118 0 -192 73q-65 63 -65 162q0 64 33.5 117.5
t95.5 88.5zM1243 399q-84 0 -140 -50q-56 -51 -56 -127q0 -75 56 -125t142 -50q84 0 142 50q56 50 56 125q0 78 -56 128q-55 49 -144 49zM1243 767q-74 0 -122 -45t-48 -113q0 -66 50 -110q50 -45 121 -45q78 0 126 48q46 45 46 109q0 69 -49 112q-50 44 -124 44zM345 954
v53h53q68 0 109 50q38 47 38 108q0 69 -48 112.5t-125 43.5q-93 0 -158 -80l-50 28q2 2 5 5.5t4 5.5q76 96 200 96q96 0 158 -52q72 -58 72 -158q0 -118 -97 -182q117 -66 117 -202q0 -106 -68 -171q-70 -65 -179 -65q-192 0 -249 173l56 15q14 -33 24 -50q51 -82 167 -82
q87 0 138.5 48t51.5 129q0 78 -47 126.5t-121 48.5h-51z" />
    <glyph glyph-name="fiveeighths" unicode="&#x215d;" horiz-adv-x="1707" 
d="M411 19l780 1348l36 -21l-780 -1348zM1115 432q-47 30 -74 77.5t-27 101.5q0 100 79 163q60 48 149 48q102 0 167 -63q62 -62 62 -148q0 -54 -27 -101.5t-74 -77.5q130 -73 130 -206q0 -114 -86 -180q-71 -55 -172 -55q-118 0 -192 73q-65 63 -65 162q0 133 130 206z
M1240 399q-84 0 -140 -50q-56 -51 -56 -127t57 -125q56 -50 141 -50t143 50q56 50 56 125q0 78 -56 128q-55 49 -145 49zM1241 767q-74 0 -122 -45t-48 -113q0 -66 50 -110q49 -45 121 -45q78 0 126 48q46 45 46 109q0 69 -49 112q-50 44 -124 44zM306 1309l-52 -253
q66 23 120 23q131 0 210 -91q63 -72 63 -173q0 -116 -77 -193t-194 -77q-156 0 -247 127l47 33q72 -103 199 -103q100 0 154 57q59 62 59 153q0 88 -61 148q-63 63 -158 63q-82 0 -143 -52l-48 10l80 384h346v-56h-298z" />
    <glyph glyph-name="seveneighths" unicode="&#x215e;" horiz-adv-x="1707" 
d="M345 23l780 1348l36 -20l-780 -1349zM1122 432q-48 31 -75 78t-27 101q0 100 80 163q60 48 149 48q103 0 167 -63q62 -62 62 -148q0 -54 -27 -101t-75 -78q130 -73 130 -206q0 -114 -85 -180q-71 -55 -172 -55q-118 0 -192 73q-65 63 -65 162q0 133 130 206zM1247 399
q-84 0 -140 -50q-56 -51 -56 -127q0 -75 56 -125t142 -50q84 0 142 50q56 50 56 125q0 78 -56 128q-55 49 -144 49zM1247 767q-74 0 -122 -45t-48 -113q0 -66 50 -110q49 -45 122 -45q77 0 126 48q46 45 46 109q0 69 -49 112q-50 44 -125 44zM220 577l400 732h-446v56h513
v-54l-415 -762z" />
    <glyph glyph-name="partialdiff" unicode="&#x2202;" horiz-adv-x="1225" 
d="M323 1315l7 44q148 -27 240 -65q270 -115 400 -361q98 -187 98 -417q0 -134 -37 -233q-51 -139 -159 -218q-115 -83 -261 -83q-206 0 -339 154q-115 133 -115 319q0 213 149 353q127 118 306 118q111 0 198 -43.5t164 -136.5q-119 479 -651 569zM608 873
q-191 0 -306 -148q-86 -110 -86 -277q0 -183 116 -299q114 -114 279 -114q196 0 311 148q85 109 85 272q0 187 -116 305q-113 113 -283 113z" />
    <glyph glyph-name="emptyset" unicode="&#x2205;" horiz-adv-x="1245" 
d="M817 1129l130 255l36 -19l-130 -256q35 -22 57 -41q177 -146 177 -366q0 -133 -70 -248q-61 -100 -159 -159q-112 -66 -255 -66q-98 0 -177 41l-147 -289l-36 19l147 289q-233 150 -233 411q0 218 159 358q131 115 310 115q101 0 191 -44zM412 334l384 754
q-83 39 -170 39q-200 0 -324 -154q-97 -119 -97 -271q0 -115 54.5 -211.5t152.5 -156.5zM832 1069l-384 -755q86 -39 174 -39q183 0 307 138q110 122 110 288q0 117 -54.5 214.5t-152.5 153.5z" />
    <glyph glyph-name="increment" unicode="&#x2206;" horiz-adv-x="1332" 
d="M1250 0h-1168l553 1365h62zM164 55h1003l-501 1252z" />
    <glyph glyph-name="product" unicode="&#x220f;" horiz-adv-x="1379" 
d="M1051 1311h-722v-1311h-58v1311h-182v54h1201v-54h-181v-1311h-58v1311z" />
    <glyph glyph-name="summation" unicode="&#x2211;" horiz-adv-x="1361" 
d="M244 76l435 634l-392 579v76h811v-54h-764l410 -596l-448 -660h845v-55h-897v76z" />
    <glyph glyph-name="minus" unicode="&#x2212;" horiz-adv-x="1139" 
d="M199 664h740v-49h-740v49z" />
    <glyph glyph-name="fraction" unicode="&#x2215;" horiz-adv-x="352" 
d="M-232 19l780 1348l36 -21l-780 -1348z" />
    <glyph glyph-name="uni2218" unicode="&#x2218;" horiz-adv-x="942" 
d="M475 929q106 0 179 -82q63 -71 63 -164q0 -109 -81 -183q-70 -63 -165 -63q-109 0 -183 81q-63 70 -63 167q0 106 82 181q69 63 168 63zM468 872q-81 0 -138 -62q-48 -54 -48 -127q0 -84 62 -141q54 -48 127 -48q85 0 141 62q48 54 48 128q0 83 -63 140q-53 48 -129 48z
" />
    <glyph glyph-name="radical" unicode="&#x221a;" horiz-adv-x="1326" 
d="M546 58l576 1664h526v-54h-484l-581 -1668h-75l-253 724h-166v54h207z" />
    <glyph glyph-name="infinity" unicode="&#x221e;" horiz-adv-x="1386" 
d="M698 660q-71 -97 -95 -123q-114 -120 -244 -120q-135 0 -212 95q-58 73 -58 180q0 124 78 198q80 75 193 75q137 0 254 -137q17 -20 76 -106q59 87 82 113q112 130 256 130q140 0 215 -100q54 -72 54 -175q0 -134 -85 -207q-74 -67 -182 -67q-146 0 -261 142
q-12 14 -71 102zM722 691q34 -55 58 -87q46 -61 89 -92q67 -49 164 -49q111 0 167 65q47 56 47 152q0 127 -73 191q-56 47 -146 47q-79 0 -140 -36.5t-120 -119.5q-15 -22 -46 -71zM665 690q-32 52 -59 88q-46 60 -88 91q-67 49 -162 49q-107 0 -162 -64q-54 -62 -54 -169
q0 -117 66 -173q56 -48 149 -48q82 0 143 36.5t121 119.5q18 26 46 70z" />
    <glyph glyph-name="integral" unicode="&#x222b;" horiz-adv-x="588" 
d="M89 -358v51q25 -6 48 -6q69 0 99.5 51t30.5 167v1321q0 272 175 272q28 0 58 -10v-51q-26 6 -48 6q-69 0 -99.5 -51t-30.5 -166v-1321q0 -273 -175 -273q-28 0 -58 10z" />
    <glyph glyph-name="similar" unicode="&#x223c;" horiz-adv-x="1073" 
d="M121 557l-24 16q45 81 78 117q60 65 151 65q68 0 212 -67q97 -45 134 -56q38 -13 80 -13q63 0 107.5 27.5t91.5 97.5l25 -15q-94 -175 -243 -175q-37 0 -87 18q-47 16 -182 77q-90 41 -152 41q-107 0 -191 -133z" />
    <glyph glyph-name="uni2243" unicode="&#x2243;" horiz-adv-x="1098" 
d="M97 495h903v-44h-903v44zM132 704l-24 16q46 82 78 116q60 65 151 65q69 0 212 -67q99 -45 134 -56q37 -12 81 -12q63 0 107 27.5t91 96.5l25 -14q-94 -175 -242 -175q-37 0 -87 18q-45 15 -183 77q-87 40 -151 40q-106 0 -192 -132z" />
    <glyph glyph-name="approxequal" unicode="&#x2248;" horiz-adv-x="1073" 
d="M120 393l-23 16q45 83 78 117q60 65 151 65q68 0 212 -67q97 -45 134 -56q36 -13 80 -13q63 0 107.5 28t91.5 97l25 -15q-94 -175 -243 -175q-37 0 -87 18q-47 16 -182 77q-91 41 -152 41q-107 0 -192 -133zM121 738l-24 16q46 82 78 116q60 65 151 65q68 0 212 -67
q99 -45 134 -56q37 -12 80 -12q63 0 107.5 27.5t91.5 97.5l25 -15q-94 -175 -242 -175q-38 0 -88 18q-41 14 -182 77q-89 40 -152 40q-107 0 -191 -132z" />
    <glyph glyph-name="notequal" unicode="&#x2260;" horiz-adv-x="1100" 
d="M778 1047l-124 -248h349v-49h-373l-110 -220h483v-49h-507l-132 -265l-42 17l124 248h-349v49h373l110 220h-483v49h507l132 265z" />
    <glyph glyph-name="lessequal" unicode="&#x2264;" horiz-adv-x="1098" 
d="M952 391v-57l-806 361v80l806 366v-56l-783 -347zM952 46v-46h-806v46h806z" />
    <glyph glyph-name="greaterequal" unicode="&#x2265;" horiz-adv-x="1098" 
d="M952 0h-806v46h806v-46zM952 695l-806 -361v57l783 347l-783 347v56l806 -366v-80z" />
    <glyph glyph-name="dotmath" unicode="&#x22c5;" horiz-adv-x="406" 
d="M203 735q21 0 36 -15.5t15 -36.5t-15 -36.5t-36 -15.5q-20 0 -35.5 16t-15.5 37q0 20 15.5 35.5t35.5 15.5z" />
    <glyph glyph-name="lozenge" unicode="&#x25ca;" horiz-adv-x="1391" 
d="M1231 683l-537 -764l-535 764l535 764zM694 5l472 678l-472 678l-469 -678z" />
    <glyph glyph-name="openbullet" unicode="&#x25e6;" horiz-adv-x="942" 
d="M475 929q106 0 179 -82q63 -71 63 -164q0 -109 -81 -183q-70 -63 -165 -63q-109 0 -183 81q-63 70 -63 167q0 106 82 181q69 63 168 63zM468 872q-81 0 -138 -62q-48 -54 -48 -127q0 -84 62 -141q54 -48 127 -48q85 0 141 62q48 54 48 128q0 83 -63 140q-53 48 -129 48z
" />
    <glyph glyph-name="glyph155" horiz-adv-x="553" 
 />
    <glyph glyph-name="glyph172" horiz-adv-x="1161" 
 />
    <glyph glyph-name="glyph210" horiz-adv-x="553" 
 />
    <glyph glyph-name="seven.denominator" 
d="M207 23l400 731h-446v56h513v-54l-415 -761z" />
    <glyph glyph-name="eight.denominator" 
d="M269 432q-48 30 -75 77.5t-27 101.5q0 101 80 164q61 47 149 47q103 0 167 -63q62 -62 62 -148q0 -53 -27 -101t-75 -78q130 -73 130 -206q0 -114 -85 -180q-71 -55 -172 -55q-118 0 -192 73q-65 63 -65 162q0 133 130 206zM394 399q-84 0 -140 -50q-56 -51 -56 -127
q0 -75 56 -125t142 -50q84 0 142 50q56 50 56 125q0 78 -56 128q-55 49 -144 49zM394 767q-74 0 -122 -45t-48 -113q0 -66 50 -110q50 -45 122 -45q76 0 126 48q46 45 46 109q0 69 -49 112q-50 44 -125 44z" />
    <glyph glyph-name="nine.denominator" 
d="M610 373l-275 -378l-47 34l208 286q-52 -12 -94 -12q-135 0 -215 86q-62 68 -62 164q0 119 90 200q77 69 183 69q110 0 186 -67q89 -77 89 -202q0 -93 -63 -180zM400 766q-93 0 -154 -61q-62 -62 -62 -151q0 -86 57 -140q60 -57 158 -57q92 0 153 58q62 59 62 144
t-62 147q-63 60 -152 60z" />
    <glyph glyph-name="four.fitted" horiz-adv-x="1139" 
d="M701 1371l48 -31l-569 -964h587v384h58v-384h178v-54h-178v-322h-58v322h-645v64z" />
    <glyph glyph-name="three.fitted" horiz-adv-x="1139" 
d="M519 692v50h67q125 0 198 94q69 88 69 201q0 129 -86 212q-87 81 -224 81q-163 0 -269 -132l-46 26q122 159 318 159q152 0 249 -85q113 -98 113 -258q0 -104 -48 -186.5t-137 -131.5q218 -110 218 -351q0 -163 -96 -269q-108 -120 -296 -120q-143 0 -245 69.5
t-143 196.5l55 15q21 -54 44 -89q93 -137 286 -137q159 0 251 95q87 90 87 235q0 159 -105 255q-76 70 -197 70h-63z" />
    <glyph glyph-name="zero.denominator" 
d="M392 822q172 0 243 -125q60 -105 60 -291q0 -415 -298 -415q-170 0 -241 125q-59 106 -59 296q0 410 295 410zM397 766q-241 0 -241 -364q0 -355 240 -355t240 359q0 360 -239 360z" />
    <glyph glyph-name="two.fitted" horiz-adv-x="1139" 
d="M986 0h-796v75l515 566q99 111 143.5 198t44.5 174q0 115 -67 198q-95 119 -258 119q-239 0 -323 -251l-52 15q24 81 61 133q116 156 325 156q163 0 270 -111q101 -107 101 -257q0 -118 -74 -239q-54 -86 -140 -181l-492 -541h742v-54z" />
    <glyph glyph-name="one.fitted" horiz-adv-x="1139" 
d="M296 54h281v1260l-256 -150l-27 48l261 153h80v-1311h254v-54h-593v54z" />
    <glyph glyph-name="Dieresis" horiz-adv-x="975" 
d="M676 1671q21 0 36 -15t15 -37q0 -21 -15 -36.5t-36 -15.5t-36 16t-15 37q0 20 15.5 35.5t35.5 15.5zM299 1671q21 0 36 -15.5t15 -36.5t-15 -36.5t-36 -15.5q-20 0 -35.5 16t-15.5 37q0 20 15.5 35.5t35.5 15.5z" />
    <glyph glyph-name="Dotaccent" horiz-adv-x="975" 
d="M487 1671q21 0 36 -15.5t15 -36.5t-15 -36.5t-36 -15.5q-20 0 -35.5 16t-15.5 37q0 20 15.5 35.5t35.5 15.5z" />
    <glyph glyph-name="Ring" horiz-adv-x="975" 
d="M486 1759q62 0 103 -40q42 -41 42 -100t-42 -99q-43 -41 -102 -41q-60 0 -102 42q-42 41 -42 100q0 57 43 97q43 41 100 41zM487 1725q-44 0 -75 -31t-31 -76q0 -43 31.5 -74t74.5 -31q44 0 75 31t31 75t-31 75t-75 31z" />
    <glyph glyph-name="Acute" horiz-adv-x="975" 
d="M620 1748l66 -36l-198 -198l-27 15z" />
    <glyph glyph-name="Grave" horiz-adv-x="975" 
d="M487 1514l-197 198l66 36l159 -219z" />
    <glyph glyph-name="five.fitted" horiz-adv-x="1139" 
d="M388 1311l-99 -499q115 56 227 56q99 0 187.5 -40t148.5 -111q100 -119 100 -287q0 -194 -121 -321t-309 -127q-249 0 -384 194l45 33q119 -171 337 -171q174 0 271 105q48 54 76 129t28 153q0 162 -107 274q-112 115 -278 115q-138 0 -244 -89l-51 11l125 629h541v-54
h-493z" />
    <glyph glyph-name="Caron" horiz-adv-x="975" 
d="M291 1739l196 -184l195 184l34 -16l-188 -207h-81l-189 207z" />
    <glyph glyph-name="Breve" horiz-adv-x="975" 
d="M261 1698l48 4q11 -68 60 -109.5t117 -41.5t116.5 40.5t64.5 110.5l47 -4q-15 -64 -50 -108q-69 -86 -177 -86q-110 0 -181 86q-34 42 -45 108z" />
    <glyph glyph-name="Tilde" horiz-adv-x="975" 
d="M682 1673l40 -9q-26 -104 -118 -104q-43 0 -121 36q-74 34 -105 34q-62 0 -85 -65l-40 9q29 105 117 105q40 0 127 -40q64 -30 103 -30q63 0 82 64z" />
    <glyph glyph-name="Hungarumlaut" horiz-adv-x="975" 
d="M478 1747l61 -34l-198 -198l-22 13zM765 1747l60 -34l-197 -198l-22 13z" />
    <glyph glyph-name="Cedilla" horiz-adv-x="975" 
d="M537 -145l57 -25l-155 -196l-32 16z" />
    <glyph glyph-name="Ogonek" horiz-adv-x="975" 
d="M780 0h56q-68 -80 -68 -138q0 -39 26.5 -62t72.5 -23q26 0 53 12l17 -40q-45 -16 -80 -16q-61 0 -101 34.5t-40 88.5q0 65 64 144z" />
    <glyph glyph-name="Macron" horiz-adv-x="975" 
d="M247 1594v51h481v-51h-481z" />
    <glyph glyph-name="Commaaccent" horiz-adv-x="975" 
d="M386 -392l73 247l61 -18l-103 -239z" />
    <glyph glyph-name="Comma.high" horiz-adv-x="975" 
d="M632 1502l73 247l61 -18l-103 -239z" />
    <glyph glyph-name="Dieresis.alt" horiz-adv-x="975" 
d="M617 1671q21 0 36 -15.5t15 -36.5t-15 -36.5t-36 -15.5t-36 16t-15 37q0 20 15.5 35.5t35.5 15.5zM343 1671q21 0 36 -15.5t15 -36.5t-15 -36.5t-36 -15.5q-20 0 -35.5 16t-15.5 37q0 20 15.5 35.5t35.5 15.5z" />
    <glyph glyph-name="commaaccent" horiz-adv-x="975" 
d="M386 -392l73 247l61 -18l-103 -239z" />
    <glyph glyph-name="comma.high" horiz-adv-x="975" 
d="M632 1092l73 248l61 -19l-103 -239z" />
    <glyph glyph-name="dieresis.alt" horiz-adv-x="975" 
d="M343 1256q21 0 36 -15.5t15 -36.5t-15 -36.5t-36 -15.5q-20 0 -35.5 16t-15.5 37q0 20 15.5 35.5t35.5 15.5zM617 1256q21 0 36 -15.5t15 -36.5t-15 -36.5t-36 -15.5t-36 16t-15 37q0 20 15.5 35.5t35.5 15.5z" />
    <glyph glyph-name="commareversed" horiz-adv-x="975" 
d="M766 1331l-73 -248l-61 19l103 238z" />
    <glyph glyph-name="G.salt" horiz-adv-x="1493" 
d="M1272 265v339h-371v54h428v-406q-52 -69 -112 -116q-194 -154 -429 -154q-266 0 -460 185q-105 99 -163 233.5t-58 278.5q0 190 91 353q93 167 250 258q159 93 347 93q253 0 443 -184l-39 -39q-171 168 -406 168q-184 0 -335 -95q-143 -91 -223 -251q-69 -141 -69 -302
q0 -167 76 -309q80 -153 224 -241q148 -93 324 -93q281 0 482 228z" />
    <glyph glyph-name="M.salt" horiz-adv-x="1736" 
d="M157 0l135 1365h73l503 -972l504 972h73l134 -1365h-59l-122 1307l-499 -966h-62l-500 966l-122 -1307h-58z" />
    <glyph glyph-name="y.salt" horiz-adv-x="863" 
d="M266 -292l131 306l-375 894h62l342 -828l354 828h61l-529 -1224q-41 -97 -82 -138t-95 -41q-7 0 -29 2l7 51q5 -1 13 -1q76 0 140 151z" />
    <glyph glyph-name="parenleft.salt" horiz-adv-x="550" 
d="M350 1594l49 -23q-151 -390 -151 -888t151 -888l-49 -23q-69 150 -114 408q-45 256 -45 503t45 503q44 256 114 408z" />
    <glyph glyph-name="parenright.salt" horiz-adv-x="550" 
d="M150 1570l50 23q69 -152 114 -407q44 -259 44 -504q0 -246 -45 -503q-45 -256 -113 -408l-50 23q151 390 151 889q0 498 -151 887z" />
    <glyph glyph-name="bracketleft.salt" horiz-adv-x="557" 
d="M448 1538h-207v-1711h207v-53h-264v1817h264v-53z" />
    <glyph glyph-name="bracketright.salt" horiz-adv-x="557" 
d="M316 -173v1711h-207v53h264v-1817h-264v53h207z" />
    <glyph glyph-name="afii61248.salt" horiz-adv-x="1583" 
d="M651 1233l-41 -40q-71 67 -160 67q-112 0 -177 -80q-49 -59 -49 -148q0 -105 66 -168q64 -61 161 -61q54 0 89 15.5t74 56.5l41 -41q-89 -86 -204 -86q-131 0 -214 92q-73 80 -73 192q0 130 94 212q80 71 194 71q105 0 199 -82zM1139 545q124 0 207 -92q73 -79 73 -191
q0 -130 -94 -214q-80 -71 -191 -71q-129 0 -212 92q-72 81 -72 195q0 126 94 210q80 71 195 71zM1130 490q-95 0 -157 -65q-63 -65 -63 -163q0 -105 66 -168q65 -62 158 -62q111 0 177 80q48 60 48 151q0 101 -66 166q-64 61 -163 61zM377 24l768 1343l42 -25l-768 -1344z
" />
    <glyph glyph-name="braceleft.salt" horiz-adv-x="570" 
d="M125 659v47q76 37 103 99q24 55 24 147v373q0 108 22 163t75 81q51 23 137 23v-50q-84 -4 -113 -23q-36 -21 -50 -60.5t-14 -118.5v-388q4 -193 -129 -269q134 -78 129 -270v-388q0 -82 16 -123t56 -61q27 -13 105 -18v-50q-132 0 -183 58t-51 209v373q0 102 -28 157
q-29 55 -99 89z" />
    <glyph glyph-name="braceright.salt" horiz-adv-x="570" 
d="M445 706v-47q-76 -37 -103 -99q-24 -56 -24 -147v-373q0 -108 -22 -163t-75 -80q-50 -24 -137 -24v50q84 4 113 23q36 21 50 60.5t14 118.5v388q-5 192 129 270q-133 76 -129 269v388q0 83 -16 123.5t-56 60.5q-27 14 -105 18v50q132 0 183 -58t51 -209v-373
q0 -101 29 -157q28 -55 98 -89z" />
    <glyph glyph-name="copyright.salt" horiz-adv-x="993" 
d="M698 1308l-30 -31q-62 60 -132 60q-93 0 -149 -71q-43 -55 -43 -127q0 -85 60 -144q55 -53 132 -53q70 0 135 62l30 -31q-74 -73 -164 -73q-109 0 -178 80q-59 70 -59 159q0 106 77 178q67 62 159 62q85 0 162 -71zM525 1550q171 0 292 -121q121 -120 121 -291t-121 -292
q-120 -121 -291 -121q-174 0 -292 121q-121 122 -121 297q0 75 33.5 154t87.5 132q121 121 291 121zM526 1509q-157 0 -263 -109q-109 -109 -109 -267q0 -68 29.5 -138t79.5 -120q106 -109 263 -109q154 0 262 109q109 109 109 263q0 157 -109 262q-110 109 -262 109z" />
    <glyph glyph-name="registered.salt" horiz-adv-x="993" 
d="M590 1107l112 -206h-49l-106 196q-19 -3 -50 -3h-54v-193h-42v477h96q87 0 127 -36q47 -41 47 -108q0 -86 -81 -127zM443 1337v-203h61q125 0 125 94q0 109 -126 109h-60zM525 1550q171 0 292 -121q121 -120 121 -291t-121 -292q-120 -121 -291 -121q-174 0 -292 121
q-121 121 -121 296q0 77 33 155t88 132q121 121 291 121zM526 1509q-155 0 -263 -109q-109 -109 -109 -267q0 -68 29.5 -138t79.5 -120q106 -109 263 -109q154 0 262 109q109 109 109 263q0 157 -109 262q-110 109 -262 109z" />
    <glyph glyph-name="Circumflex" horiz-adv-x="975" 
d="M682 1512l-195 184l-196 -184l-33 17l189 206h81l188 -206z" />
    <glyph glyph-name="six.fitted" horiz-adv-x="1139" 
d="M232 729l446 638l45 -34l-377 -538q100 53 219 53q212 0 339 -145q99 -113 99 -272q0 -198 -142 -333q-122 -116 -292 -116q-192 0 -321 142q-117 128 -117 306q0 153 101 299zM566 796q-158 0 -268 -108q-109 -108 -109 -266q0 -154 107 -269q112 -117 270 -117
q160 0 271 115q108 113 108 277q0 157 -105 259q-112 109 -274 109z" />
    <glyph glyph-name="seven.fitted" horiz-adv-x="1139" 
d="M281 26l674 1285h-758v54h814v-66l-679 -1301z" />
    <glyph glyph-name="eight.fitted" horiz-adv-x="1139" 
d="M399 726q-84 50 -128 115q-62 92 -62 196q0 165 124 267q95 79 237 79q164 0 263 -103q98 -101 98 -243q0 -199 -191 -311q238 -127 238 -358q0 -187 -134 -294q-116 -92 -274 -92q-188 0 -306 120q-102 103 -102 266q0 230 237 358zM566 691q-157 0 -255 -98
q-92 -94 -92 -231q0 -133 92 -225q99 -100 259 -100t259 100q92 92 92 224q0 140 -92 232q-98 98 -263 98zM567 1330q-133 0 -221 -88q-82 -82 -82 -208q0 -136 107 -223q82 -67 199 -67q136 0 224 90q82 82 82 205q0 141 -108 226q-83 65 -201 65z" />
    <glyph glyph-name="nine.fitted" horiz-adv-x="1139" 
d="M907 637l-447 -639l-44 34l376 539q-99 -48 -217 -48q-216 0 -341 143q-98 113 -98 270q0 199 142 332q121 115 293 115q175 0 296 -112q46 -41 81 -101q60 -106 60 -232q0 -155 -101 -301zM573 1329q-160 0 -271 -114q-109 -112 -109 -276q0 -73 27.5 -143t74.5 -117
q49 -48 123.5 -76t153.5 -28q160 0 270 107q109 108 109 265q0 160 -106 267q-112 115 -272 115z" />
    <glyph glyph-name="zero.fitted" horiz-adv-x="1139" 
d="M562 1383q276 0 389 -206q96 -178 96 -494q0 -317 -96 -495q-113 -206 -381 -206q-272 0 -383 206q-96 178 -96 504q0 691 471 691zM570 1328q-157 0 -263 -101q-158 -153 -158 -552q0 -267 84 -435q49 -98 141 -154q83 -49 195 -49q158 0 262 101q158 153 158 545
q0 279 -84 442q-104 203 -335 203z" />
    <glyph glyph-name="sterling.fitted" horiz-adv-x="1139" 
d="M804 653h-426l12 -58q31 -149 31 -212q0 -94 -43.5 -171t-142.5 -160h777v-52h-834v74q98 83 133 133q55 79 55 166q0 68 -35 237l-9 43h-144v52h133l-16 79q-19 86 -19 186q0 152 56 247q47 80 146 127q83 39 176 39q184 0 297 -161l-46 -31q-106 139 -257 139
q-123 0 -211 -74q-106 -91 -106 -289q0 -85 25 -206l12 -56h436v-52z" />
    <glyph glyph-name="dollar.fitted" horiz-adv-x="1139" 
d="M552 1382v188h57v-188q170 -15 279 -160l-46 -30q-112 138 -269 138q-85 0 -155 -35q-74 -38 -117 -110q-40 -67 -40 -143q0 -180 240 -275l141 -55q156 -61 231 -145q71 -80 71 -198q0 -145 -94 -251q-96 -108 -241 -130v-200h-57v194h-6h-6q-200 0 -315 154
q-40 54 -65 131l56 16q24 -68 56 -112q101 -134 273 -134q147 0 246 101q95 98 95 229q0 105 -64 172q-66 69 -219 130l-135 53q-263 105 -263 319q0 143 96 237q95 93 251 104z" />
    <glyph glyph-name="cent.fitted" horiz-adv-x="1139" 
d="M591 0v212q-103 7 -190 58q-106 61 -169 175q-59 109 -59 238q0 184 115 317q113 132 303 152v213h55v-212q159 -6 287 -121l-38 -40q-113 108 -266 108q-198 0 -312 -147q-85 -109 -85 -271q0 -190 116 -306q113 -113 283 -113q163 0 272 115l39 -39
q-125 -122 -296 -128v-211h-55z" />
    <glyph glyph-name="florin.fitted" horiz-adv-x="1139" 
d="M155 -393l11 53q16 -2 21 -2q149 0 187 188l206 1011h-99l11 51h98l42 205q52 262 247 262q5 0 33 -2l-11 -54q-10 1 -21 1q-150 0 -187 -187l-46 -225h171l-11 -51h-170l-202 -991q-52 -262 -246 -262q-15 0 -34 3z" />
    <glyph glyph-name="Euro.fitted" horiz-adv-x="1139" 
d="M1068 802h-894q-10 -51 -10 -122q0 -61 10 -117h800l-20 -52h-769q12 -54 40 -114q64 -136 184 -230q167 -130 380 -130q108 0 196 32q85 31 194 112v-68q-172 -131 -384 -131q-235 0 -416 139q-192 146 -254 390h-180l20 52h150q-10 56 -10 118t10 121h-170l20 52h161
q17 65 43 124q76 166 217 272q178 133 408 133q247 0 434 -176l-20 -52q-193 173 -422 173q-213 0 -381 -132q-167 -133 -220 -342h904z" />
    <glyph glyph-name="yen.fitted" horiz-adv-x="1139" 
d="M540 0v511h-354v52h354v12l-125 227h-229v52h201l-280 511h63l399 -736l400 736h62l-280 -511h201v-52h-229l-125 -227v-12h354v-52h-354v-511h-58z" />
    <glyph glyph-name="one.numerator" 
d="M457 1365v-810h-59v747l-145 -81l-29 48l170 96h63z" />
    <glyph glyph-name="two.numerator" 
d="M649 554h-502v61l312 329q109 115 109 206q0 73 -52 122t-131 49q-117 0 -166 -99q-10 -21 -19 -49l-55 15q57 188 247 188q101 0 168 -64t67 -161q0 -60 -30.5 -118t-101.5 -133l-275 -290h429v-56z" />
    </font>
</defs>
</svg>
